Телохранитель киллера / The Hitman's Bodyguard (Патрик Хьюз / Patrick Hughes) [2017, США, Китай, Болгария, Нидерланды, боевик, комедия, WEB-DLRip 1080p] Line

Ответить на тему
 
Автор Сообщение

Mithas204 ®

Пол: Мужской

Стаж: 7 лет 11 месяцев

Сообщений: 13072

Откуда: Душанбе, Курган-Тюбе

Создавать темы 10-Сен-2017 12:24

[Цитировать]

-Телохранитель киллера / The Hitman's Bodyguard«Когда новый клиент – старый враг»- -Страна: США, Китай, Болгария, Нидерланды
Жанр: боевик, комедия
Год выпуска: 2017
Продолжительность: 01:58:11-Перевод: Дублированный (Чистый звук)
Субтитры: нет
Оригинальная аудиодорожка: нет-Режиссер: Патрик Хьюз / Patrick Hughes-В ролях: Райан Рейнольдс, Сэмюэл Л. Джексон, Элоди Юнг, Сальма Хайек, Гари Олдман, Жоаки де Алмейда, Юрий Колокольников, Тине Жустра, Сэм Хэзелдайн, Ричард Э. Грант-Описание: Он — телохранитель мирового уровня. Его новая работа — охранять киллера, которого все мечтают убить. Он и сам с удовольствием прикончил бы этого гада. Но работа есть работа: смертельные враги в прошлом, они вынуждены объединиться в настоящем, чтобы выжить. Однако их методы настолько различны, а принципы противоположны, что вопрос выживания — под большим вопросом.- 
Возраст: 16+ (зрителям, достигшим 16 лет)
Рейтинг MPAA: R (лицам до 17 лет обязательно присутствие взрослого)
Дата мировой премьеры: 10 августа 2017
Дата российской премьеры: 17 августа 2017, «MEGOGO Distribution»
-Качество видео: WEB-DLRip-AVC / The.Hitman's.Bodyguard.2017.WEB-DLRip.1080p
Формат видео: MKV-Видео: AVC/H.264, 1920x804 (2.40:1), 4957 kbps, 23.976 fps
Аудио: 48 kHz, AC3 Dolby Digital, 2/0 (L,R) ch, ~384 kbps-
MediaInfo
Видео
Идентификатор : 1
Формат : AVC
Формат/Информация : Advanced Video Codec
Профиль формата : High@L4.1
Параметр CABAC формата : Да
Параметр ReFrames формата : 5 кадров
Идентификатор кодека : V_MPEG4/ISO/AVC
Продолжительность : 1 ч. 58 м.
Вид битрейта : Переменный
Битрейт : 4957 Кбит/сек
Максимальный битрейт : 5500 Кбит/сек
Ширина : 1920 пикселей
Высота : 804 пикселя
Соотношение сторон : 2,40:1
Режим частоты кадров : Постоянный
Частота кадров : 23,976 (24000/1001) кадра/сек
Стандарт вещания : Component
Цветовое пространство : YUV
Субдискретизация насыщенности : 4:2:0
Битовая глубина : 8 бит
Тип развёртки : Прогрессивная
Бит/(Пиксели*Кадры) : 0.134
Размер потока : 4,10 Гбайт (93%)
Язык : Russian
Default : Да
Forced : Нет
Цветовой диапазон : Limited
Основные цвета : BT.709
Характеристики трансфера : BT.709
Коэффициенты матрицы : BT.709
Аудио
Идентификатор : 2
Формат : AC-3
Формат/Информация : Audio Coding 3
Расширение режима : CM (complete main)
Параметр Endianness формата : Big
Идентификатор кодека : A_AC3
Продолжительность : 1 ч. 58 м.
Вид битрейта : Постоянный
Битрейт : 384 Кбит/сек
Каналы : 2 канала
Расположение каналов : Front: L R
Частота : 48,0 КГц
Частота кадров : 31,250 кадров/сек (1536 spf)
Метод сжатия : С потерями
Задержка видео : 20 мс.
Размер потока : 326 Мбайт (7%)
Язык : Russian
Default : Да
Forced : Нет
Скриншоты
[Профиль] [ЛС]

Mithas204 ®

Пол: Мужской

Стаж: 7 лет 11 месяцев

Сообщений: 13072

Откуда: Душанбе, Курган-Тюбе

Создавать темы 10-Сен-2017 15:07 (спустя 2 часа 43 минуты)

[Цитировать]

Готово
[Профиль] [ЛС]

sashalilya

Пол: Мужской

Стаж: 8 лет 11 месяцев

Сообщений: 24097

Откуда: Отсюда

Создавать темы 10-Сен-2017 19:33 (спустя 4 часа)

[Цитировать]

2342523Сэмюэл Л. Джексон
он и Морган Фримен вообще спят?)
[Профиль] [ЛС]
Показать сообщения:    
Ответить на тему

Текущее время: 18-Ноя 18:52

Часовой пояс: UTC + 3



Вы не можете начинать темы
Вы не можете отвечать на сообщения
Вы не можете редактировать свои сообщения
Вы не можете удалять свои сообщения
Вы не можете голосовать в опросах
Вы не можете прикреплять файлы к сообщениям
Вы не можете скачивать файлы