Кэрол / Carol (Тодд Хейнс / Todd Haynes) [2015, Великобритания, США, драма, мелодрама, BDRip] Dub + Sub Rus, Eng + Original Eng

Ответить на тему
 
Автор Сообщение

Mithas204 ®

Пол: Мужской

Стаж: 7 лет 9 месяцев

Сообщений: 13015

Откуда: Душанбе, Курган-Тюбе

Создавать темы 23-Авг-2017 08:05

[Цитировать]

Кэрол / Carol
Страна: Великобритания, США
Жанр: драма, мелодрама
Год выпуска: 2015
Продолжительность: 01:58:28
Перевод: Профессиональный (дублированный)
Субтитры: русские (iTunes, Roksolana), английские
Оригинальная аудиодорожка: английский

Режиссер: Тодд Хейнс / Todd Haynes
В ролях: Кейт Бланшетт, Руни Мара, Кайл Чандлер, Джейк Лэси, Сара Полсон, Джон Магаро, Кори Майкл Смит, Кевин Краули, Ник Паич, Кэрри Браунштейн, Трент Роулэнд, Эми Уорнер, Майкл Хейни, Венди Лардин, Памела Эванс, Кристин А. Дай, Дуглас Скотт Соренсон, Кен Штрунк, Энн Рескин, Линни Бонд
Описание: В неповторимой атмосфере изысканного Нью-Йорка 50-х годов юная Терез встречает Кэрол, ослепительную зрелую женщину, томящуюся в браке без любви. Мимолетный проблеск влечения перерастает во всепоглощающее чувство, которое навсегда изменит их жизни. Но как довериться любви, если твоя судьба зависит от предрассудков безжалостного времени? 
Качество видео: BDRip
Формат видео: AVI
Видео: 720x384 (1.88:1), 23.976 fps, XviD build 73 ~1848 kbps avg, 0.28 bit/pixel
Аудио: 48 kHz, AC3 Dolby Digital, 3/2 (L,C,R,l,r) + LFE ch, ~384 kbps - дубляж
Аудио: 48 kHz, AC3 Dolby Digital, 3/2 (L,C,R,l,r) + LFE ch, ~384 kbps - оригинал
MediaInfo
Видео
Идентификатор : 0
Формат : MPEG-4 Visual
Профиль формата : Advanced Simple@L5
Параметр BVOP формата : 2
Параметр QPel формата : Нет
Параметр GMC формата : Без точки перехода
Параметр матрицы формата : Выборочная
Идентификатор кодека : XVID
Идентификатор кодека/Подсказка : XviD
Продолжительность : 1 ч. 58 м.
Битрейт : 1838 Кбит/сек
Ширина : 720 пикселей
Высота : 384 пикселя
Соотношение сторон : 1,85:1
Частота кадров : 23,976 кадра/сек
Цветовое пространство : YUV
Субдискретизация насыщенности : 4:2:0
Битовая глубина : 8 бит
Тип развёртки : Прогрессивная
Метод сжатия : С потерями
Бит/(Пиксели*Кадры) : 0.277
Размер потока : 1,52 Гбайт (70%)
Библиотека кодирования : XviD 73
Аудио #1
Идентификатор : 1
Формат : AC-3
Формат/Информация : Audio Coding 3
Расширение режима : CM (complete main)
Параметр Endianness формата : Big
Идентификатор кодека : 2000
Продолжительность : 1 ч. 58 м.
Вид битрейта : Постоянный
Битрейт : 384 Кбит/сек
Каналы : 6 каналов
Расположение каналов : Front: L C R, Side: L R, LFE
Частота : 48,0 КГц
Битовая глубина : 16 бит
Метод сжатия : С потерями
Размер потока : 325 Мбайт (15%)
Выравнивание : Разделение по промежуткам
Продолжительность промежутка : 42 мс. (1,00 видеокадр)
Время предзагрузки промежутка : 500 мс.
Аудио #2
Идентификатор : 2
Формат : AC-3
Формат/Информация : Audio Coding 3
Расширение режима : CM (complete main)
Параметр Endianness формата : Big
Идентификатор кодека : 2000
Продолжительность : 1 ч. 58 м.
Вид битрейта : Постоянный
Битрейт : 384 Кбит/сек
Каналы : 6 каналов
Расположение каналов : Front: L C R, Side: L R, LFE
Частота : 48,0 КГц
Битовая глубина : 16 бит
Метод сжатия : С потерями
Размер потока : 325 Мбайт (15%)
Выравнивание : Разделение по промежуткам
Продолжительность промежутка : 42 мс. (1,00 видеокадр)
Время предзагрузки промежутка : 500 мс.
Релиз группы:
--
[Профиль] [ЛС]
Показать сообщения:    
Ответить на тему

Текущее время: 25-Сен 16:24

Часовой пояс: UTC + 3



Вы не можете начинать темы
Вы не можете отвечать на сообщения
Вы не можете редактировать свои сообщения
Вы не можете удалять свои сообщения
Вы не можете голосовать в опросах
Вы не можете прикреплять файлы к сообщениям
Вы не можете скачивать файлы