Нарко / Барыги / Narcos / Сезон: 2 / Серии: 1-10 из 10 (Жозе Падилья) [2015, США, драма, криминал, WEBRip] MVO IdeaFilm

Ответить на тему
 
Автор Сообщение

Rustam7000. ®

Пол: Мужской

Стаж: 5 лет 5 месяцев

Сообщений: 995

Откуда: D - City

Создавать темы 13-Авг-2017 03:20

[Цитировать]

-Нарко / Барыги / Narcos
-Информация о фильме
Название: Нарки (Нарко, Барыги)
Оригинальное название: Narcos
Год выпуска: 2016
Жанр: Драма, криминал
Режиссер: Жозе Падилья, Гильермо Наварро, Фернандо Коибра, Энди Байс
В ролях: Вагнер Моура, Морис Комт, Джоанна Кристи, Бойд Холбрук, Педро Паскаль, Стефани Сигман, Роберто Урбина, Ана де ла Регера, Даниэль Кеннеди, Диего Катаньо-О фильме:
Преступную деятельность будущий влиятельнейший наркобарон Колумбии Пабло Эскобар начал ещё в детстве с воровства и мошенничества, после он перешёл на рэкет, вооружённые налёты и похищение людей. Когда вокруг Пабло сформировалась мощная группировка он решил расширяться в сторону самого перспективного и бездонного рынка - поставки колумбийского кокаина в Соединённые Штаты, где основной проблемой Управления по борьбе с наркотиками до этого момента были лишь добродушные хиппи с их марихуаной. Американские нарки в кратчайшие сроки озолотили юного Пабло и дали ему неограниченную власть на родине, где наркобарон, благодаря своим вложениям в местную экономику, стал настоящим героем. Вместе с несколькими влиятельными коллегами Эскобар создаёт Медельинский кокаиновый картель, закупает всевозможную технику для контрабанды своей продукции на север и открывает множество лабораторий по производству белого порошка в безлюдных джунглях. Держа в страхе политиков Колумбии Пабло всегда добивался желаемого любой ценой, предоставляя потенциальным жертвам выбор между получением взятки и пулей в голову.--Выпущено: США, Gaumont International Television
Продолжительность: 00:50:00
Перевод: Профессиональный многоголосый (IdeaFilm)----Файл
Кодек: XviD
Качество: WEBRip
Видео: ~ 1500 Кбит/с, 720x400
Аудио: Русский (MP3, 6 ch, 384 Кбит/с)
Media Info
General
Complete name                  : J:\Narcos.S02E01.WEBRip-IDEAFILM.avi
Format                         : AVI
Format/Info                    : Audio Video Interleave
File size                      : 716 MiB
Duration                       : 52mn 54s
Overall bit rate               : 1 892 Kbps
Writing application            : VirtualDubMod 1.5.10.2 (build 2540/release)
Writing library                : VirtualDubMod build 2540/release
Video
ID                             : 0
Format                         : MPEG-4 Visual
Format profile                 : Advanced Simple@L5
Format settings, BVOP          : Yes
Format settings, QPel          : No
Format settings, GMC           : No warppoints
Format settings, Matrix        : Default (MPEG)
Codec ID                       : XVID
Codec ID/Hint                  : XviD
Duration                       : 52mn 54s
Bit rate                       : 1 499 Kbps
Width                          : 720 pixels
Height                         : 400 pixels
Display aspect ratio           : 16:9
Frame rate                     : 23.976 fps
Color space                    : YUV
Chroma subsampling             : 4:2:0
Bit depth                      : 8 bits
Scan type                      : Progressive
Compression mode               : Lossy
Bits/(Pixel*Frame)             : 0.217
Stream size                    : 567 MiB (79%)
Writing library                : XviD 1.2.1 (UTC 2008-12-04)
Audio
ID                             : 1
Format                         : AC-3
Format/Info                    : Audio Coding 3
Mode extension                 : CM (complete main)
Format settings, Endianness    : Big
Codec ID                       : 2000
Duration                       : 52mn 54s
Bit rate mode                  : Constant
Bit rate                       : 384 Kbps
Channel count                  : 6 channels
Channel positions              : Front: L C R, Side: L R, LFE
Sampling rate                  : 48.0 KHz
Bit depth                      : 16 bits
Compression mode               : Lossy
Stream size                    : 145 MiB (20%)
Alignment                      : Split accross interleaves
Interleave, duration           : 42 ms (1.00 video frame)
Interleave, preload duration   : 500 ms
Скриншоты
[Профиль] [ЛС]

eminem1

Пол: Мужской

Стаж: 6 лет

Сообщений: 35

Создавать темы 13-Авг-2017 10:26 (спустя 7 часов)

[Цитировать]

чет не качается
[Профиль] [ЛС]

eminem1

Пол: Мужской

Стаж: 6 лет

Сообщений: 35

Создавать темы 16-Авг-2017 09:34 (спустя 2 дня 23 часа)

[Цитировать]

спасибо все в норме
[Профиль] [ЛС]
Показать сообщения:    
Ответить на тему

Текущее время: 21-Авг 22:45

Часовой пояс: UTC + 3



Вы не можете начинать темы
Вы не можете отвечать на сообщения
Вы не можете редактировать свои сообщения
Вы не можете удалять свои сообщения
Вы не можете голосовать в опросах
Вы не можете прикреплять файлы к сообщениям
Вы не можете скачивать файлы