Охранник / Security (2017) WEB-DLRip | L

Ответить на тему
 
Автор Сообщение

Rustam7000. ®

Пол: Мужской

Стаж: 5 лет 9 месяцев

Сообщений: 994

Откуда: D - City

Создавать темы 13-Авг-2017 02:52

[Цитировать]

Охранник / Security
Информация о фильме
Наименование: Охранник
Оригинальное наименование: Security
Год выхода: 2017
Произведено: США, Nu Boyana Film Studios
Категория: боевик-Режиссер постановщик: Ален Дерошер
В главных ролях: Антонио Бандерас, Бен Кингсли, Лиам МакИнтайр, Габриэлла Райт, Чэд Линдберг, Яна Маринова, Кунг Ле, Марк Смит, Дзиро Ван-О фильме:
Эдди Дикон хотел лишь одного: тихой и скучной работы. Он был согласен на все, что угодно, лишь бы скрыться подальше от людской суеты. И Эдди повезло: его взяли на должность ночного охранника в торговом центре. Но уже в первую смену все идет не по плану.
Преступники преследуют в ночи девочку, свидетельницу убийства. Для них не помеха даже бронированный полицейский кортеж. Направляемые лидером-психопатом, они действуют без ошибок и не оставляют следов. Девочка просит укрытия у охраны торгового центра.
Эта ночь заставит Эдди вспомнить все то, что он так хотел забыть.----Файл
Качество: WEB-DLRip
Видео данные: AVI (XVID), 720x304 (2.35:1), 23.976 fps, 1763 Кбит/с
Аудио данные: Русский (MP3, 2 ch, 320 Кбит/с)
Перевод: Любительский многоголосый (GreenРай Studio)
Продолжительность: 01:32:09
Media Info
General
Complete name                  : I:\Security.2017.P.WEB-DLRip.1400MB.avi
Format                         : AVI
Format/Info                    : Audio Video Interleave
File size                      : 1.35 GiB
Duration                       : 1h 32mn
Overall bit rate               : 2 092 Kbps
Writing application            : VirtualDubMod 1.5.10.2 (build 2540/release)
Writing library                : VirtualDubMod build 2540/release
Video
ID                             : 0
Format                         : MPEG-4 Visual
Format profile                 : Advanced Simple@L5
Format settings, BVOP          : Yes
Format settings, QPel          : No
Format settings, GMC           : No warppoints
Format settings, Matrix        : Default (MPEG)
Codec ID                       : XVID
Codec ID/Hint                  : XviD
Duration                       : 1h 32mn
Bit rate                       : 1 763 Kbps
Width                          : 720 pixels
Height                         : 304 pixels
Display aspect ratio           : 2.35:1
Frame rate                     : 23.976 fps
Color space                    : YUV
Chroma subsampling             : 4:2:0
Bit depth                      : 8 bits
Scan type                      : Progressive
Compression mode               : Lossy
Bits/(Pixel*Frame)             : 0.336
Stream size                    : 1.13 GiB (84%)
Writing library                : XviD 1.2.1 (UTC 2008-12-04)
Audio
ID                             : 1
Format                         : MPEG Audio
Format version                 : Version 1
Format profile                 : Layer 3
Mode                           : Joint stereo
Codec ID                       : 55
Codec ID/Hint                  : MP3
Duration                       : 1h 32mn
Bit rate mode                  : Constant
Bit rate                       : 320 Kbps
Channel count                  : 2 channels
Sampling rate                  : 48.0 KHz
Compression mode               : Lossy
Stream size                    : 211 MiB (15%)
Alignment                      : Aligned on interleaves
Interleave, duration           : 42 ms (1.00 video frame)
Interleave, preload duration   : 504 ms
Скриншоты
[Профиль] [ЛС]
Показать сообщения:    
Ответить на тему

Текущее время: 11-Дек 16:23

Часовой пояс: UTC + 3



Вы не можете начинать темы
Вы не можете отвечать на сообщения
Вы не можете редактировать свои сообщения
Вы не можете удалять свои сообщения
Вы не можете голосовать в опросах
Вы не можете прикреплять файлы к сообщениям
Вы не можете скачивать файлы