Борат: Культурные исследования Америки в пользу славного государства Казахстан / Borat: Cultural Learnings of America for Make Benefit Glorious Nation of Kazakhstan (Ларри Чарльз / Larry Charles) [2006, США, комедия, BDRip 720p]

Ответить на тему
 
Автор Сообщение

Rustam7000. ®

Пол: Мужской

Стаж: 5 лет 7 месяцев

Сообщений: 996

Откуда: D - City

Создавать темы 13-Авг-2017 02:39

[Цитировать]

Борат: Культурные Исследования Америки в Пользу Славного Государства Казахстан / Borat: Cultural Learnings of America for Make Benefit Glorious Nation of Kazakhstan-Come to Kazakhstan, It's Nice!- Год выпуска: 2006
Страна: США
Жанр: Комедия
Продолжительность: 01:23:48
Перевод: Профессиональный (полное дублирование)
Русские субтитры: есть-Режиссер: Ларри Чарльз / Larry Charles-В ролях: Саша Барон Коэн, Кен Давитян, Луэнелль, Памела Андерсон, Боб Барр, Митчел Фальк, Алан Кийес, Жан-Пьерр Парент-Описание: Телеведущий из Казахстана Борат отправляется в США, чтобы сделать репортаж об этой «величайшей в мире стране». Однако по прибытии оказалось, что главная цель его визита — поиски Памелы Андерсон с целью жениться на ней, а вовсе не съемки документального фильма…-Доп. информация: User Rating: 7.6/10 (113,151 votes)-Спасибо Sunny за дубляж!-Rip DON-Сэмпл: http://sendfile.su/1335617-Качество: BDRip
Формат: MKV
Видео кодек: H.264
Аудио кодек: DTS
Видео: 1280x694, 23.976 fps, x264, 2pass, l4.1, 5814 kbps
Аудио 1: Russian: DTS 5.1, 768 kbps (Дубляж);
Аудио 2: English: DTS 5.1, 768 kbps;
Субтитры: Russian (Forced), Russian (Full), Ukrainian, English.
 
Релиз: -
Знаете ли вы, что...
* Прототипом Бората Сагдиева стал русский врач. А сам Борат (наряду с рэппером Али Джи и австрийским гомосексуалистом Бруно) был придуман в 2000 году – все эти персонажи стали полноправными участниками шоу Саши Барона Коэна на MTV.
* По признаниям Саши Барона Коэна, исполняющего роль казахского журналиста, сценический костюм Бората ни разу не чистили и не стирали.
* Режиссером картины должен был стать Тодд Филипс, однако Тодду пришлось покинуть проект из-за творческих разногласий между ним и Сашей.
* Усы и волосы Бората – настоящие. Саша Барон Коэн отрастил их специально для съемок картины.
* Фильм едва не стал рекордсменом в номинации «Самое длинное название художественной картины». В данный момент рекордом владеет «Доктор Стрейнджлав» (Dr. Strangelove or: How I Learned to Stop Worrying and Love the Bomb) - 13 слов. На русский язык полное название картины переводится следующим образом: «Борат: изучение американской культуры на благо славного народа Казахстана».
* Пресс-секретарь министерства иностранных дел Казахстана Ержан Ашикбаев осудил поведение Коэна в роли ведущего церемонии MTV Europe Music Awards в Лиссабоне минувшей осенью, когда комик имитировал имперскую ауру, которая окружает Назарбаева, президента страны, занимающего этот пост с момента развала СССР в 1991 году. Ашикбаев предположил, что Коэн действует по «чьему-то политическому приказу» очернить Казахстан, и заявил, что правительство «сохраняет за собой право на любые правовые меры с целью предотвратить новые выходки подобного рода».
* В свою очередь, Коэн, лондонский еврей, ответил от имени Бората в видеообращении, выложенном на его сайте, называя Ашикбаева по имени:
«Я хотел бы заявить, что не имею никакого отношения к мистеру Коэну и полностью поддерживаю решение моего правительства засудить этого еврея. После реформ 2003 года Казахстан стал такой же цивилизованной страной, как любая другая страна мира. Женщины могут теперь ездить внутри автобуса, гомосексуалисты больше не должны носить голубые шляпы, а возраст вступления в брак повышен до восьми лет».
* Большие поклонники Бората Джонни Депп, Джордж Клуни и Стив Мартин просили Коэна дать им камео, но он отказался, чтобы не разрушать реализм фильма.
* Практически все второстепенные персонажи, появляющиеся в фильме, не актеры, а обычные люди, которые действительно не знали, что происходит или знали, но далеко не все. Удивительно, но в суд на Бората подали только три студента, которые его подвезли в своем трейлере. И это при том, что редактор с тв-канала, где набедокурил Борат, лишилась из-за него работы.
M.i
Общее
Уникальный идентификатор : 216625935557937025346525730605610945170 (0xA2F8A339E5B70C2BB7362E1716C5CA92)
Полное имя : T:345\Borat.2006.720p.BluRay.DTS.x264-dxva.mkv
Формат : Matroska
Версия формата : Version 2
Размер файла : 4,37 Гбайт
Продолжительность : 1 ч. 23 м.
Общий поток : 7472 Кбит/сек
Дата кодирования : UTC 2009-12-14 16:58:40
Программа кодирования : mkvmerge v2.9.8 ('C'est le bon') built on Aug 13 2009 12:49:06
Библиотека кодирования : libebml v0.7.7 + libmatroska v0.8.1
Видео
Идентификатор : 1
Формат : AVC
Формат/Информация : Advanced Video Codec
Профиль формата : High@L4.1
Параметр CABAC формата : Да
Параметр ReFrames формата : 8 кадров
Идентификатор кодека : V_MPEG4/ISO/AVC
Продолжительность : 1 ч. 23 м.
Битрейт : 5959 Кбит/сек
Ширина : 1280 пикселей
Высота : 694 пикселя
Соотношение сторон : 1,85:1
Режим частоты кадров : Постоянный
Частота кадров : 23,976 (24000/1001) кадра/сек
Цветовое пространство : YUV
Субдискретизация насыщенности : 4:2:0
Битовая глубина : 8 бит
Тип развёртки : Прогрессивная
Бит/(Пиксели*Кадры) : 0.280
Размер потока : 3,40 Гбайт (78%)
Библиотека кодирования : x264 core 79 r1354M 636f98f
Настройки программы : cabac=1 / ref=8 / deblock=1:-3:-3 / analyse=0x3:0x133 / me=umh / subme=9 / psy=1 / psy_rd=1.0:0.1 / mixed_ref=1 / me_range=34 / chroma_me=1 / trellis=2 / 8x8dct=1 / cqm=0 / deadzone=21,11 / chroma_qp_offset=-3 / threads=6 / nr=0 / decimate=1 / mbaff=0 / constrained_intra=0 / bframes=5 / b_pyramid=2 / b_adapt=2 / b_bias=0 / direct=3 / wpredb=1 / wpredp=2 / keyint=250 / keyint_min=25 / scenecut=40 / rc=2pass / mbtree=0 / bitrate=5959 / ratetol=1.0 / qcomp=0.60 / qpmin=10 / qpmax=51 / qpstep=4 / cplxblur=20.0 / qblur=0.5 / ip_ratio=1.40 / pb_ratio=1.30 / aq=1:0.70
Язык : English
Default : Да
Forced : Нет
Аудио #1
Идентификатор : 2
Формат : DTS
Формат/Информация : Digital Theater Systems
Режим : 16
Параметр Endianness формата : Big
Идентификатор кодека : A_DTS
Продолжительность : 1 ч. 23 м.
Вид битрейта : Постоянный
Битрейт : 755 Кбит/сек
Каналы : 6 каналов
Расположение каналов : Front: L C R, Side: L R, LFE
Частота : 48,0 КГц
Частота кадров : 93,750 кадра/сек (512 spf)
Битовая глубина : 24 бит
Метод сжатия : С потерями
Размер потока : 452 Мбайт (10%)
Заголовок : DTS 5.1, 768 Kbps (Дубляж)
Язык : Russian
Default : Да
Forced : Нет
Аудио #2
Идентификатор : 3
Формат : DTS
Формат/Информация : Digital Theater Systems
Режим : 16
Параметр Endianness формата : Big
Идентификатор кодека : A_DTS
Продолжительность : 1 ч. 23 м.
Вид битрейта : Постоянный
Битрейт : 755 Кбит/сек
Каналы : 6 каналов
Расположение каналов : Front: L C R, Side: L R, LFE
Частота : 48,0 КГц
Частота кадров : 93,750 кадра/сек (512 spf)
Битовая глубина : 24 бит
Метод сжатия : С потерями
Размер потока : 452 Мбайт (10%)
Заголовок : DTS 5.1, 768 Kbps
Язык : English
Default : Нет
Forced : Нет
Текст #1
Идентификатор : 4
Формат : UTF-8
Идентификатор кодека : S_TEXT/UTF8
Идентификатор кодека/Информация : UTF-8 Plain Text
Заголовок : Forced
Язык : Russian
Default : Да
Forced : Нет
Текст #2
Идентификатор : 5
Формат : UTF-8
Идентификатор кодека : S_TEXT/UTF8
Идентификатор кодека/Информация : UTF-8 Plain Text
Заголовок : Full
Язык : Russian
Default : Нет
Forced : Нет
Текст #3
Идентификатор : 6
Формат : UTF-8
Идентификатор кодека : S_TEXT/UTF8
Идентификатор кодека/Информация : UTF-8 Plain Text
Язык : Ukrainian
Default : Нет
Forced : Нет
Текст #4
Идентификатор : 7
Формат : UTF-8
Идентификатор кодека : S_TEXT/UTF8
Идентификатор кодека/Информация : UTF-8 Plain Text
Язык : English
Default : Нет
Forced : Нет
Скриншоты
[Профиль] [ЛС]
Показать сообщения:    
Ответить на тему

Текущее время: 22-Окт 20:09

Часовой пояс: UTC + 3



Вы не можете начинать темы
Вы не можете отвечать на сообщения
Вы не можете редактировать свои сообщения
Вы не можете удалять свои сообщения
Вы не можете голосовать в опросах
Вы не можете прикреплять файлы к сообщениям
Вы не можете скачивать файлы