История Золушки (Красивая Неудачница) / Bella Calamidades / Серии: 1 - 140 (140) (Маурисио Круз, Аугустин Рестрепо) [2009-2010, США-Колумбия, Теленовелла, SATRip] (Много-ТВ)

Ответить на тему
 
Автор Сообщение

Rustam7000. ®

Пол: Мужской

Стаж: 5 лет 5 месяцев

Сообщений: 994

Откуда: D - City

Создавать темы 10-Авг-2017 00:17

[Цитировать]

-Bella Calamidades / История Золушки (Красивая Неудачница)- Год выпуска: 2009 - 2010 г.
Страна: США, Колумбия
Производство: Telemundo Studios Miami и RTI Colombia
Жанр: Теленовелла
Серии (количество): 140
Продолжительность: ~42 мин
Перевод: профессиональный многоголосый закадровый
Субтитры: отсутствуют--Режиссёр: Маурисио Круз, Аугустин Рестрепо--В ролях: Данна Гарсия, Сегундо Сернадас, Кэти Барбери, Адриана Кампос, Мария Елена Доеринг, Диана Кихано, Розмари Бооркес, Тиберио Круз, Джонатан Ислас, Густаво Ангарита, Гари Фореро, Пабло Азар, Мими Моралес и др.--Описание:
Невзгоды и несчастья преследовали Лолу со дня её рождения. Рано осиротев, она попадает в дом своей деспотичной тётки, которая обращается с ней как с прислугой. Не выдержав, Лола сбегает и находит приют на городском кладбище, где днями прячется, а ночами бродит по округе. Несмотря на то, что облик Лолы скрыт под грязью и лохмотьями, Марсело Мачадо, самый желанный мужчина города, видит её настоящую природную красоту, и неожиданное сильное чувство вспыхивает между ними. Но жадное и завистливое окружение не даёт этому чувству длиться долго. Судьба Лолы резко изменится, и она вернётся в город красивой и богатой женщиной, готовой сражаться за свою любовь.--Качество: SATRip
Формат: AVI
Видео кодек: XviD
Аудио кодек: MP3
Видео: 704x528, 688х512 (1.33:1), 25 fps, XviD Codec 1.2.1 ~1600 kbps avg, 0.17 bit/pixel
Аудио: 48000 Hz, MPEG Layer 3, 2 ch, 192 kbps--
Media Info
General
Complete name                  : J:\Красивая неудачница  Bella calamidades\001.avi
Format                         : AVI
Format/Info                    : Audio Video Interleave
File size                      : 562 MiB
Duration                       : 45mn 3s
Overall bit rate               : 1 745 Kbps
Writing library                : VirtualDub-MPEG2 build 24586/release
Video
ID                             : 0
Format                         : MPEG-4 Visual
Format profile                 : Advanced Simple@L5
Format settings, BVOP          : Yes
Format settings, QPel          : No
Format settings, GMC           : No warppoints
Format settings, Matrix        : Default (H.263)
Codec ID                       : XVID
Codec ID/Hint                  : XviD
Duration                       : 45mn 3s
Bit rate                       : 1 543 Kbps
Width                          : 704 pixels
Height                         : 528 pixels
Display aspect ratio           : 4:3
Frame rate                     : 25.000 fps
Color space                    : YUV
Chroma subsampling             : 4:2:0
Bit depth                      : 8 bits
Scan type                      : Progressive
Compression mode               : Lossy
Bits/(Pixel*Frame)             : 0.166
Stream size                    : 497 MiB (88%)
Writing library                : XviD 1.2.1 (UTC 2008-12-04)
Audio
ID                             : 1
Format                         : MPEG Audio
Format version                 : Version 1
Format profile                 : Layer 3
Mode                           : Joint stereo
Mode extension                 : MS Stereo
Codec ID                       : 55
Codec ID/Hint                  : MP3
Duration                       : 45mn 3s
Bit rate mode                  : Constant
Bit rate                       : 192 Kbps
Channel count                  : 2 channels
Sampling rate                  : 48.0 KHz
Compression mode               : Lossy
Stream size                    : 61.9 MiB (11%)
Alignment                      : Split accross interleaves
Interleave, duration           : 40 ms (1.00 video frame)
Interleave, preload duration   : 500 ms
Writing library                : LAME3.98.2
Скриншоты
[Профиль] [ЛС]

Root_tj

Пол: Мужской

Стаж: 3 года 2 месяца

Сообщений: 5871

Откуда: Khujand

Создавать темы 10-Авг-2017 12:32 (спустя 12 часов)

[Цитировать]

Да а размерчик тоже ничего, спс
[Профиль] [ЛС]
Показать сообщения:    
Ответить на тему

Текущее время: 18-Авг 00:29

Часовой пояс: UTC + 3



Вы не можете начинать темы
Вы не можете отвечать на сообщения
Вы не можете редактировать свои сообщения
Вы не можете удалять свои сообщения
Вы не можете голосовать в опросах
Вы не можете прикреплять файлы к сообщениям
Вы не можете скачивать файлы