Интервью с Путиным / The Putin Interviews / Серии: 1-4 из 4 (Оливер Стоун / Oliver Stone) [2017, Документальный, биография, WEBRip 1080p AMAZON] MVO (Первый канал) + Original Eng + Sub Eng

Ответить на тему
 
Автор Сообщение

Rustam7000. ®

Пол: Мужской

Стаж: 5 лет 5 месяцев

Сообщений: 994

Откуда: D - City

Создавать темы 08-Авг-2017 15:48

[Цитировать]

Интервью с Путиным / The Putin Interviews
Год выпуска: 2017
Страна: США
Телеканал: Showtime
Жанр: документальный, биография
Продолжительность: 4 x ~00:58:00
Перевод: Профессиональный (многоголосый закадровый)
Русские субтитры: нет
Режиссер: Оливер Стоун
Описание: На протяжении двух лет Владимир Путин и режиссёр ленты встречались в Кремле, в Сочи, в официальной резиденции президента под Москвой. Фильм предлагает зрителю портрет российского лидера во всей его сложности и полноте. В фильме использована хроника ключевых событий, о которых шла речь в интервью.
 

Тип релиза: WEBRip 1080p AMAZON
Контейнер: MKV
Видео: MPEG-4 AVC, 1920x1080 [16:9], 23.976 fps, ~ 10000 Kbps
Аудио 1: [Русский] AC3, 48 kHz, 2 ch, 192 Kbps - Первый канал
Аудио 2: [Английский] AC3, 48 kHz, 6 ch, 640 Kbps
Формат субтитров: английский hardsub (неотключаемые) на русскую речь
Ссылка на предыдущие и альтернативные раздачи
Релиз
Релиз HDCLUB - BenderBEST
• Запись звука Scorpman, olegka7373
• Работа со звуком - BenderBEST
MediaInfo
General
Unique ID                      : 196191765436683171796226354004071851159 (0x939928DADE5F8258A0FE24FB9100A497)
Complete name                  : K:\Российские фильмы\BDRip 720p 1080p\The.Putin.Interviews.S01.1080p.AMZN.WEBRip.Rus.Eng.HDCLUB\The.Putin.Interviews.Part.1.1080p.AMZN.WEBRip.Rus.Eng.HDCLUB.mkv
Format                         : Matroska
Format version                 : Version 4 / Version 2
File size                      : 4.25 GiB
Duration                       : 58mn 21s
Overall bit rate mode          : Variable
Overall bit rate               : 10.4 Mbps
Movie name                     : The Putin Interviews Part 1 - ReJliz HDCLUB by BenderBEST
Encoded date                   : UTC 2017-06-21 12:33:31
Writing application            : mkvmerge v6.9.1 ('Blue Panther') 32bit built on Apr 18 2014 18:15:44
Writing library                : libebml v1.3.0 + libmatroska v1.4.1
Video
ID                             : 1
Format                         : AVC
Format/Info                    : Advanced Video Codec
Format profile                 : High@L4.0
Format settings, CABAC         : Yes
Format settings, ReFrames      : 4 frames
Codec ID                       : V_MPEG4/ISO/AVC
Duration                       : 58mn 21s
Bit rate mode                  : Variable
Bit rate                       : 9 383 Kbps
Maximum bit rate               : 15.0 Mbps
Width                          : 1 920 pixels
Height                         : 1 080 pixels
Display aspect ratio           : 16:9
Frame rate mode                : Constant
Frame rate                     : 23.976 fps
Color space                    : YUV
Chroma subsampling             : 4:2:0
Bit depth                      : 8 bits
Scan type                      : Progressive
Bits/(Pixel*Frame)             : 0.189
Stream size                    : 3.83 GiB (90%)
Language                       : English
Default                        : Yes
Forced                         : Yes
Color primaries                : BT.709
Transfer characteristics       : BT.709
Matrix coefficients            : BT.709
Audio #1
ID                             : 2
Format                         : AC-3
Format/Info                    : Audio Coding 3
Mode extension                 : CM (complete main)
Format settings, Endianness    : Big
Codec ID                       : A_AC3
Duration                       : 58mn 21s
Bit rate mode                  : Constant
Bit rate                       : 192 Kbps
Channel count                  : 2 channels
Channel positions              : Front: L R
Sampling rate                  : 48.0 KHz
Bit depth                      : 16 bits
Compression mode               : Lossy
Stream size                    : 80.1 MiB (2%)
Title                          : AC3 2.0 @ 192 kbps - MVO, Первый канал
Language                       : Russian
Default                        : Yes
Forced                         : Yes
Audio #2
ID                             : 3
Format                         : AC-3
Format/Info                    : Audio Coding 3
Mode extension                 : CM (complete main)
Format settings, Endianness    : Big
Codec ID                       : A_AC3
Duration                       : 58mn 21s
Bit rate mode                  : Constant
Bit rate                       : 640 Kbps
Channel count                  : 6 channels
Channel positions              : Front: L C R, Side: L R, LFE
Sampling rate                  : 48.0 KHz
Bit depth                      : 16 bits
Compression mode               : Lossy
Stream size                    : 267 MiB (6%)
Title                          : AC3 5.1 @ 640 kbps
Language                       : English
Default                        : No
Forced                         : No
Text
ID                             : 4
Format                         : UTF-8
Codec ID                       : S_TEXT/UTF8
Codec ID/Info                  : UTF-8 Plain Text
Language                       : English
Default                        : No
Forced                         : No
Скриншоты
[Профиль] [ЛС]
Показать сообщения:    
Ответить на тему

Текущее время: 18-Авг 00:28

Часовой пояс: UTC + 3



Вы не можете начинать темы
Вы не можете отвечать на сообщения
Вы не можете редактировать свои сообщения
Вы не можете удалять свои сообщения
Вы не можете голосовать в опросах
Вы не можете прикреплять файлы к сообщениям
Вы не можете скачивать файлы