Стражи Галактики. Часть 2 / Guardians of the Galaxy Vol. 2 (Джеймс Ганн) [2017, Фантастика, Боевик, WEB-DL 1080p] (iTunes)

Ответить на тему
 
Автор Сообщение

Mithas204 ®

Пол: Мужской

Стаж: 7 лет 11 месяцев

Сообщений: 13098

Откуда: Душанбе, Курган-Тюбе

Создавать темы 08-Авг-2017 05:51

[Цитировать]

Стражи Галактики. Часть 2 / Guardians of the Galaxy Vol. 2- Производство: США, Marvel Studios Inc., Walt Disney Pictures
Жанр: Фантастика, Боевик, Приключения
Режиссер: Джеймс Ганн
Продюсер: Виктория Алонсо, Луис Д’Эспозито, Кевин Файг
Актеры: Крис Пратт, Зои Салдана, Дэйв Батиста, Вин Дизель, Брэдли Купер, Майкл Рукер, Карен Гиллан, Пом Клементьефф, Элизабет Дебики, Курт Рассел
Описание:
Все в сборе: землянин Питер Квилл (Звездный Лорд), молчаливый громила Дракс, зеленокожая наемница Гамора, живое дерево Грут и говорящий енот. Герои не изменяют себе и с завидной регулярностью продолжают попадать в немыслимые ситуации, выпутываясь из них почти без ущерба (а иногда даже с пользой) для окружающих. На этот раз им предстоит раскрыть одну из самых главных тайн во всей Галактике: кто же на самом деле отец Питера Квилла?
 
Возраст: 16+ (зрителям, достигшим 16 лет)
Рейтинг MPAA: PG-13 (детям до 13 лет просмотр нежелателен)
Дата мировой премьеры: 19 апреля 2017
Дата российской премьеры: 4 мая 2017, «WDSSPR»
Релиз от: NNMClub
Продолжительность: 02:16:01
Качество видео: WEB-DL
Перевод: Дублированный (iTunes)
Субтитры: Русские (Forced, Full), Английские (Forced, Full)
Видео: AVC/H.264, 1920x804 (2.40:1), 4511 kbps, 23.976 fps
Аудио »1: 48 kHz, AC3 Dolby Digital, 3/2 (L,C,R,l,r) + LFE ch, ~384 kbps (Русский)
Аудио »2: 48 kHz, AC3 Dolby Digital, 3/2 (L,C,R,l,r) + LFE ch, ~384 kbps (Английский)
MediaInfo:
Общее
Уникальный идентификатор : 232409482399692146626738173072034594168 (0xAED8702AAF2D7441B956C07313297D78)
Полное имя : D:\Стражи.Галактики.2.2017.WEB-DL.[1080p].NNMClub.mkv
Формат : Matroska
Версия формата : Version 4 / Version 2
Размер файла : 5,02 Гбайт
Продолжительность : 2 ч. 16 м.
Общий поток : 5280 Кбит/сек
Название фильма : Стражи.Галактики.2.2017.WEB-DL.[1080p].NNMClub
Дата кодирования : UTC 2017-08-07 19:22:01
Программа кодирования : mkvmerge v8.3.0 ('Over the Horizon') 64bit
Библиотека кодирования : libebml v1.3.1 + libmatroska v1.4.2
Видео
Идентификатор : 1
Формат : AVC
Формат/Информация : Advanced Video Codec
Профиль формата : High@L4
Параметр CABAC формата : Да
Параметр ReFrames формата : 5 кадров
Идентификатор кодека : V_MPEG4/ISO/AVC
Продолжительность : 2 ч. 16 м.
Битрейт : 4511 Кбит/сек
Ширина : 1920 пикселей
Высота : 804 пикселя
Соотношение сторон : 2,40:1
Режим частоты кадров : Постоянный
Частота кадров : 23,976 кадра/сек
Цветовое пространство : YUV
Субдискретизация насыщенности : 4:2:0
Битовая глубина : 8 бит
Тип развёртки : Прогрессивная
Бит/(Пиксели*Кадры) : 0.122
Размер потока : 4,29 Гбайт (85%)
Заголовок : Стражи.Галактики.2.2017.WEB-DL.[1080p].NNMClub
Язык : English
Default : Да
Forced : Нет
Цветовой диапазон : Limited
Основные цвета : BT.709
Характеристики трансфера : BT.709
Коэффициенты матрицы : BT.709
Аудио #1
Идентификатор : 2
Формат : AC-3
Формат/Информация : Audio Coding 3
Расширение режима : CM (complete main)
Параметр Endianness формата : Big
Идентификатор кодека : A_AC3
Продолжительность : 2 ч. 15 м.
Вид битрейта : Постоянный
Битрейт : 384 Кбит/сек
Каналы : 6 каналов
Расположение каналов : Front: L C R, Side: L R, LFE
Частота : 48,0 КГц
Частота кадров : 31,250 кадров/сек (1536 spf)
Метод сжатия : С потерями
Размер потока : 373 Мбайт (7%)
Заголовок : iTunes
Язык : Russian
Default : Да
Forced : Нет
Аудио #2
Идентификатор : 3
Формат : AC-3
Формат/Информация : Audio Coding 3
Расширение режима : CM (complete main)
Параметр Endianness формата : Big
Идентификатор кодека : A_AC3
Продолжительность : 2 ч. 15 м.
Вид битрейта : Постоянный
Битрейт : 384 Кбит/сек
Каналы : 6 каналов
Расположение каналов : Front: L C R, Side: L R, LFE
Частота : 48,0 КГц
Частота кадров : 31,250 кадров/сек (1536 spf)
Метод сжатия : С потерями
Размер потока : 373 Мбайт (7%)
Заголовок : Original
Язык : English
Default : Нет
Forced : Нет
Текст #1
Идентификатор : 4
Формат : UTF-8
Идентификатор кодека : S_TEXT/UTF8
Идентификатор кодека/Информация : UTF-8 Plain Text
Продолжительность : 2 ч. 6 м.
Битрейт : 0 бит/сек
Count of elements : 11
Размер потока : 374 байт (0%)
Заголовок : Forced
Язык : Russian
Default : Да
Forced : Нет
Текст #2
Идентификатор : 5
Формат : UTF-8
Идентификатор кодека : S_TEXT/UTF8
Идентификатор кодека/Информация : UTF-8 Plain Text
Продолжительность : 2 ч. 14 м.
Битрейт : 74 бит/сек
Count of elements : 1546
Размер потока : 73,8 Кбайт (0%)
Заголовок : Full
Язык : Russian
Default : Нет
Forced : Нет
Текст #3
Идентификатор : 6
Формат : UTF-8
Идентификатор кодека : S_TEXT/UTF8
Идентификатор кодека/Информация : UTF-8 Plain Text
Продолжительность : 4 с. 87 мс.
Битрейт : 60 бит/сек
Count of elements : 1
Размер потока : 31,0 байт (0%)
Заголовок : Forced
Язык : English
Default : Нет
Forced : Нет
Текст #4
Идентификатор : 7
Формат : UTF-8
Идентификатор кодека : S_TEXT/UTF8
Идентификатор кодека/Информация : UTF-8 Plain Text
Продолжительность : 2 ч. 14 м.
Битрейт : 48 бит/сек
Count of elements : 1579
Размер потока : 47,4 Кбайт (0%)
Заголовок : Full
Язык : English
Default : Нет
Forced : Нет
Меню
00:00:00.000 : en:King Cobra & Giant Sea Monkey
00:09:56.000 : en:Golden Morons
00:15:10.000 : en:Space Chase
00:22:14.000 : en:Not From Missouri
00:32:33.000 : en:Deepest, Darkest Secrets
00:36:52.000 : en:Berhert Ambush
00:42:29.000 : en:Finding Meaning
00:48:03.000 : en:Taserface
00:53:19.000 : en:Celestial Catch
00:58:46.000 : en:Let's Agree To Never Discuss This
01:05:52.000 : en:Eclector Escape
01:11:12.000 : en:Sibling Rivalry
01:18:43.000 : en:Eternity
01:23:55.000 : en:Two Of A Kind
01:30:24.000 : en:Inflated Ego
01:39:36.000 : en:What A Day
01:47:06.000 : en:From The Heart
01:54:21.000 : en:A Father's Sacrifice
01:58:52.000 : en:The Colors Of Ogord
02:07:13.000 : en:End Credits
-Скриншоты:
[Профиль] [ЛС]

spike

Пол: Мужской

Стаж: 9 лет 1 месяц

Сообщений: 3330

Откуда: Душанбе

Создавать темы 08-Авг-2017 06:22 (спустя 30 минут)

[Цитировать]

А вот это хорошо)
Спасибо!
[Профиль] [ЛС]

spike

Пол: Мужской

Стаж: 9 лет 1 месяц

Сообщений: 3330

Откуда: Душанбе

Создавать темы 08-Авг-2017 06:25 (спустя 3 минуты)

[Цитировать]

Mithas204,
а может первую часть тоже зальешь?
надо бы освежить память)
[Профиль] [ЛС]

madtj

Пол: Мужской

Стаж: 6 лет 3 месяца

Сообщений: 141

Откуда: Dushanbe city

Создавать темы 08-Авг-2017 07:25 (спустя 1 час)

[Цитировать]

полители
[Профиль] [ЛС]

Mithas204 ®

Пол: Мужской

Стаж: 7 лет 11 месяцев

Сообщений: 13098

Откуда: Душанбе, Курган-Тюбе

Создавать темы 08-Авг-2017 14:27 (спустя 7 часов)

[Цитировать]

2339626Mithas204,
а может первую часть тоже зальешь?
надо бы освежить память)
Стражи Галактики / Guardians of the Galaxy (Джеймс Ганн / James Gunn) [2014, США, Великобритания, фантастика, боевик, приключения, BDRip 1080p] Dub + Sub Rus, Eng + Original Eng
[Профиль] [ЛС]

spike

Пол: Мужской

Стаж: 9 лет 1 месяц

Сообщений: 3330

Откуда: Душанбе

Создавать темы 08-Авг-2017 14:43 (спустя 16 минут)

[Цитировать]

Mithas204,
Отлично!
[Профиль] [ЛС]

Баходур

Пол: Мужской

Стаж: 9 лет 1 месяц

Сообщений: 14794

Откуда: Душанбе

Создавать темы 08-Авг-2017 15:57 (спустя 1 час 13 минут)

[Цитировать]

размер по меше будет?
[Профиль] [ЛС]

Mithas204 ®

Пол: Мужской

Стаж: 7 лет 11 месяцев

Сообщений: 13098

Откуда: Душанбе, Курган-Тюбе

Создавать темы 08-Авг-2017 20:42 (спустя 4 часа)

[Цитировать]

2339679размер по меше будет?
Лицензия
[Профиль] [ЛС]

xzibit-tj

Пол: Мужской

Стаж: 8 лет 5 месяцев

Сообщений: 844

Откуда: United Tajikistan

Создавать темы 19-Сен-2017 19:48 (спустя 1 месяц 10 дней)

[Цитировать]

не могу скачать что случилось
[Профиль] [ЛС]

Mithas204 ®

Пол: Мужской

Стаж: 7 лет 11 месяцев

Сообщений: 13098

Откуда: Душанбе, Курган-Тюбе

Создавать темы 19-Сен-2017 20:21 (спустя 32 минуты)

[Цитировать]

2343351не могу скачать что случилось
Перезапусти торрент прогу.
[Профиль] [ЛС]

xzibit-tj

Пол: Мужской

Стаж: 8 лет 5 месяцев

Сообщений: 844

Откуда: United Tajikistan

Создавать темы 19-Сен-2017 20:26 (спустя 5 минут)

[Цитировать]

2343355
2343351не могу скачать что случилось
Перезапусти торрент прогу.
Перезапустил но не как
[Профиль] [ЛС]

xzibit-tj

Пол: Мужской

Стаж: 8 лет 5 месяцев

Сообщений: 844

Откуда: United Tajikistan

Создавать темы 19-Сен-2017 20:27 (спустя 1 минута)

[Цитировать]

2343357
2343355
2343351не могу скачать что случилось
Перезапусти торрент прогу.
Перезапустил но не как
может пиры добавить ?
[Профиль] [ЛС]

Mithas204 ®

Пол: Мужской

Стаж: 7 лет 11 месяцев

Сообщений: 13098

Откуда: Душанбе, Курган-Тюбе

Создавать темы 19-Сен-2017 20:36 (спустя 9 минут)

[Цитировать]

2343358
2343357
2343355
2343351не могу скачать что случилось
Перезапусти торрент прогу.
Перезапустил но не как
может пиры добавить ?
остонови раздачу. перехешируй её.
[Профиль] [ЛС]

xzibit-tj

Пол: Мужской

Стаж: 8 лет 5 месяцев

Сообщений: 844

Откуда: United Tajikistan

Создавать темы 19-Сен-2017 20:39 (спустя 2 минуты)

[Цитировать]

2343361
2343358
2343357
2343355
2343351не могу скачать что случилось
Перезапусти торрент прогу.
Перезапустил но не как
может пиры добавить ?
остонови раздачу. перехешируй её.
Спасибо ! помогло
[Профиль] [ЛС]

hellboy2014

Пол: Мужской

Стаж: 3 года 4 месяца

Сообщений: 736

Создавать темы 20-Окт-2017 18:11 (спустя 1 месяц)

[Цитировать]

фигня, а не фильм. сюжет 0
[Профиль] [ЛС]
Показать сообщения:    
Ответить на тему

Текущее время: 22-Ноя 18:04

Часовой пояс: UTC + 3



Вы не можете начинать темы
Вы не можете отвечать на сообщения
Вы не можете редактировать свои сообщения
Вы не можете удалять свои сообщения
Вы не можете голосовать в опросах
Вы не можете прикреплять файлы к сообщениям
Вы не можете скачивать файлы