Босс-молокосос / The Boss Baby (Том МакГрат / Tom McGrath) [2017, Мультфильм, комедия, семейный, BDRip] Dub (Лицензия) + Org

Ответить на тему
 
Автор Сообщение

Mithas204 ®

Пол: Мужской

Стаж: 7 лет 11 месяцев

Сообщений: 13169

Откуда: Душанбе, Курган-Тюбе

Создавать темы 04-Авг-2017 17:13

[Цитировать]

Босс-молокосос / The Boss Baby«Прирождённый лидер»- Производство: США / DreamWorks Animation
Жанр: мультфильм, комедия, семейный
Режиссер: Том МакГрат
Продюсер: Ребекка Хантли, Рэмси Энн Наито, Джед Шлангер
Персонажи: Майлз Кристофер Бакши, Алек Болдуин, Эрик Белл мл., Стив Бушеми, Джимми Киммел, Лиза Кудроу, Тоби Магуайр, ВивиЭнн Йи
Описание:
Эта актуальная во все времена история для взрослых и детей рассказывается от лица семилетнего брата новорожденного — фантазера Тима, который ревнует его к родителям. Но главный герой — совсем не простой ребенок, он обладает лидерскими задатками, уже носит деловые костюмы и во всем видит бизнес-задачу.
Однажды Тим узнает о готовящемся заговоре, целью которого является уничтожение любви, и организовал его директор компании «Puppy Co». Но одному Тиму не по силам его остановить. Мальчику предстоит объединиться со своим «нелюбимым» братом, чтобы спасти родителей и вернуть порядок на Земле.
 
Рейтинг MPAA: PG (рекомендуется присутствие родителей)
Дата мировой премьеры: 12 марта 2017
Дата премьеры в России: 23 марта 2017, «Двадцатый Век Фокс СНГ» 3D

Релиз от: ExKinoRay
Продолжительность: 01:37:30
Качество: BDRip (H.264)
Перевод: Дублированный (Лицензия BD EUR)
Субтитры: Русские (форсированные и полные), английские (полные)
Видео: AVC/H.264, 1024x436, (2.35:1), 2 028 kbps, 23.976 fps
Аудио: AC3, 6 ch, 448 kbps - Русский
Аудио: AC3, 6 ch, 448 kbps - Английский
Mediainfo:
General
Unique ID : 176846203535899113820050247030467651516 (0x850B57034CB6700C8827F3C5DDFAE7BC)
Complete name : D:The.Boss.Baby.2017.D.BDRip.AVC.ExKinoRay.mkv
Format : Matroska
Format version : Version 2
File size : 1.99 GiB
Duration : 1 h 37 min
Overall bit rate : 2 926 kb/s
Movie name : The Boss Baby (2017) from ExKinoRay
Encoded date : UTC 2017-07-27 20:18:03
Writing application : mkvmerge v5.6.0 ('Kenya Kane') built on May 27 2012 16:44:04
Writing library : libebml v1.2.3 + libmatroska v1.3.0
Video
ID : 1
Format : AVC
Format/Info : Advanced Video Codec
Format profile : High@L4.1
Format settings, CABAC : Yes
Format settings, ReFrames : 12 frames
Codec ID : V_MPEG4/ISO/AVC
Duration : 1 h 37 min
Bit rate : 2 028 kb/s
Width : 1 024 pixels
Height : 436 pixels
Display aspect ratio : 2.35:1
Frame rate mode : Constant
Frame rate : 23.976 (23976/1000) FPS
Color space : YUV
Chroma subsampling : 4:2:0
Bit depth : 8 bits
Scan type : Progressive
Bits/(Pixel*Frame) : 0.189
Stream size : 1.34 GiB (67%)
Title : Enigma
Writing library : x264 core 144 r2525 40bb568
Encoding settings : cabac=1 / ref=12 / deblock=1:-1:-2 / analyse=0x3:0x113 / me=umh / subme=10 / psy=1 / psy_rd=1.03:0.10 / mixed_ref=1 / me_range=32 / chroma_me=1 / trellis=2 / 8x8dct=1 / cqm=0 / deadzone=21,11 / fast_pskip=1 / chroma_qp_offset=-3 / threads=12 / lookahead_threads=3 / sliced_threads=0 / nr=0 / decimate=0 / interlaced=0 / bluray_compat=0 / constrained_intra=0 / bframes=11 / b_pyramid=2 / b_adapt=2 / b_bias=0 / direct=3 / weightb=1 / open_gop=0 / weightp=2 / keyint=240 / keyint_min=23 / scenecut=40 / intra_refresh=0 / rc_lookahead=40 / rc=2pass / mbtree=0 / bitrate=2028 / ratetol=1.0 / qcomp=0.60 / qpmin=0 / qpmax=51 / qpstep=4 / cplxblur=20.0 / qblur=0.5 / vbv_maxrate=50000 / vbv_bufsize=62500 / nal_hrd=none / filler=0 / ip_ratio=1.40 / pb_ratio=1.30 / aq=1:1.00
Language : English
Default : Yes
Forced : No
Color range : Limited
Color primaries : BT.709
Transfer characteristics : BT.709
Matrix coefficients : BT.709
Audio #1
ID : 2
Format : AC-3
Format/Info : Audio Coding 3
Mode extension : CM (complete main)
Format settings, Endianness : Big
Codec ID : A_AC3
Duration : 1 h 37 min
Bit rate mode : Constant
Bit rate : 448 kb/s
Channel(s) : 6 channels
Channel positions : Front: L C R, Side: L R, LFE
Sampling rate : 48.0 kHz
Frame rate : 31.250 FPS (1536 spf)
Compression mode : Lossy
Stream size : 312 MiB (15%)
Title : Dub (Лицензия)
Language : Russian
Default : Yes
Forced : No
Audio #2
ID : 3
Format : AC-3
Format/Info : Audio Coding 3
Mode extension : CM (complete main)
Format settings, Endianness : Big
Codec ID : A_AC3
Duration : 1 h 37 min
Bit rate mode : Constant
Bit rate : 448 kb/s
Channel(s) : 6 channels
Channel positions : Front: L C R, Side: L R, LFE
Sampling rate : 48.0 kHz
Frame rate : 31.250 FPS (1536 spf)
Compression mode : Lossy
Stream size : 312 MiB (15%)
Language : English
Default : No
Forced : No
Text #1
ID : 4
Format : UTF-8
Codec ID : S_TEXT/UTF8
Codec ID/Info : UTF-8 Plain Text
Title : Forced
Language : Russian
Default : Yes
Forced : No
Text #2
ID : 5
Format : UTF-8
Codec ID : S_TEXT/UTF8
Codec ID/Info : UTF-8 Plain Text
Language : Russian
Default : No
Forced : No
Text #3
ID : 6
Format : UTF-8
Codec ID : S_TEXT/UTF8
Codec ID/Info : UTF-8 Plain Text
Language : English
Default : No
Forced : No
Menu
00:00:00.000 : en:00:00:00.000
00:03:45.892 : en:00:03:45.892
00:08:58.288 : en:00:08:58.288
00:11:45.914 : en:00:11:45.914
00:14:59.565 : en:00:14:59.565
00:19:38.219 : en:00:19:38.219
00:22:52.788 : en:00:22:52.788
00:28:27.247 : en:00:28:27.247
00:30:26.116 : en:00:30:26.116
00:33:45.482 : en:00:33:45.482
00:36:57.257 : en:00:36:57.257
00:39:18.356 : en:00:39:18.356
00:42:35.344 : en:00:42:35.344
00:46:20.611 : en:00:46:20.611
00:51:37.720 : en:00:51:37.720
00:53:25.285 : en:00:53:25.285
00:56:28.719 : en:00:56:28.719
00:59:35.405 : en:00:59:35.405
01:04:03.173 : en:01:04:03.173
01:08:15.758 : en:01:08:15.758
01:11:29.911 : en:01:11:29.911
01:16:25.247 : en:01:16:25.247
01:23:10.110 : en:01:23:10.110
01:27:36.960 : en:01:27:36.960
-Скриншоты:
[Профиль] [ЛС]

Mithas204 ®

Пол: Мужской

Стаж: 7 лет 11 месяцев

Сообщений: 13169

Откуда: Душанбе, Курган-Тюбе

Создавать темы 04-Авг-2017 17:14 (спустя 55 секунд)

[Цитировать]

готово
[Профиль] [ЛС]
Показать сообщения:    
Ответить на тему

Текущее время: 11-Дек 16:24

Часовой пояс: UTC + 3



Вы не можете начинать темы
Вы не можете отвечать на сообщения
Вы не можете редактировать свои сообщения
Вы не можете удалять свои сообщения
Вы не можете голосовать в опросах
Вы не можете прикреплять файлы к сообщениям
Вы не можете скачивать файлы