Профессор Почемушкин (серии 1-55) и Мультяшки-объясняшки (серии 1-11) (2013-2017) WEB-DLRip 720p [Обновляемая]

Ответить на тему
 
Автор Сообщение

Mithas204 ®

Пол: Мужской

Стаж: 8 лет

Сообщений: 13190

Откуда: Душанбе, Курган-Тюбе

Создавать темы 26-Июл-2017 11:56

[Цитировать]

Профессор Почемушкин (2013-2017) WEB-DLRip (серии 1-55)+ Мультяшки-объясняшки (2016-2017) WEB-DLRip (серии 1-11)- Год выпуска: 2013-2017
Жанр: Детский, Развивающий, Обучающий
Производство: Россия («Эффект-Фильм»)
Режиссер: Елена Маленкина
Описание:
Анимационный развивающий сериал «Профессор Почемушкин» - Каждая серия мультфильма - это увлекательные ответы на самые неожиданные вопросы Сережи Почемушкина: сколько нужно времени, чтобы добраться до Луны? Зачем нужны мыльные пузыри? Откуда семечко знает, куда ему расти? И многие другие. Серёжа Почемушкин - это семилетний мальчик, который не может усидеть на месте – ведь вокруг так много интересного! За пытливость ума и любознательность родные прозвали Сережу Профессором. Сергей живет со своими родителями и трехлетней сестренкой Катей в современном городе и очень любит задавать взрослым разные вопросы. Почему тает снег? Откуда берутся червяки? Зачем крокодилу хвост? Кто зажигает звезды? И т.п. Но еще больше Профессор Почемушкмн любит изучать окружающий мир. Серёжа Почемушкин никогда не унывает и всегда старается найти выход из самой сложной и запутанной ситуации.
 
Релиз от: Natasha77
Продолжительность: серия по ~ 00:01:00
Качество видео: WEB-DLRip
Перевод: Не требуется (Русский)
Субтитры: Отсутствуют
Видео: AVC/H.264, 1280x720, ~2500 kbps
Аудио: Русский: AAC, 2 ch, 192 Kbps
MediaInfo
Общее
Уникальный идентификатор                 : 170383530730199532436528764089080771198 (0x802EACA495D2105F9F0D33432574727E)
Полное имя                               : C:\Профессор Почемушкин (720p-AVC)\04. Почему гром всегда гремит после вспышки молнии.mkv
Формат                                   : Matroska
Версия формата                           : Version 4 / Version 2
Размер файла                             : 20,1 Мбайт
Продолжительность                        : 1 м. 2 с.
Общий поток                              : 2691 Кбит/сек
Дата кодирования                         : UTC 2017-02-22 09:42:46
Программа кодирования                    : mkvmerge v9.9.0 ('Pick Up') 32bit
Библиотека кодирования                   : libebml v1.3.4 + libmatroska v1.4.5
Видео
Идентификатор                            : 1
Формат                                   : AVC
Формат/Информация                        : Advanced Video Codec
Профиль формата                          : High@L3.1
Параметр CABAC формата                   : Да
Параметр ReFrames формата                : 1 кадр
Идентификатор кодека                     : V_MPEG4/ISO/AVC
Продолжительность                        : 1 м. 2 с.
Битрейт                                  : 2496 Кбит/сек
Ширина                                   : 1280 пикселей
Высота                                   : 720 пикселей
Соотношение сторон                       : 16:9
Режим частоты кадров                     : Постоянный
Частота кадров                           : 25,000 кадров/сек
Цветовое пространство                    : YUV
Субдискретизация насыщенности            : 4:2:0
Битовая глубина                          : 8 бит
Тип развёртки                            : Прогрессивная
Бит/(Пиксели*Кадры)                      : 0.108
Размер потока                            : 18,7 Мбайт (93%)
Default                                  : Да
Forced                                   : Нет
Аудио
Идентификатор                            : 2
Формат                                   : AAC
Формат/Информация                        : Advanced Audio Codec
Профиль формата                          : LC
Идентификатор кодека                     : A_AAC
Продолжительность                        : 1 м. 2 с.
Битрейт                                  : 192 Кбит/сек
Каналы                                   : 2 канала
Расположение каналов                     : Front: L R
Частота                                  : 44,1 КГц
Частота кадров                           : 43,066 кадра/сек (1024 spf)
Метод сжатия                             : С потерями
Размер потока                            : 1,44 Мбайт (7%)
Default                                  : Да
Forced                                   : Нет
Список серий
01. Если продырявить Землю насквозь, можно ли оказаться на другой стороне?
02. Можно ли измерить окружность Земли?
03. Почему шахматного ферзя называют королевой?
04. Почему гром всегда гремит после вспышки молнии?
05. Почему стрелка компаса всегда указывает на север?
06. Почему у кошки ночью глаза светятся?
07. Сколько нужно времени, чтобы добраться от Земли до Луны?
08. Почему звезды падают?
09. Почему пони такие маленькие?
10. Почему в ракушках слышится шум моря?
11. Откуда семечко знает, куда ему расти?
12. Зачем слону хобот?
13. Кто придумал мыльные пузыри?
14. Как на земле появилась первая бумага?
15. Зачем деревьям кольца?
16. Почему у жирафа такая длинная шея?
17. Какого цвета хамелеон?
18. Почему листья зелёные?
19. Почему попугаи разговаривают?
20. Почему вода в море соленая?
21. Почему от сладкого зубы портятся?
22. Что такое радуга?
23. Для чего нужны скворешники?
24. Почему некоторые грибы называют ядовитыми?
25. Зачем пчёлам мёд?
26. Зачем нужны муравейники?
27. Зачем Белка и Стрелка летали в космос?
28. Почему зебра полосатая?
29. Почему арбуз называют ягодой?
30. Сколько живут черепахи?
31. Почему страус прячет голову в песок?
32. Что значит выражение «Не в своей тарелке»?
33. Почему башню с часами в Лондоне называют «Биг Бэн»?
34. Кто придумал Олимпийские игры?
35. Почему Американские доллары называют «баксами»?
36. Как появились деньги?
37. Где находится «Тридевятое царство»?
38. Зачем нужен помпон на шапке?
39. Почему обозначением неизвестного служит именно буква «Икс»?
40. Почему пожарные ведра конической формы?
41. Зачем одуванчику парашют?
42. Почему рыбы не разговаривают?
43. Как растет хлопок?
44. Почему снег белый?
45. Откуда кактусы берут воду в пустыне?
46. Откуда паук берет свою паутину?
47. Почему у трактора задние колеса больше передних?
48. Зачем людям веснушки?
49. Куда снегири улетают на лето?
50. Кто придумал мороженое?
51. Зачем в сыре дырки?
52. Почему День космонавтики отмечают 12 апреля?
53. Зачем нужны загадки?
54. Зачем божьей коровке нужны черные точки?
55. Как люди научились записывать музыку?
Скриншоты:
--Мультяшки-объясняшки (2016-2017) WEB-DLRip (серии 1-11)- Год выпуска: 2016-2017
Жанр: Детский, Развивающий, Обучающий
Производство: Россия («Эффект-Фильм»)
Режиссер: Сергей Кролевич, Артем Кметь
Описание:
Новый мультипликационный сериал от создателей "Профессора Почемушкина". Мультяшки-объясняшки помогают объяснить любую ситуацию наглядно и доступно: что такое мягкое и твёрдое, тёмное и светлое, грязное и чистое...
Релиз от: Natasha77
Продолжительность: серия по ~ 00:01:00
Качество видео: WEB-DLRip
Перевод: Не требуется (Русский)
Субтитры: Отсутствуют
Видео: AVC/H.264, 1280x720, ~2500 kbps
Аудио: Русский: AAC, 2 ch, 192 Kbps
MediaInfo
Video
ID                          : 1
Format                      : AVC
Format/Info                 : Advanced Video Codec
Format profile              : Main@L3.1
Format settings, CABAC      : Yes
Format settings, ReFrames   : 1 frame
Codec ID                    : V_MPEG4/ISO/AVC
Duration                    : 58 s 760 ms
Bit rate                    : 1 597 kb/s
Width                       : 1 280 pixels
Height                      : 720 pixels
Display aspect ratio        : 16:9
Frame rate mode             : Constant
Frame rate                  : 25.000 FPS
Color space                 : YUV
Chroma subsampling          : 4:2:0
Bit depth                   : 8 bits
Scan type                   : Progressive
Bits/(Pixel*Frame)          : 0.069
Stream size                 : 11.2 MiB (93%)
Default                     : Yes
Forced                      : No
Color range                 : Limited
Color primaries             : BT.709
Transfer characteristics    : BT.709
Matrix coefficients         : BT.709
Audio
ID                          : 2
Format                      : AAC
Format/Info                 : Advanced Audio Codec
Format profile              : LC
Codec ID                    : A_AAC
Duration                    : 58 s 816 ms
Bit rate                    : 126 kb/s
Channel(s)                  : 2 channels
Channel positions           : Front: L R
Sampling rate               : 44.1 kHz
Frame rate                  : 43.066 FPS (1024 spf)
Compression mode            : Lossy
Stream size                 : 902 KiB (7%)
Default                     : Yes
Forced                      : No
Список серий
01. Мягкое - твердое
02. Светло - темно
03. Грязное - чистое
04. Жара - мороз
05. Полный - пустой
06. Весело - грустно
07. Свое - чужое
08. Высоко - низко
09. Далеко - близко
10. Много - мало
11. Толстый - тонкий
Скриншоты:
Жанр: Детский, Развивающий, Обучающий
Производство: Россия («Эффект-Фильм»)
Режиссер: Елена Маленкина
Описание:
Анимационный развивающий сериал «Профессор Почемушкин» - Каждая серия мультфильма - это увлекательные ответы на самые неожиданные вопросы Сережи Почемушкина: сколько нужно времени, чтобы добраться до Луны? Зачем нужны мыльные пузыри? Откуда семечко знает, куда ему расти? И многие другие. Серёжа Почемушкин - это семилетний мальчик, который не может усидеть на месте – ведь вокруг так много интересного! За пытливость ума и любознательность родные прозвали Сережу Профессором. Сергей живет со своими родителями и трехлетней сестренкой Катей в современном городе и очень любит задавать взрослым разные вопросы. Почему тает снег? Откуда берутся червяки? Зачем крокодилу хвост? Кто зажигает звезды? И т.п. Но еще больше Профессор Почемушкмн любит изучать окружающий мир. Серёжа Почемушкин никогда не унывает и всегда старается найти выход из самой сложной и запутанной ситуации.
Продолжительность: ~ 00:01:00 серия
Качество видео: WEB-DLRip
Перевод: Не требуется (Русский)
Субтитры: Отсутствуют
[Профиль] [ЛС]
Показать сообщения:    
Ответить на тему

Текущее время: 15-Дек 09:29

Часовой пояс: UTC + 3



Вы не можете начинать темы
Вы не можете отвечать на сообщения
Вы не можете редактировать свои сообщения
Вы не можете удалять свои сообщения
Вы не можете голосовать в опросах
Вы не можете прикреплять файлы к сообщениям
Вы не можете скачивать файлы