Дюнкерк / Dunkirk (Кристофер Нолан) [2017, Великобритания, военный, драма, TS 720p] Dub

Тема закрыта
 
Автор Сообщение

Mithas204 ®

Пол: Мужской

Стаж: 7 лет 11 месяцев

Сообщений: 13072

Откуда: Душанбе, Курган-Тюбе

Создавать темы 21-Июл-2017 06:31

[Цитировать]

Дюнкерк / Dunkirk- Производство: Великобритания, Нидерланды, Франция, США, Warner Bros. Pictures
Жанр: Военный, Драма, История
Режиссер: Кристофер Нолан
Продюсер: Джон Бернард, Эрвин Годшалк, Джэйк Майерс
Актеры: Финн Уайтхед, Том Глинн-Карни, Джек Лауден, Гарри Стайлс, Анайрин Барнард, Джеймс Д’Арси, Барри Кеоган, Кеннет Брана, Киллиан Мёрфи, Марк Райлэнс
Описание:
Фильм расскажет историю чудесного спасения более трехсот тысяч солдат в ходе Дюнкеркской операции, имевшей место в начале Второй мировой войны. События начинаются с окружения сотен тысяч британских и союзных войск силами противника. Пойманные в ловушку на пляже, находясь спиной к морю, они сталкиваются лицом к лицу с неразрешимой ситуацией, тем временем тиски противника сжимаются все сильнее и сильнее.
 
Возраст: 16+ (зрителям, достигшим 16 лет)
Рейтинг MPAA: PG-13 (детям до 13 лет просмотр нежелателен)
Дата мировой премьеры: 16 июля 2017
Дата российской премьеры: 20 июля 2017, «Каро-Премьер»
Продолжительность: 01:39:56
Качество видео: TS
Перевод: Дублированный
Субтитры: Отсутствуют
Реклама: Присутствуют аудио и текстовые вставки рекламы
Видео: AVC/H.264, 1280x576, 4641 kbps
Аудио: 48 kHz, AC3 Dolby Digital, 2/0 (L,R) ch, ~192 kbps
MediaInfo:
Общее
Уникальный идентификатор : 206106873680514153351418389843097743794 (0x9B0EBD6F1A2531E99526E2AAC934F1B2)
Полное имя : D:\DiudKeroK.2O17.D.HDTS.72Op_KOSHARA.mkv
Формат : Matroska
Версия формата : Version 2
Размер файла : 3,44 Гбайт
Продолжительность : 1 ч. 39 м.
Режим общего битрейта : Переменный
Общий поток : 4931 Кбит/сек
Дата кодирования : UTC 2017-07-20 18:53:57
Программа кодирования : mkvmerge v8.3.0 ('Over the Horizon') 64bit
Библиотека кодирования : libebml v1.3.1 + libmatroska v1.4.2
Видео
Идентификатор : 1
Формат : AVC
Формат/Информация : Advanced Video Codec
Профиль формата : High@L4.1
Параметр CABAC формата : Да
Параметр ReFrames формата : 11 кадров
Идентификатор кодека : V_MPEG4/ISO/AVC
Продолжительность : 1 ч. 39 м.
Вид битрейта : Переменный
Битрейт : 4641 Кбит/сек
Максимальный битрейт : 5000 Кбит/сек
Ширина : 1280 пикселей
Высота : 576 пикселей
Соотношение сторон : 2,222
Режим частоты кадров : Постоянный
Частота кадров : 29,970 кадров/сек
Стандарт вещания : Component
Цветовое пространство : YUV
Субдискретизация насыщенности : 4:2:0
Битовая глубина : 8 бит
Тип развёртки : Прогрессивная
Бит/(Пиксели*Кадры) : 0.210
Размер потока : 3,24 Гбайт (94%)
Default : Да
Forced : Нет
Цветовой диапазон : Limited
Основные цвета : BT.709
Характеристики трансфера : BT.709
Коэффициенты матрицы : BT.709
Аудио
Идентификатор : 2
Формат : AC-3
Формат/Информация : Audio Coding 3
Расширение режима : CM (complete main)
Параметр Endianness формата : Big
Идентификатор кодека : A_AC3
Продолжительность : 1 ч. 39 м.
Вид битрейта : Постоянный
Битрейт : 192 Кбит/сек
Каналы : 2 канала
Расположение каналов : Front: L R
Частота : 48,0 КГц
Метод сжатия : С потерями
Размер потока : 137 Мбайт (4%)
Default : Да
Forced : Нет
-Скриншоты:
Все одноименные релизы в КлубеВремя раздачи: 24/7 (до появления первых 3-5 скачавших)
[Профиль] [ЛС]

Mithas204 ®

Пол: Мужской

Стаж: 7 лет 11 месяцев

Сообщений: 13072

Откуда: Душанбе, Курган-Тюбе

Создавать темы 21-Июл-2017 06:36 (спустя 4 минуты)

[Цитировать]

Готово
[Профиль] [ЛС]

Создавать темы 19-Авг-2017 14:15 (спустя 29 дней)

Топик был перенесен из форума HDTV в форум Архив
Mithas204
 

aliev_0007

Пол: Мужской

Стаж: 4 месяца 21 день

Сообщений: 720

Откуда: Душка

Создавать темы 08-Ноя-2017 07:59 (спустя 3 месяца 18 дней)

[Цитировать]

Раздача возможна?
[Профиль] [ЛС]
Показать сообщения:    
Тема закрыта

Текущее время: 18-Ноя 18:45

Часовой пояс: UTC + 3



Вы не можете начинать темы
Вы не можете отвечать на сообщения
Вы не можете редактировать свои сообщения
Вы не можете удалять свои сообщения
Вы не можете голосовать в опросах
Вы не можете прикреплять файлы к сообщениям
Вы не можете скачивать файлы