Конг: Остров черепа / Kong: Skull Island (Джордан Вот-Робертс / Jordan Vogt-Roberts) [2017, США, фантастика, фэнтези, боевик, приключения, WEB-DL 1080p]

Ответить на тему
 
Автор Сообщение

Mithas204 ®

Пол: Мужской

Стаж: 7 лет 11 месяцев

Сообщений: 13074

Откуда: Душанбе, Курган-Тюбе

Создавать темы 21-Июн-2017 09:31

[Цитировать]

Конг: Остров черепа / Kong: Skull Island- Производство: США, Вьетнам, Legendary Pictures, Warner Bros. Pictures
Жанр: Фэнтези, Боевик, Приключения
Режиссер: Джордан Вот-Робертс
Продюсер: Дэбби Босси, Эдвард Ченг, Дженифер Конроу
Актеры: Том Хиддлстон, Бри Ларсон, Сэмюэл Л. Джексон, Кори Хоукинс, Тоби Кеббелл, Ши Уигхэм, Джейсон Митчелл, Джон Гудман, Джон Си Райли, Томас Манн
Описание:
Действие фильма переносит зрителя в 70-е года прошлого века. Главный герой организует экспедицию к Острову Черепа, вечно покрытого туманом, на котором когда-то был пойман Кинг-Конг, чтобы найти пропавшего брата и некую таинственную субстанцию. Во время нелегких поисков путешественникам предстоит столкнуться с кошмарным миром монстров жуткого острова. 
Возраст: 16+ (зрителям, достигшим 16 лет)
Рейтинг MPAA: PG-13 (детям до 13 лет просмотр нежелателен)
Дата мировой премьеры: 8 марта 2017
Дата российской премьеры: 9 марта 2017, «Каро-Премьер»
Продолжительность: 01:58:21
Качество видео: WEB-DL
Перевод: Дублированный (iTunes)
Субтитры: Русский (Forced, Full), Английский (Full)
Видео: AVC/H.264, 1912x792 (2.40:1), 4434 Kbps, 23.976 fps
Аудио »1: 48 kHz, AC3 Dolby Digital, 3/2 (L,C,R,l,r) + LFE ch, ~384 kbps (Русский)
Аудио »2: 48 kHz, AC3 Dolby Digital, 3/2 (L,C,R,l,r) + LFE ch, ~384 kbps (Английский)
MediaInfo:
Общее
Уникальный идентификатор : 213422666955904498138661215588915045303 (0xA08FB5E3FE05E6AB90900C62F86363B7)
Полное имя : D:\Конг.Остров.черепа.2017.WEB-DL.[1080p].NNMClub.mkv
Формат : Matroska
Версия формата : Version 4 / Version 2
Размер файла : 4,39 Гбайт
Продолжительность : 1 ч. 58 м.
Общий поток : 5308 Кбит/сек
Дата кодирования : UTC 2017-06-20 18:31:53
Программа кодирования : mkvmerge v12.0.0 ('Trust / Lust') 64bit
Библиотека кодирования : libebml v1.3.4 + libmatroska v1.4.5
DURATION : 01:57:07.694000000
NUMBER_OF_FRAMES : 1264
NUMBER_OF_BYTES : 66840
_STATISTICS_WRITING_APP : mkvmerge v12.0.0 ('Trust / Lust') 64bit
_STATISTICS_WRITING_DATE_UTC : 2017-06-20 18:31:53
_STATISTICS_TAGS : BPS DURATION NUMBER_OF_FRAMES NUMBER_OF_BYTES
Видео
Идентификатор : 1
Формат : AVC
Формат/Информация : Advanced Video Codec
Профиль формата : High@L4
Параметр CABAC формата : Да
Параметр ReFrames формата : 5 кадров
Идентификатор кодека : V_MPEG4/ISO/AVC
Продолжительность : 1 ч. 58 м.
Битрейт : 4434 Кбит/сек
Ширина : 1912 пикселей
Высота : 792 пикселя
Соотношение сторон : 2,40:1
Режим частоты кадров : Постоянный
Частота кадров : 23,976 кадра/сек
Цветовое пространство : YUV
Субдискретизация насыщенности : 4:2:0
Битовая глубина : 8 бит
Тип развёртки : Прогрессивная
Бит/(Пиксели*Кадры) : 0.122
Размер потока : 3,67 Гбайт (84%)
Язык : English
Default : Да
Forced : Нет
Цветовой диапазон : Limited
Основные цвета : BT.709
Характеристики трансфера : BT.709
Коэффициенты матрицы : BT.709
Аудио #1
Идентификатор : 2
Формат : AC-3
Формат/Информация : Audio Coding 3
Расширение режима : CM (complete main)
Параметр Endianness формата : Big
Идентификатор кодека : A_AC3
Продолжительность : 1 ч. 58 м.
Вид битрейта : Постоянный
Битрейт : 384 Кбит/сек
Каналы : 6 каналов
Расположение каналов : Front: L C R, Side: L R, LFE
Частота : 48,0 КГц
Метод сжатия : С потерями
Задержка видео : -42 мс.
Размер потока : 325 Мбайт (7%)
Заголовок : iTunes
Язык : Russian
Default : Да
Forced : Нет
Аудио #2
Идентификатор : 3
Формат : AC-3
Формат/Информация : Audio Coding 3
Расширение режима : CM (complete main)
Параметр Endianness формата : Big
Идентификатор кодека : A_AC3
Продолжительность : 1 ч. 58 м.
Вид битрейта : Постоянный
Битрейт : 384 Кбит/сек
Каналы : 6 каналов
Расположение каналов : Front: L C R, Side: L R, LFE
Частота : 48,0 КГц
Метод сжатия : С потерями
Задержка видео : -42 мс.
Размер потока : 325 Мбайт (7%)
Заголовок : Original
Язык : English
Default : Нет
Forced : Нет
Текст #1
Идентификатор : 4
Формат : UTF-8
Идентификатор кодека : S_TEXT/UTF8
Идентификатор кодека/Информация : UTF-8 Plain Text
Заголовок : Forced
Язык : Russian
Default : Да
Forced : Нет
Текст #2
Идентификатор : 5
Формат : UTF-8
Идентификатор кодека : S_TEXT/UTF8
Идентификатор кодека/Информация : UTF-8 Plain Text
Заголовок : Full
Язык : Russian
Default : Нет
Forced : Нет
Текст #3
Идентификатор : 6
Формат : UTF-8
Идентификатор кодека : S_TEXT/UTF8
Идентификатор кодека/Информация : UTF-8 Plain Text
Заголовок : Full
Язык : English
Default : Нет
Forced : Нет
Меню
00:00:00.000 : en:1
00:08:54.000 : en:2
00:19:51.000 : en:3
00:30:00.000 : en:4
00:40:00.000 : en:5
00:50:12.000 : en:6
01:00:49.000 : en:7
01:10:29.000 : en:8
01:18:05.000 : en:9
01:30:12.000 : en:10
01:39:09.000 : en:11
01:47:05.000 : en:12
-Скриншоты:
Все одноименные релизы в Клубе
[Профиль] [ЛС]

torretto.01

Пол: Мужской

Стаж: 4 года 3 месяца

Сообщений: 5295

Создавать темы 21-Июн-2017 16:30 (спустя 6 часов)

[Цитировать]

ФИЛЬМ ТО ЧТО НАДО ЗАШЕБИСЬ
[Профиль] [ЛС]

Root_tj

Пол: Мужской

Стаж: 3 года 5 месяцев

Сообщений: 5943

Откуда: Khujand

Создавать темы 21-Июн-2017 18:59 (спустя 2 часа 28 минут)

[Цитировать]

хорошо глянем
[Профиль] [ЛС]

hellboy2014

Пол: Мужской

Стаж: 3 года 4 месяца

Сообщений: 734

Создавать темы 21-Июн-2017 20:49 (спустя 1 час 50 минут)

[Цитировать]

Mithas204, спасибо !
[Профиль] [ЛС]
Показать сообщения:    
Ответить на тему

Текущее время: 19-Ноя 11:23

Часовой пояс: UTC + 3



Вы не можете начинать темы
Вы не можете отвечать на сообщения
Вы не можете редактировать свои сообщения
Вы не можете удалять свои сообщения
Вы не можете голосовать в опросах
Вы не можете прикреплять файлы к сообщениям
Вы не можете скачивать файлы