Султан / Sultan (Али Аббас Зафар / Ali Abbas Zafar) [2016, Индия, Боевик, драма, мелодрама, спорт, DVDRip] MVO + Sub Rus (на песни)

Ответить на тему
 
Автор Сообщение

Mithas204 ®

Пол: Мужской

Стаж: 8 лет 10 месяцев

Сообщений: 13765

Откуда: Душанбе, Курган-Тюбе

Создавать темы 14-Июн-2017 15:12

[Цитировать]

Султан / Sultan

«Wrestling is not a sport. Its about fighting what lies within»
- Страна: Индия
Жанр: Боевик, драма, мелодрама, спорт
Год выпуска: 2016
Продолжительность: 02:49:23-Перевод: Любительский (многоголосый закадровый) - Денис Строев, Давид Петросян и Маргарита Сахно
Субтитры: Русские (только на песни)-Режиссер: Али Аббас Зафар / Ali Abbas Zafar-В ролях: Салман Кхан, Анушка Шарма, Рандип Худа, Маррезе Крамп, Тайрон Вудли, Рон Смуренбург, Брахим Ачаббаке, Бьорн Фрайберг, Мейянг Чанг
Описание: Султан Али Хан — местный чемпион по борьбе, мечтающий представлять Индию и победить на Олимпийских играх. Афра — напористая молодая девушка из того же маленького городка, что и Султан, со своим собственным набором амбиций. Когда две «звезды» местного значения сталкиваются лбами, расцветают романтические отношения, и их мечты и устремления переплетаются и выравниваются. Однако путь к славе тернист и нужно много раз упасть, прежде чем стать победителем. Чаще всего, этот путь может занять всю жизнь.-- 
-Качество видео: DVDRip
Формат видео: AVI-Видео: 720x480 (3:2), 23.976 fps, XviD build 50, 1283 Kbps, 0.15 bit/pixel
Аудио: 48.0 kHz, AC3 Dolby Digital, 3/2 (L,C,R,l,r) + LFE ch, 448 Kbps-Озвучка: Денис Строев, Давид Петросян и Маргарита Сахно
Перевод и редакция: ❖ Honey&Haseena ❖-
MediaInfo
General
Complete name : Downloads\Sultan.2016.DVDRip.XviD.HoneyHaseena.avi
Format : AVI
Format/Info : Audio Video Interleave
Format profile : OpenDML
File size : 2.06 GiB
Duration : 2h 49mn
Overall bit rate : 1 743 Kbps
Writing application : VirtualDubMod 1.5.10.3 | www.virtualdub-fr.org || (build 2550/release)
Writing library : VirtualDubMod build 2550/release
Video #0
ID : 0
Format : xvid
Codec ID : xvid
Duration : 2h 49mn
Bit rate : 1 283 Kbps
Width : 720 pixels
Height : 480 pixels
Display aspect ratio : 3:2
Frame rate : 23.976 fps
Standard : NTSC
Bits/(Pixel*Frame) : 0.155
Stream size : 1.52 GiB (74%)
Audio #1
ID : 1
Format : AC-3
Format/Info : Audio Coding 3
Mode extension : CM (complete main)
Format settings, Endianness : Big
Codec ID : 2000
Duration : 2h 49mn
Bit rate mode : Constant
Bit rate : 448 Kbps
Channel(s) : 6 channels
Channel positions : Front: L C R, Side: L R, LFE
Sampling rate : 48.0 KHz
Bit depth : 16 bits
Compression mode : Lossy
Stream size : 543 MiB (26%)
Alignment : Split accross interleaves
Interleave, duration : 42 ms (1.00 video frame)
Interleave, preload duration : 500 ms
Скриншот c названием фильма
Скриншоты
[Профиль] [ЛС]

Admiral01

Пол: Мужской

Стаж: 6 лет

Сообщений: 200

Создавать темы 04-Июл-2017 17:42 (спустя 20 дней)

[Цитировать]

Более нормальной качестве нету?
[Профиль] [ЛС]

Mithas204 ®

Пол: Мужской

Стаж: 8 лет 10 месяцев

Сообщений: 13765

Откуда: Душанбе, Курган-Тюбе

Создавать темы 04-Июл-2017 17:56 (спустя 14 минут)

[Цитировать]

2335498Более нормальной качестве нету?
Под нормальным качеством, что вы подразумевает?
[Профиль] [ЛС]
Показать сообщения:    
Ответить на тему

Текущее время: 24-Окт 05:04

Часовой пояс: UTC + 3



Вы не можете начинать темы
Вы не можете отвечать на сообщения
Вы не можете редактировать свои сообщения
Вы не можете удалять свои сообщения
Вы не можете голосовать в опросах
Вы не можете прикреплять файлы к сообщениям
Вы не можете скачивать файлы