Иван (Алена Давыдова) [2016, Мелодрама, WEB-DLRip 720p]

Ответить на тему
 
Автор Сообщение

Mithas204 ®

Пол: Мужской

Стаж: 7 лет 6 месяцев

Сообщений: 12390

Откуда: Душанбе, Курган-Тюбе

Создавать темы 19-Май-2017 15:21

[Цитировать]

--Иван-- Жанр: Mелодрама
Год выпуска: 2016
Продолжительность: 01:31:31--Режиссёр: Алена Давыдова--В ролях: Кирилл Полухин, Полина Гухман, Анастасия Мельникова, Людмила Бояринова, Сергей Яценюк, Анна Екатерининская--Описание: Иван живет в маленьком городе, работает водителем на скорой помощи. Его жизнь протекает по привычной колее, без надежд и планов. Однажды на пороге его дома появляется маленькая девочка, которая меняет и жизнь Ивана и его самого.--Возраст: 6+ (зрителям, достигшим 6 лет)
--Качество видео: WEB-DLRip 720p
Формат видео: MKV
Видео: AVC/H.264, 1280x532 (2.40:1), ~2569 Kbps
Аудио: AC3, 6 ch, 384 Kbps--
MI
Видео
Идентификатор : 1
Формат : AVC
Формат/Информация : Advanced Video Codec
Профиль формата : High@L4
Параметр CABAC формата : Да
Параметр ReFrames формата : 4 кадра
Идентификатор кодека : V_MPEG4/ISO/AVC
Продолжительность : 1 ч. 33 м.
Битрейт : 2569 Кбит/сек
Ширина : 1280 пикселей
Высота : 532 пикселя
Соотношение сторон : 2,40:1
Режим частоты кадров : Постоянный
Частота кадров : 25,000 кадров/сек
Цветовое пространство : YUV
Субдискретизация насыщенности : 4:2:0
Битовая глубина : 8 бит
Тип развёртки : Прогрессивная
Бит/(Пиксели*Кадры) : 0.151
Размер потока : 1,68 Гбайт (87%)
Библиотека кодирования : x264 core 142
Настройки программы : cabac=1 / ref=3 / deblock=1:0:0 / analyse=0x3:0x113 / me=hex / subme=7 / psy=1 / psy_rd=1.00:0.00 / mixed_ref=1 / me_range=16 / chroma_me=1 / trellis=1 / 8x8dct=1 / cqm=0 / deadzone=21,11 / fast_pskip=1 / chroma_qp_offset=-2 / threads=36 / lookahead_threads=4 / sliced_threads=0 / nr=0 / decimate=1 / interlaced=0 / bluray_compat=0 / constrained_intra=0 / bframes=6 / b_pyramid=2 / b_adapt=1 / b_bias=0 / direct=1 / weightb=1 / open_gop=0 / weightp=2 / keyint=50 / keyint_min=26 / scenecut=0 / intra_refresh=0 / rc_lookahead=40 / rc=2pass / mbtree=1 / bitrate=2569 / ratetol=1.0 / qcomp=0.60 / qpmin=0 / qpmax=69 / qpstep=4 / cplxblur=20.0 / qblur=0.5 / vbv_maxrate=3854 / vbv_bufsize=10279 / nal_hrd=none / filler=0 / ip_ratio=1.40 / aq=1:1.00
Default : Да
Forced : Нет
Аудио
Идентификатор : 2
Формат : AC-3
Формат/Информация : Audio Coding 3
Параметр Endianness формата : Big
Идентификатор кодека : A_AC3
Продолжительность : 1 ч. 33 м.
Вид битрейта : Постоянный
Битрейт : 384 Кбит/сек
Каналы : 6 каналов
Расположение каналов : Front: L C R, Side: L R, LFE
Частота : 48,0 КГц
Частота кадров : 31,250 кадров/сек (1536 spf)
Битовая глубина : 16 бит
Метод сжатия : С потерями
Задержка видео : -80 мс.
Размер потока : 258 Мбайт (13%)
ServiceKind/String : Complete Main
Default : Да
Forced : Нет
Скриншоты
[Профиль] [ЛС]

Root_tj

Пол: Мужской

Стаж: 3 года

Сообщений: 5317

Откуда: Khujand

Создавать темы 20-Май-2017 07:08 (спустя 15 часов)

[Цитировать]

спс
[Профиль] [ЛС]
Показать сообщения:    
Ответить на тему

Текущее время: 24-Июн 04:51

Часовой пояс: UTC + 3



Вы не можете начинать темы
Вы не можете отвечать на сообщения
Вы не можете редактировать свои сообщения
Вы не можете удалять свои сообщения
Вы не можете голосовать в опросах
Вы не можете прикреплять файлы к сообщениям
Вы не можете скачивать файлы