Гарвардский курс CS50 по основам программирования / CS50 Harvard Course on Programming Basics: (Scratch, C / Si, PHP, JavaScript, SQL, HTML, CSS etc. HDRip 1080p) [Fall 2015, RUS]

Ответить на тему
 
Автор Сообщение

sayid ®

Пол: Мужской

Стаж: 6 лет 11 месяцев

Сообщений: 1059

Создавать темы 30-Апр-2017 12:01

[Цитировать]

Весь гарвардский курс по основам программирования
CS50
-Год выпуска: 2015
Производитель: Harvard Extension School
Автор: Ph.D David J. Malan
Тип раздаваемого материала: Видеоурок / Учебное шоу
Продолжительность: 19:39:32
Язык: Английский
Перевод: Профессиональный многоголосый (RU)-Описание: Этот курс по основам программирования настолько крут, что Йельский университет отказался от своего курса и перешел на Harvard CS50. Это перевод самой новой версии курса, который стартовал осенью 2015 года.
Основы компьютерных наук и программирования. Системы счисления, работа с командной строкой в Linux, циклы, условные переходы и прочие радости. Концепции алгоритмов и алгоритмичности мышления. Вы узнаете о том, какие задачи можно решать с помощью программирования и каким образом. О бинарном поиске, простом по сути, но очень эффективном и требующем тщательности в реализации, Дэвид Малан расскажет сходу, прямо на нулевой лекции. И попробуйте потом забыть сцену с разрывом телефонного справочника, а вместе с ней — и полученные знания! Вообще, курс охватывает все основные алгоритмы, которые нужно знать и понимать «айтишникам».-Что изучают на CS50:
— Концепции абстракции, структуры данных, инкапсуляции, управления памятью. Основы компьютерной безопасности. Процесс разработки ПО и веб-разработка;
— Основы языка программирования C и визуального языка Scratch. Собственно, все основные примеры и задания студенты делают на языке C;
— Основы баз данных и SQL;
— Веб-разработка: основы CSS, HTML, JavaScript и PHP. Естественно, только самые азы;
— Основы подготовки презентации проектов по программированию-Формат видео: MPEG-4
Кодек: AVC
Качество: HDRip 1080р
Видео: MPEG4 1920x1080, ~ 2654 Кбит/сек, 23.976 fps
Аудио: AAC 44100Hz mono 125.584kbps-
Содержание
Исходные коды
Исходник неделя 0
Исходник неделя 1 - будет скоро
Исходник неделя 2 - будет скоро
Исходник неделя 3 - будет скоро
Исходник неделя 4 - будет скоро
Исходник неделя 5 - будет скоро
Исходник неделя 6 - будет скоро
Исходник неделя 7 - будет скоро
Исходник неделя 8 - будет скоро
Исходник неделя 9 - будет скоро
Подробно
Основой для чего вам может служить CS50
MediaInfo
General
Format                         : MPEG-4
Format profile                 : Base Media
Codec ID                       : isom (isom/iso2/avc1/mp41)
File size                      : 525 MiB
Duration                       : 45 min 40 s
Overall bit rate               : 1 606 kb/s
Writing application            : Lavf57.2.100
Video
ID                             : 1
Format                         : AVC
Format/Info                    : Advanced Video Codec
Format profile                 : High@L4
Format settings, CABAC         : Yes
Format settings, ReFrames      : 3 frames
Codec ID                       : avc1
Codec ID/Info                  : Advanced Video Coding
Duration                       : 45 min 40 s
Bit rate                       : 1 473 kb/s
Width                          : 1 920 pixels
Height                         : 1 080 pixels
Display aspect ratio           : 16:9
Frame rate mode                : Variable
Frame rate                     : 23.976 (24000/1001) FPS
Minimum frame rate             : 23.974 FPS
Maximum frame rate             : 23.981 FPS
Color space                    : YUV
Chroma subsampling             : 4:2:0
Bit depth                      : 8 bits
Scan type                      : Progressive
Bits/(Pixel*Frame)             : 0.030
Stream size                    : 481 MiB (92%)
Color range                    : Limited
Color primaries                : BT.709
Transfer characteristics       : BT.709
Matrix coefficients            : BT.709
Audio
ID                             : 2
Format                         : AAC
Format/Info                    : Advanced Audio Codec
Format profile                 : LC
Codec ID                       : 40
Duration                       : 45 min 40 s
Bit rate mode                  : Constant
Bit rate                       : 126 kb/s
Channel(s)                     : 2 channels
Channel positions              : Front: L R
Sampling rate                  : 44.1 kHz
Frame rate                     : 43.066 FPS (1024 spf)
Compression mode               : Lossy
Stream size                    : 41.0 MiB (8%)
Default                        : Yes
Alternate group                : 1
Скриншоты
P.S. Люди, помните!
Выражение благодарности авторам продлевает жизнь раздачам и стимулирует появление новых!


Последний раз редактировалось: sayid (2018-09-03 11:08), всего редактировалось 6 раз(а)
[Профиль] [ЛС]

rew789456

Пол: Женский

Стаж: 4 года 2 месяца

Сообщений: 43

Создавать темы 30-Апр-2017 23:00 (спустя 10 часов)

[Цитировать]

не качает
[Профиль] [ЛС]

sayid ®

Пол: Мужской

Стаж: 6 лет 11 месяцев

Сообщений: 1059

Создавать темы 01-Май-2017 07:36 (спустя 8 часов)

[Цитировать]

2325656не качает
Попробуй принудительно ставить


Последний раз редактировалось: sayid (2017-05-01 09:31), всего редактировалось 1 раз
[Профиль] [ЛС]

sayid ®

Пол: Мужской

Стаж: 6 лет 11 месяцев

Сообщений: 1059

Создавать темы 01-Май-2017 09:30 (спустя 1 час 53 минуты)

[Цитировать]

P.S. Люди, помните!
Выражение благодарности авторам продлевает жизнь раздачам и стимулирует появление новых!
[Профиль] [ЛС]

aki.fik

Пол: Мужской

Стаж: 5 лет 9 месяцев

Сообщений: 858

Откуда: ДУШАНБЕчан

Создавать темы 07-Авг-2017 09:49 (спустя 3 месяца 6 дней)

[Цитировать]

люди добрые встаньте не раздачу!
[Профиль] [ЛС]

lovespeed

Пол: Не указан

Стаж: 10 месяцев 9 дней

Сообщений: 1

Создавать темы 12-Ноя-2017 12:10 (спустя 3 месяца 5 дней)

[Цитировать]

Дайте покачать плиз
[Профиль] [ЛС]

aliev_0007

Пол: Мужской

Стаж: 1 год 2 месяца

Сообщений: 1014

Откуда: СССР

Создавать темы 14-Ноя-2017 14:05 (спустя 2 дня 1 час)

[Цитировать]

2339539люди добрые встаньте не раздачу!
Раздавай
[Профиль] [ЛС]

djack

Пол: Не указан

Стаж: 9 месяцев 10 дней

Сообщений: 1

Создавать темы 10-Дек-2017 20:26 (спустя 26 дней)

[Цитировать]

помогите скачать. пишет подключение к пирам 0.0
[Профиль] [ЛС]

sayid ®

Пол: Мужской

Стаж: 6 лет 11 месяцев

Сообщений: 1059

Создавать темы 28-Янв-2018 11:00 (спустя 1 месяц 17 дней)

[Цитировать]

Раздаю!
[Профиль] [ЛС]

Example

Пол: Мужской

Стаж: 5 лет 1 месяц

Сообщений: 10

Создавать темы 13-Мар-2018 09:49 (спустя 1 месяц 15 дней)

[Цитировать]

Раздавай
[Профиль] [ЛС]

sayid ®

Пол: Мужской

Стаж: 6 лет 11 месяцев

Сообщений: 1059

Создавать темы 31-Авг-2018 10:01 (спустя 5 месяцев 18 дней)

[Цитировать]

2357793Раздавай
Торрент обновлен, качайте на здоровье!
[Профиль] [ЛС]
Показать сообщения:    
Ответить на тему

Текущее время: 21-Сен 16:00

Часовой пояс: UTC + 3



Вы не можете начинать темы
Вы не можете отвечать на сообщения
Вы не можете редактировать свои сообщения
Вы не можете удалять свои сообщения
Вы не можете голосовать в опросах
Вы не можете прикреплять файлы к сообщениям
Вы не можете скачивать файлы