Война (Алексей Балабанов) [2002, боевик, драма, HDTV 1080p]

Ответить на тему
 
Автор Сообщение

Mithas204 ®

Пол: Мужской

Стаж: 7 года 7 месяца

Сообщений: 12567

Откуда: Душанбе, Курган-Тюбе

Создавать темы 31-Авг-2016 12:02

[Цитировать]

Война
Жанр: Боевик, драма
Год выпуска: 2002
Продолжительность: 01:56:36
Субтитры: Русские
Режиссёр: Алексей Балабанов
В ролях: Алексей Чадов, Иэн Келли, Ингеборга Дапкунайте, Сергей Бодров мл., Эвклид Кюрдзидис, Георгий Гургулия, Владимир Гостюхин, Бен Фостер, Юрий Степанов, Дэвид МакАллистер...
Описание: Аслан Гугаев, командир отряда чеченских боевиков, отпускает троих пленников — двух русских солдат сержанта Ивана Ермакова и рядового Кулика — потому что они не контрактники, а призывники. И англичанина Джона Бойла — потому что он должен собрать два миллиона фунтов стерлингов и привезти деньги Гугаеву в качестве выкупа за свою невесту Маргарет. Маргарет остается у Аслана. Так же, как и капитан российской армии Медведев…
За отведенные ему два месяца Джон не находит нужную сумму и не находит поддержки у британских властей, зато, вернувшись в Россию, находит Ваню Ермакова, живущего в Тобольске. Джон и Ваня опять едут в Чечню. Чтобы освободить английскую девушку Маргарет и русского капитана Медведева… 
Возраст: 16+ (зрителям, достигшим 16 лет)Качество видео: HDTV 1080p
Формат видео: MKV
Видео: AVC/H.264, 1920х1080, ~5775 kb/s
Аудио: AC3, 2 ch, 224 kb/s
MediaInfo
Video
ID : 1
Format : AVC
Format/Info : Advanced Video Codec
Format profile : High@L4.1
Format settings, CABAC : Yes
Format settings, ReFrames : 3 frames
Format settings, GOP : M=4, N=24
Codec ID : V_MPEG4/ISO/AVC
Duration : 1 h 56 min
Bit rate : 5 775 kb/s
Width : 1 920 pixels
Height : 1 080 pixels
Display aspect ratio : 16:9
Frame rate mode : Constant
Frame rate : 24.000 FPS
Color space : YUV
Chroma subsampling : 4:2:0
Bit depth : 8 bits
Scan type : Progressive
Bits/(Pixel*Frame) : 0.116
Stream size : 4.70 GiB (96%)
Language : Russian
Default : Yes
Forced : Yes
Audio
ID : 2
Format : AC-3
Format/Info : Audio Coding 3
Mode extension : CM (complete main)
Format settings, Endianness : Big
Codec ID : A_AC3
Duration : 1 h 56 min
Bit rate mode : Constant
Bit rate : 224 kb/s
Channel(s) : 2 channels
Channel positions : Front: L R
Sampling rate : 48.0 kHz
Frame rate : 31.250 FPS (1536 spf)
Bit depth : 16 bits
Compression mode : Lossy
Stream size : 187 MiB (4%)
Language : Russian
Default : Yes
Forced : Yes
Скриншоты


Последний раз редактировалось: Mithas204 (2017-07-05 14:18), всего редактировалось 5 раз(а)
[Профиль] [ЛС]

Root_tj

Пол: Мужской

Стаж: 3 года 1 месяц

Сообщений: 5766

Откуда: Khujand

Создавать темы 07-Май-2017 11:10 (спустя 8 месяца 6 дня)

[Цитировать]

спс
[Профиль] [ЛС]

Mithas204 ®

Пол: Мужской

Стаж: 7 года 7 месяца

Сообщений: 12567

Откуда: Душанбе, Курган-Тюбе

Создавать темы 07-Май-2017 13:33 (спустя 2 часа 23 минуты)

[Цитировать]

торрент файл обновил. перекачайте
[Профиль] [ЛС]

Mithas204 ®

Пол: Мужской

Стаж: 7 года 7 месяца

Сообщений: 12567

Откуда: Душанбе, Курган-Тюбе

Создавать темы 05-Июл-2017 17:25 (спустя 1 месяц 29 дня)

[Цитировать]

Вверх
[Профиль] [ЛС]

Mithas204 ®

Пол: Мужской

Стаж: 7 года 7 месяца

Сообщений: 12567

Откуда: Душанбе, Курган-Тюбе

Создавать темы 06-Июл-2017 14:41 (спустя 21 час)

[Цитировать]

Отл. Фильм.
[Профиль] [ЛС]

ImranAzimhan

Пол: Мужской

Стаж: 3 года 10 месяца

Сообщений: 444

Создавать темы 08-Июл-2017 08:50 (спустя 1 день 18 часа)

[Цитировать]

Отличный фильм.
Автору релиза огромное спасибо
[Профиль] [ЛС]

Mithas204 ®

Пол: Мужской

Стаж: 7 года 7 месяца

Сообщений: 12567

Откуда: Душанбе, Курган-Тюбе

Создавать темы 08-Июл-2017 09:54 (спустя 1 час 4 минуты)

[Цитировать]

Иностранцы по сути своей нет в них человеческого.
[Профиль] [ЛС]
Показать сообщения:    
Ответить на тему

Текущее время: 23-Июл 05:38

Часовой пояс: UTC + 3



Вы не можете начинать темы
Вы не можете отвечать на сообщения
Вы не можете редактировать свои сообщения
Вы не можете удалять свои сообщения
Вы не можете голосовать в опросах
Вы не можете прикреплять файлы к сообщениям
Вы не можете скачивать файлы