HTML Academy | Базовый, Профессиональный, Продвинутый HTML, CSS, PHP, Java (2017-2018) PCRec [H.264]

Страницы :  1, 2, 3  След.

Ответить на тему
 
Автор Сообщение

Adiba ®

Пол: Женский

Стаж: 8 лет 5 месяцев

Сообщений: 1993

Откуда: СССР

Создавать темы 04-Апр-2016 09:44

[Цитировать]

HTML Academy | Профессиональный HTML и CSS, уровень 1 (2018) PCRec [H.264]
HTML Academy | Профессиональный HTML и CSS, уровень 1 (2018) PCRec [H.264] - Автор (режиссер): HTML Academy
Жанр: Веб-дизайн, HTML, CSS
Описание:
HTML Academy — стандарт в обучении фронтендеров. Наша задача — сделать из любого новичка полноценного и востребованного специалиста, готового работать в веб-индустрии.
Продолжительность: 30:59:17
Качество видео: PCRec
Видео: AVC/H.264, 1152x720-1920x1080, ~190-1798 Kbps
Аудио: AAC, 2 ch, 146-256 Kbps
Mediainfo:
Общее
Полное имя : .\03 Фотошоп для верстальщика\Скринкасты\1 Экспорт графики из Фотошопа.mp4
Формат : MPEG-4
Профиль формата : Base Media / Version 2
Идентификатор кодека : mp42 (mp42/mp41/isom/avc1)
Размер файла : 29,8 Мбайт
Продолжительность : 5 м. 27 с.
Режим общего битрейта : Переменный
Общий поток : 765 Кбит/сек
Дата кодирования : UTC 2017-11-17 13:10:16
Дата пометки : UTC 2017-11-17 13:10:16
Видео
Идентификатор : 1
Формат : AVC
Формат/Информация : Advanced Video Codec
Профиль формата : High@L3.2
Настройки формата : CABAC / 5 Ref Frames
Параметр CABAC формата : Да
Параметр RefFrames формата : 5 кадров
Идентификатор кодека : avc1
Идентификатор кодека/Информация : Advanced Video Coding
Продолжительность : 5 м. 27 с.
Битрейт : 525 Кбит/сек
Ширина : 1152 пикселя
Высота : 720 пикселей
Соотношение сторон : 16:10
Режим частоты кадров : Постоянный
Частота кадров : 30,000 кадров/сек
Цветовое пространство : YUV
Субдискретизация насыщенности : 4:2:0
Битовая глубина : 8 бит
Тип развёртки : Прогрессивная
Бит/(Пиксели*Кадры) : 0.021
Размер потока : 20,5 Мбайт (69%)
Библиотека кодирования : x264 core 152 r10 ba24899
Настройки программы : cabac=1 / ref=5 / deblock=1:0:0 / analyse=0x3:0x113 / me=hex / subme=8 / psy=1 / psy_rd=1.00:0.00 / mixed_ref=1 / me_range=16 / chroma_me=1 / trellis=2 / 8x8dct=1 / cqm=0 / deadzone=21,11 / fast_pskip=1 / chroma_qp_offset=-2 / threads=22 / lookahead_threads=3 / sliced_threads=0 / nr=0 / decimate=1 / interlaced=0 / bluray_compat=0 / stitchable=1 / constrained_intra=0 / bframes=3 / b_pyramid=2 / b_adapt=2 / b_bias=0 / direct=3 / weightb=1 / open_gop=0 / weightp=2 / keyint=infinite / keyint_min=30 / scenecut=40 / intra_refresh=0 / rc_lookahead=50 / rc=crf / mbtree=1 / crf=20.0 / qcomp=0.60 / qpmin=5 / qpmax=69 / qpstep=4 / vbv_maxrate=2750 / vbv_bufsize=7500 / crf_max=0.0 / nal_hrd=none / filler=0 / ip_ratio=1.40 / aq=1:1.00
Дата кодирования : UTC 2017-11-17 13:10:16
Дата пометки : UTC 2017-11-17 13:10:16
Цветовой диапазон : Limited
Основные цвета : BT.709
Характеристики трансфера : BT.709
Коэффициенты матрицы : BT.709
Аудио
Идентификатор : 2
Формат : AAC
Формат/Информация : Advanced Audio Codec
Профиль формата : LC
Идентификатор кодека : mp4a-40-2
Продолжительность : 5 м. 27 с.
Вид битрейта : Переменный
Битрейт : 235 Кбит/сек
Каналы : 2 канала
Расположение каналов : Front: L R
Частота : 48,0 КГц
Частота кадров : 46,875 кадров/сек (1024 SPF)
Метод сжатия : С потерями
Размер потока : 9,17 Мбайт (31%)
Дата кодирования : UTC 2017-11-17 13:10:16
Дата пометки : UTC 2017-11-17 13:10:16
Общее
Полное имя : .\01 Вводный\Лекция 1 - Вводный.mp4
Формат : MPEG-4
Профиль формата : Base Media / Version 2
Идентификатор кодека : mp42 (mp42/mp41/isom/avc1)
Размер файла : 831 Мбайт
Продолжительность : 2 ч. 38 м.
Режим общего битрейта : Переменный
Общий поток : 733 Кбит/сек
Дата кодирования : UTC 2018-02-26 21:06:18
Дата пометки : UTC 2018-02-26 21:06:18
Видео
Идентификатор : 1
Формат : AVC
Формат/Информация : Advanced Video Codec
Профиль формата : High@L3.2
Настройки формата : CABAC / 5 Ref Frames
Параметр CABAC формата : Да
Параметр RefFrames формата : 5 кадров
Идентификатор кодека : avc1
Идентификатор кодека/Информация : Advanced Video Coding
Продолжительность : 2 ч. 38 м.
Битрейт : 473 Кбит/сек
Ширина : 1280 пикселей
Высота : 720 пикселей
Соотношение сторон : 16:9
Режим частоты кадров : Постоянный
Частота кадров : 24,000 кадра/сек
Цветовое пространство : YUV
Субдискретизация насыщенности : 4:2:0
Битовая глубина : 8 бит
Тип развёртки : Прогрессивная
Бит/(Пиксели*Кадры) : 0.021
Размер потока : 536 Мбайт (65%)
Библиотека кодирования : x264 core 155 r10 b00bcaf
Настройки программы : cabac=1 / ref=5 / deblock=1:0:0 / analyse=0x3:0x113 / me=hex / subme=8 / psy=1 / psy_rd=1.00:0.00 / mixed_ref=1 / me_range=16 / chroma_me=1 / trellis=2 / 8x8dct=1 / cqm=0 / deadzone=21,11 / fast_pskip=1 / chroma_qp_offset=-2 / threads=22 / lookahead_threads=3 / sliced_threads=0 / nr=0 / decimate=1 / interlaced=0 / bluray_compat=0 / stitchable=1 / constrained_intra=0 / bframes=3 / b_pyramid=2 / b_adapt=2 / b_bias=0 / direct=3 / weightb=1 / open_gop=0 / weightp=2 / keyint=infinite / keyint_min=24 / scenecut=40 / intra_refresh=0 / rc_lookahead=50 / rc=crf / mbtree=1 / crf=20.0 / qcomp=0.60 / qpmin=5 / qpmax=69 / qpstep=4 / vbv_maxrate=2750 / vbv_bufsize=7500 / crf_max=0.0 / nal_hrd=none / filler=0 / ip_ratio=1.40 / aq=1:1.00
Дата кодирования : UTC 2018-02-26 21:06:18
Дата пометки : UTC 2018-02-26 21:06:18
Цветовой диапазон : Limited
Основные цвета : BT.709
Характеристики трансфера : BT.709
Коэффициенты матрицы : BT.709
Аудио
Идентификатор : 2
Формат : AAC
Формат/Информация : Advanced Audio Codec
Профиль формата : LC
Идентификатор кодека : mp4a-40-2
Продолжительность : 2 ч. 38 м.
Вид битрейта : Переменный
Битрейт : 256 Кбит/сек
Каналы : 2 канала
Расположение каналов : Front: L R
Частота : 48,0 КГц
Частота кадров : 46,875 кадров/сек (1024 SPF)
Метод сжатия : С потерями
Размер потока : 290 Мбайт (35%)
Дата кодирования : UTC 2018-02-26 21:06:18
Дата пометки : UTC 2018-02-26 21:06:18
Общее
Полное имя : .\05 Введение в CSS\Скринкасты\2 Базовая стилизация карточки товара проекта ''Барбершоп''.mp4
Формат : MPEG-4
Профиль формата : Base Media / Version 2
Идентификатор кодека : mp42 (mp42/mp41/isom/avc1)
Размер файла : 61,2 Мбайт
Продолжительность : 5 м. 3 с.
Режим общего битрейта : Переменный
Общий поток : 1690 Кбит/сек
Дата кодирования : UTC 2017-08-20 15:13:48
Дата пометки : UTC 2017-08-20 15:13:48
Видео
Идентификатор : 1
Формат : AVC
Формат/Информация : Advanced Video Codec
Профиль формата : High@L4
Настройки формата : CABAC / 4 Ref Frames
Параметр CABAC формата : Да
Параметр RefFrames формата : 4 кадра
Идентификатор кодека : avc1
Идентификатор кодека/Информация : Advanced Video Coding
Продолжительность : 5 м. 3 с.
Битрейт : 1450 Кбит/сек
Ширина : 1920 пикселей
Высота : 1080 пикселей
Соотношение сторон : 16:9
Режим частоты кадров : Постоянный
Частота кадров : 30,000 кадров/сек
Цветовое пространство : YUV
Субдискретизация насыщенности : 4:2:0
Битовая глубина : 8 бит
Тип развёртки : Прогрессивная
Бит/(Пиксели*Кадры) : 0.023
Размер потока : 52,5 Мбайт (86%)
Библиотека кодирования : x264 core 150 r10 df79067
Настройки программы : cabac=1 / ref=4 / deblock=1:0:0 / analyse=0x3:0x113 / me=hex / subme=8 / psy=1 / psy_rd=1.00:0.00 / mixed_ref=1 / me_range=16 / chroma_me=1 / trellis=2 / 8x8dct=1 / cqm=0 / deadzone=21,11 / fast_pskip=1 / chroma_qp_offset=-2 / threads=34 / lookahead_threads=5 / sliced_threads=0 / nr=0 / decimate=1 / interlaced=0 / bluray_compat=0 / stitchable=1 / constrained_intra=0 / bframes=3 / b_pyramid=2 / b_adapt=1 / b_bias=0 / direct=3 / weightb=1 / open_gop=0 / weightp=2 / keyint=infinite / keyint_min=30 / scenecut=40 / intra_refresh=0 / rc_lookahead=50 / rc=crf / mbtree=1 / crf=20.0 / qcomp=0.60 / qpmin=5 / qpmax=69 / qpstep=4 / vbv_maxrate=5500 / vbv_bufsize=15000 / crf_max=0.0 / nal_hrd=none / filler=0 / ip_ratio=1.40 / aq=1:1.00
Дата кодирования : UTC 2017-08-20 15:13:48
Дата пометки : UTC 2017-08-20 15:13:48
Цветовой диапазон : Limited
Основные цвета : BT.709
Характеристики трансфера : BT.709
Коэффициенты матрицы : BT.709
Аудио
Идентификатор : 2
Формат : AAC
Формат/Информация : Advanced Audio Codec
Профиль формата : LC
Идентификатор кодека : mp4a-40-2
Продолжительность : 5 м. 3 с.
Вид битрейта : Переменный
Битрейт : 235 Кбит/сек
Каналы : 2 канала
Расположение каналов : Front: L R
Частота : 48,0 КГц
Частота кадров : 46,875 кадров/сек (1024 SPF)
Метод сжатия : С потерями
Размер потока : 8,51 Мбайт (14%)
Дата кодирования : UTC 2017-08-20 15:13:48
Дата пометки : UTC 2017-08-20 15:13:48
"Дополнительная информация:"
В раздаче имеются архивы! В них содержится шрифты для макетов.
"Программа 20 потока:"
1. Введение (Теоретическая лекция)
Ведущий: Алексей Симоненко
Вводная лекция про роль и место верстальщика в мире веб-технологий.
Как проходит курс. Организационные вопросы.
Обзор личных проектов.
Как работать с наставником.
Критерии качества вёрстки.
Защита личного проекта и получение сертификата.
Что на самом деле происходит, когда вы вводите в браузере адрес сайта и нажимаете Enter?
IP-адрес, сервер и веб-сервер, «виртуальные хосты».
Доменные имена, URL-адреса и система DNS.
Загрузка и «сборка» веб-страницы.
Особенности HTTP и HTTPS. Протоколы HTTP/1.1 и HTTP/2.
Приёмы оптимизации веб-страниц.
Инструменты веб-разработчика и рабочий процесс на интенсиве.
Системы контроля версий.
Инструменты вёрстки: редакторы кода, инспекторы, полезные веб-сервисы.
Немного о браузерах, браузерных движках и различиях между ними.-2. Разметка (Теоретическая лекция)
Ведущий: Александр Першин
Создадим логическую HTML-разметку страниц учебного и личного проектов. Попрактикуемся использовать подходящие теги, задавать имена классов, оценивать сложность разметки.
Введение в HTML.
Синтаксис HTML, типы HTML-тегов.
Структура простейшего HTML-документа.
Как работать со спецификацией HTML.
Обзор HTML-тегов из личных проектов.
Качественная разметка и стили кодирования.
Простая, понятная, читабельная и логичная разметка: примеры и антипримеры.
Типовые ошибки разметки: «ссылка или кнопка», «картинка или фон» и другие.
Модульность разметки или использование «пространств имён».
Когда использовать <article>, <section> и <div>?
Кодгайды для разметки.
Алгоритмы создания разметки: «страница как документ», «страница как приложение», «дивянка».
Создаём разметку главной страницы учебного проекта.-3.Фотошоп для верстальщика (Практическая лекция)
Ведущий: Виталий Зюзин
Разберём всё необходимое для работы верстальщика в Фотошопе. Подготовим графику для проектов.
Типовые задачи верстальщика в Фотошопе.
Настройка интерфейса Фотошопа.
Работа со слоями, типы слоёв.
Получение параметров текста.
Измерение размеров блоков, отступов, получение информации о цвете.
Получение параметров сложных декоративных эффектов: тени и прочее.
Экспорт графики, работа с повторяющимися паттернами.
Обзор форматов графики в вебе.
Растровая графика — PNG, JPEG, GIF.
Векторная графика — SVG.
Как выбрать подходящий формат?
Оптимизация графики.
Обзор альтернатив.
Adobe Extract. NEW!
Zeplin.
Avocode.
Sketch.
Figma. NEW!
Разбор графических макетов проектов.-4. Доступность (Практическая лекция)
Ведущий: Вадим Макеев
Научимся делать интерфейсы удобные и доступные для всех. Управление фокусом, важность семантики, тестирование и скринридеры.
Интерфейсы — не картинки.
Какие есть слои интерфейса, кроме графики.
Зачем нужные интерактивные элементы.
Неочевидное использование интерфейсов.
Понятие доступности.
Что мешает пользоваться интерфейсами.
Ежедневные ситуации недоступности.
Физиологические и ментальные особенности.
Взаимодействие с клавиатуры.
Интерфейсы без указателя.
Зачем нужен фокус на элементах.
Как сделать элементы интерактивными.
Значимые элементы.
Зачем семантика и как не подхватить диватоз.
Почему не нужно переделывать элементы.
Кнопки и ссылки, в чём разница?
Лейблы элементов.
Кому нужны описания элементов.
Разбор ошибок в реальных интерфейсах.
Инспекторы доступности и скринридеры.-5. Введение в CSS (Практическая лекция)
Ведущий: Александр Першин
Разберёмся с базовыми механизмами CSS и начнём стилизацию проектов.
Введение в CSS.
Синтаксис CSS.
CSS-селекторы, псевдоклассы и псевдоэлементы.
Наследование, каскадность и приоритеты в CSS.
Единицы измерения в CSS: абсолютные, относительные, для управления цветом.
CSS-функции и директивы.
Практика стилизации.
Зачем нужна нормализация.
Пространства имён и независимые компоненты.
Стили кодирования для CSS.
Работа с нестандартными шрифтами.
Стилизация состояний интерактивных элементов.
Начинаем стилизацию главной страницы учебного проекта.
Задаём глобальные стили документа, описываем текстовые параметры элементов и состояния интерактивных элементов.-6. Сетки (Теоретическая лекция)
Ведущий: Александр Першин
Разберёмся с блочной моделью документа. Создадим сетки страниц учебного и личного проектов.
Поток документа и блочная модель документа.
Понятие сетки и потока документа.
Блочные и строчные элементы и их особенности.
Свойства блочной модели: размеры, рамки и отступы.
Тонкости блочной модели: «схлопывание» и «выпадание» внешних отступов, width: 100% и width: auto, свойство box-sizing и другие.
Свойство display. Управление типом элементов.
Создание сеток на флексбоксах.
Введение во флексбокс.
Флекс-контейнер, флекс-элементы, флекс-оси.
Алгоритм расчёта размеров флекс-элементов.
Выравнивание и распределение флекс-элементов вдоль осей.
Однострочный и многострочный флекс-контейнер, управление флекс-рядами.
Особенности флексов при создании сеток.
Создаём сетку главной страницы учебного проекта.-7. Декоративные элементы (Практическая лекция)
Ведущий: Александр Першин
Познакомимся с приёмами создания декоративных элементов. Завершим вёрстку главных страниц учебного и личного проектов.
Позиционирование.
Относительное позиционирование.
Абсолютное позиционирование: координаты, изменение точки начала координат, относительные координаты и размеры, координаты по умолчанию.
Фиксированное позиционирование.
Управление порядком слоёв.
Приёмы создания элементов интерфейса.
Блочно-строчные элементы и их особенности.
Борьба с пробелами между блочно-строчными элементами.
Особенности флексов при создании элементов интерфейсов.
Типовой приём «псевдоэлемент с абсолютным позиционированием».
Использование CSS-графики для создания декоративных элементов.
Завершаем вёрстку главной страницы учебного проекта.-8. Оформление контента (Практическая лекция)
Ведущий: Александр Першин
Завершим вёрстку внутренних страниц и подготовим проекты к публикации. Начнём готовиться к защите личного проекта.
Практикуемся в вёрстке элементов содержимого.
Сверстаем текстовую страницу учебного проекта. Подготовим универсальные стили содержания, которые будут хорошо работать при наполнении страницы из CMS.
Сверстаем всплывающие окна с формой входа и интерактивной картой. Разберём приёмы стилизации нестандартных элементов форм.
Подготовим свёрстанный учебный макет к публикации или передаче заказчику.
Разбираем типовые случаи переполнения и способы борьбы с ними.
Готовим проект к защите. Подробный разбор критериев защиты выпускных проектов.-9. Введение в JavaScript (Практическая лекция)
Ведущий: Алексей Симоненко
Познакомимся с JavaScript, узнаем что такое Vanilla JS и оживим некоторые блоки вёрстки.
Язык программирования JavaScript.
Роль программирования в жизни верстальщика.
Что такое DOM и зачем нам объект document.
Зачем нужен объект window.
Типовые случаи использования JavaScript.
Как найти любой элемент на странице.
Как реагировать на события, происходящие на странице.
Как менять CSS-стили у элементов.
Как использовать анимацию на странице.
Оживляем всплывающее окно и вставляем интерактивную карту на главной странице учебного проекта.-10. Лучшие практики (Теоретическая лекция)
Ведущий: Вадим Макеев
Узнаем как правильно применять практические знания, как учиться новому и развиваться в профессии.
Совместимая вёрстка.
Прогрессивное улучшение.
Постепенная деградация.
Цена совместимости.
Независимые слои улучшения.
Реальное тестирование.
Многообразие браузеров и устройств.
Инспекторы, эмуляторы, виртуальные машины.
Слабые устройства и медленные сети.
Минификация, сжатие, оптимизация.
Эмпатия, приоритеты, сначала контент.
Корневые технологии.
Веб-стандарты и фантазийные велосипеды.
Ваниль против библиотек и фреймворков.
Мода, хайп, вечное и светлое.
Развитие в профессии.
Как не потерять актуальность знаний.
Обмен знаниями, события, выступления.
Пограничные дисциплины.-11. Как не потеряться на рынке труда NEW!
Ведущий: Серёжа Попов
Трудоустройство, поиск заказов, оценка работы
Какая вообще бывает работа?
В офисе
На фрилансе
Поиск работы
Как оценивать себя и проходить собеседования
История обновлений:
28.04.2018 - Торрент файл обновлен.
- Добавлены скрины теорий с платных и бесплатных курсов;
- Добавлены все демо-материалы верстки макетов в виде скринов и исходников (html + css).
"Раздача ведётся путём добавления новых файлов:"
Раздача ведётся путём добавления новых файлов; при каждом добавлении создаётся новый торрент. Чтобы начать докачку новых файлов, пользователям необходимо сделать следующее:
(1) остановить скачивание,
(2) удалить старый торрент у себя из клиента (имеющиеся файлы удалять не надо),
(3) скачать новый торрент и запустить его у себя в клиенте вместо старого, при этом указать клиенту путь в старую папку, куда и должно происходить скачивание новых файлов.
Ваш клиент при этом должен произвести хеширование (проверку) старой папки (если не производит сам - помогите ему сделать это), и будет докачивать только те файлы, которых у вас ещё нет. Старые файлы при этом не удаляются, а продолжают раздаваться!
Eсли вы уже удалили старые файлы, то предотвратить повторную закачку старых файлов можно, отжав галочку в соответствующих местах при запуске нового торрента. По возможности, желательно не удалять старые файлы как можно дольше, чтобы релизёр не только продолжал раздавать старые файлы, а смог сконцентрироваться на новых.
-Скриншоты:
HTML Academy | Профессиональный HTML и CSS, уровень 2 (2018) PCRec [H.264]
HTML Academy | Профессиональный HTML и CSS, уровень 2 (2018) PCRec [H.264] - Автор (режиссер): HTML Academy
Жанр: Веб-дизайн, HTML, CSS
Описание:
Во время курса вы будете работать как профессиональные верстальщики: создадите разметку по методологии БЭМ, будете писать CSS-код на препроцессорах, сделаете адаптивную сетку, поработаете с адаптивной и ретиновой графикой и подготовите автоматизацию сборки проекта для публикации.
Продолжительность: 26:44:00
Качество видео: PCRec
Видео: AVC/H.264, 1152x720-1920x1080, ~155-1469 Kbps
Аудио: AAC, 2 ch, 125-256 Kbps
Mediainfo:
Общее
Полное имя : D:\DownLoads\курсы\[HTML Academy] Профессиональный HTML и CSS, уровень 2\03 Препроцессоры и автоматизация\Скринкасты\Сборка Less на Grunt.mp4
Формат : MPEG-4
Профиль формата : Base Media / Version 2
Идентификатор кодека : mp42 (mp42/mp41/isom/avc1)
Размер файла : 10,3 Мбайт
Продолжительность : 2 м. 41 с.
Режим общего битрейта : Переменный
Общий поток : 533 Кбит/сек
Дата кодирования : UTC 2017-09-25 14:42:50
Дата пометки : UTC 2017-09-25 14:42:50
Видео
Идентификатор : 1
Формат : AVC
Формат/Информация : Advanced Video Codec
Профиль формата : High@L3.2
Настройки формата : CABAC / 5 Ref Frames
Параметр CABAC формата : Да
Параметр RefFrames формата : 5 кадров
Идентификатор кодека : avc1
Идентификатор кодека/Информация : Advanced Video Coding
Продолжительность : 2 м. 41 с.
Битрейт : 293 Кбит/сек
Ширина : 1152 пикселя
Высота : 720 пикселей
Соотношение сторон : 16:10
Режим частоты кадров : Постоянный
Частота кадров : 30,000 кадров/сек
Цветовое пространство : YUV
Субдискретизация насыщенности : 4:2:0
Битовая глубина : 8 бит
Тип развёртки : Прогрессивная
Бит/(Пиксели*Кадры) : 0.012
Размер потока : 5,65 Мбайт (55%)
Библиотека кодирования : x264 core 150 r10 df79067
Настройки программы : cabac=1 / ref=5 / deblock=1:0:0 / analyse=0x3:0x113 / me=hex / subme=8 / psy=1 / psy_rd=1.00:0.00 / mixed_ref=1 / me_range=16 / chroma_me=1 / trellis=2 / 8x8dct=1 / cqm=0 / deadzone=21,11 / fast_pskip=1 / chroma_qp_offset=-2 / threads=22 / lookahead_threads=3 / sliced_threads=0 / nr=0 / decimate=1 / interlaced=0 / bluray_compat=0 / stitchable=1 / constrained_intra=0 / bframes=3 / b_pyramid=2 / b_adapt=1 / b_bias=0 / direct=3 / weightb=1 / open_gop=0 / weightp=2 / keyint=infinite / keyint_min=30 / scenecut=40 / intra_refresh=0 / rc_lookahead=50 / rc=crf / mbtree=1 / crf=20.0 / qcomp=0.60 / qpmin=5 / qpmax=69 / qpstep=4 / vbv_maxrate=2750 / vbv_bufsize=7500 / crf_max=0.0 / nal_hrd=none / filler=0 / ip_ratio=1.40 / aq=1:1.00
Дата кодирования : UTC 2017-09-25 14:42:50
Дата пометки : UTC 2017-09-25 14:42:50
Цветовой диапазон : Limited
Основные цвета : BT.709
Характеристики трансфера : BT.709
Коэффициенты матрицы : BT.709
Аудио
Идентификатор : 2
Формат : AAC
Формат/Информация : Advanced Audio Codec
Профиль формата : LC
Идентификатор кодека : mp4a-40-2
Продолжительность : 2 м. 41 с.
Вид битрейта : Переменный
Битрейт : 235 Кбит/сек
Каналы : 2 канала
Расположение каналов : Front: L R
Частота : 48,0 КГц
Частота кадров : 46,875 кадров/сек (1024 SPF)
Метод сжатия : С потерями
Размер потока : 4,54 Мбайт (44%)
Дата кодирования : UTC 2017-09-25 14:42:50
Дата пометки : UTC 2017-09-25 14:42:50
Общее
Полное имя : D:\DownLoads\курсы\[HTML Academy] Профессиональный HTML и CSS, уровень 2\04 Адаптивные сетки\Лекция\Лекция 4 - Адаптивные сетки.mp4
Формат : MPEG-4
Профиль формата : Base Media / Version 2
Идентификатор кодека : mp42 (isom/mp42)
Размер файла : 315 Мбайт
Продолжительность : 2 ч. 26 м.
Режим общего битрейта : Переменный
Общий поток : 301 Кбит/сек
Дата кодирования : UTC 2018-04-19 18:44:42
Дата пометки : UTC 2018-04-19 18:44:42
gsst : 0
gstd : 8790053
Видео
Идентификатор : 1
Формат : AVC
Формат/Информация : Advanced Video Codec
Профиль формата : Main@L3.1
Настройки формата : CABAC / 3 Ref Frames
Параметр CABAC формата : Да
Параметр RefFrames формата : 3 кадра
Идентификатор кодека : avc1
Идентификатор кодека/Информация : Advanced Video Coding
Продолжительность : 2 ч. 26 м.
Битрейт : 172 Кбит/сек
Ширина : 1280 пикселей
Высота : 720 пикселей
Соотношение сторон : 16:9
Режим частоты кадров : Постоянный
Частота кадров : 30,000 кадров/сек
Цветовое пространство : YUV
Субдискретизация насыщенности : 4:2:0
Битовая глубина : 8 бит
Тип развёртки : Прогрессивная
Бит/(Пиксели*Кадры) : 0.006
Размер потока : 180 Мбайт (57%)
Заголовок : ISO Media file produced by Google Inc. Created on: 04/19/2018.
Дата кодирования : UTC 2018-04-19 18:44:42
Дата пометки : UTC 2018-04-19 18:44:42
Цветовой диапазон : Limited
Основные цвета : BT.709
Характеристики трансфера : BT.709
Коэффициенты матрицы : BT.470 System B, BT.470 System G
Аудио
Идентификатор : 2
Формат : AAC
Формат/Информация : Advanced Audio Codec
Профиль формата : LC
Идентификатор кодека : mp4a-40-2
Продолжительность : 2 ч. 26 м.
Вид битрейта : Переменный
Битрейт : 126 Кбит/сек
Каналы : 2 канала
Расположение каналов : Front: L R
Частота : 44,1 КГц
Частота кадров : 43,066 кадра/сек (1024 SPF)
Метод сжатия : С потерями
Размер потока : 132 Мбайт (42%)
Заголовок : ISO Media file produced by Google Inc. Created on: 04/19/2018.
Дата кодирования : UTC 2018-04-19 18:44:42
Дата пометки : UTC 2018-04-19 18:44:42
"Программа 14 потока:"
1. Введение (Теоретическая лекция)
Ведущий: Алексей Симоненко
Познакомимся с рабочим процессом на интенсиве.
Как проходит курс. Организационные вопросы.
Обзор личных проектов.
Как работать с наставником.
Защита личного проекта и получение сертификата.
Системы контроля версий.
Зачем нужны системы контроля версий.
Обзор возможностей и работа с Гитом.
Работа с ветками: создание, синхронизация, слияние.
Конфликты и их разрешение.
Обзор Гитхаба.
Рабочий процесс на интенсиве.
Зависимость заданий.
Настройки личных проектов.
Создание мастер-репозитория.
Структура личных проектов.-2. Методологии вёрстки (Теоретическая лекция)
Ведущий: Вадим Макеев
Приёмы создания надёжной вёрстки.
Зачем нужны методологии.
Порядок в коде.
Работа в команде.
Недостатки технологий.
Обзор подходов к вёрстке.
Классический подход.
Независимые блоки.
Атомарный подход.
Компоненты и модули.
Методология БЭМ.
Зачем всё так усложнять.
Как разбить интерфейс на блоки.
Элементы и модификаторы.
Ошибки и узкие места.
Разбор учебного проекта по БЭМу.-3. Препроцессоры и автоматизация (Практическая лекция)
Ведущий: Вадим Макеев
Взглянем на препроцессоры и разберёмся, чем они помогают в процессе вёрстки.
Стили на стероидах.
Обзор препроцессоров.
Фантазийный CSS.
Новые возможности CSS.
Основные возможности.
Сравнение Less и Sass.
Переменные и математика.
Вложенные селекторы.
Операции с цветами.
Дополнительные возможности.
Подключение файлов.
Примеси и расширения.
Организация кода.
Сборка стилей.
Настройка окружения.
Система сборки на Node.js.
Сборщики Gulp и Grunt.
Автоматизация сборки и вотчеры.-4. Адаптивные сетки (Практическая лекция)
Ведущий: Александр Першин
Узнаем как создавать адаптивные сетки с использованием флексбоксов.
Создание сеток на флексбоксах.
Введение во флексбокс.
Флекс-контейнер, флекс-элементы, флекс-оси.
Алгоритм расчёта размеров флекс-элементов.
Выравнивание и распределение флекс-элементов вдоль осей.
Однострочный и многострочный флекс-контейнер, управление флекс-рядами.
Особенности флексов при создании сеток.
Адаптивные сетки.
Принципы «перестройки сетки».
Медиавыражения, макро- и микробрейкпоинты.
Организация кода разных версий страницы: мобильной, планшетной и десктопной.
«Проблема двух вьюпортов» на мобильных.
Настройка вьюпорта.
Создаём адаптивные сетки БЭМ-блоков учебного проекта с помощью флексбоксов.-5. Адаптивные декоративные элементы (Практическая лекция)
Ведущий: Александр Першин
Разбираемся с адаптивными декоративными элементами. Делаем адаптивную вёрстку с резиновыми сетками.
Завершаем адаптивную вёрстку БЭМ-блоков учебного проекта.
Переход от фиксированных сеток к резиновым. Тонкости флексбокса.
Отличие «резины» от «фикса».
Переход от пикселей к процентам.
Резиновые колонки с точными размерами на флексбоксе.
flex-grow для создания «неточных» резиновых колонок.
Флекс-контейнер внутри флекс-контейнера и резиновые по высоте элементы.
Когда использовать резиновые сетки и насколько они дороже фиксированных.
Делаем резиново-адаптивную вёрстку БЭМ-блоков учебного проекта.-6. Адаптивная графика (Теоретическая лекция)
Ведущий: Александр Першин
Погружаемся в адаптивную и ретиновую графику. Разбираемся с форматами и их назначением.
Графика для экранов повышенной чёткости.
В чём разница между физическими и логическими пикселями.
Что такое «ретиновая» графика.
Приёмы ретинизации содержимого веб-страницы.
Адаптивная графика.
Тег на все случаи жизни — <picture>.
Ретинизация контентных изображений с помощью атрибута srcset.
Кадрирование изображений с помощью <source>.
Использование современных форматов графики с помощью <source>.
Изображения неопределённых размеров и <sizes>.
Ретинизируем и добавляем адаптивную графику в учебном проекте.-7. Векторная графика и оптимизация (Теоретическая лекция)
Ведущий: Виталий Зюзин
Научимся использовать векторную графику всеми возможными способами. Разберёмся, как использовать графику оптимально.
Использование SVG.
Плюсы и минусы векторной графики.
Подключение SVG внешним ресурсом.
Встраивание SVG.
SVG-спрайты.
Зачем нужны, в каких случаях полезны.
Варианты реализации.
Стилизация SVG.
Что можно, а что нельзя.
Анимация.
Адаптивность.
Оптимизация и доступность SVG.
Особенности экспорта из Illustrator и Sketch.
Дожимаем и оптимизируем SVG.
Доступность.
Оптимизация растровой графики.
Сжатие lossless и с потерей качества.
Обзор формата webp и особенностей его применения-8. Погружение в автоматизацию (Практическая лекция)
Ведущий: Алексей Симоненко
Подготовим сборку проекта для его публикации.
Решим для себя, что лучше для автоматизации Gulp или Grunt.
Оптимизация.
Минификация CSS-кода.
Оптимизация изображений.
Сборка и минификация SVG-спрайта.
Как держать код для разработчика удобным, а для браузеров — быстрым.-9. Производительность вёрстки (Теоретическая лекция)
Ведущий: Алексей Симоненко
Разберёмся с производительностью вёрстки и попробуем оптимизировать «узкие места».
Как подключать внешние шрифты лучше всего.
Отличается ли быстродействие сайта на десктопе от мобильного.
Что нужно знать, когда пользуешься CSS-анимацией и плавными переходами.
Что нужно знать о перерисовке и перекомпоновке страниц.-10. Как не потеряться на рынке труда
Ведущий: Серёжа Попов
Трудоустройство, поиск заказов, оценка работы
Какая вообще бывает работа?
В офисе
На фрилансе
Поиск работы
Как оценивать себя и проходить собеседования-10. С чем едят гриды (бонусная лекция из 13 потока)
Ведущий: Вадим Макеев
Введение в гриды.
Вёртска Барбешепа.-11. Финал
Ведущий: Алексей Симоненко
Итоги интенсива.
-Скриншоты:
HTML Academy | Интенсивный онлайн‑курс Профессиональный PHP, уровень 1 (2018) PCRec
HTML Academy | Интенсивный онлайн‑курс Профессиональный PHP, уровень 1 (2018) PCRec - Автор (режиссер): Кирилл Сенкевич
Производство: HTML Academy
Жанр: Программирование, PHP
Описание:
Интенсив рассчитан на новичков без навыков программирования. Для прохождения интенсива желательны навыки HTML и CSS, для получения которых достаточно пройти бесплатные интерактивные курсы на HTML Academy.
Продолжительность: 16:49:21
Качество видео: PCRec
Видео: AVC/H.264, 1400x808-1440x900, ~417-3098 Kbps
Аудио: AAC, 2 ch, 142-194 Kbps
Mediainfo:
Общее
Полное имя : .\00 Git\02 Как сделать репозиторий из любого проекта.mp4
Формат : MPEG-4
Профиль формата : Base Media
Идентификатор кодека : isom (mp41)
Размер файла : 139 Мбайт
Продолжительность : 7 м. 45 с.
Режим общего битрейта : Переменный
Общий поток : 2505 Кбит/сек
Дата кодирования : UTC 2018-02-07 19:27:47
Дата пометки : UTC 2018-02-07 19:27:47
Программа кодирования : BandiMp4Muxer 1.0
Видео
Идентификатор : 1
Формат : AVC
Формат/Информация : Advanced Video Codec
Профиль формата : Main@L3.2
Настройки формата : CABAC / 1 Ref Frames
Параметр CABAC формата : Да
Параметр RefFrames формата : 1 кадр
Идентификатор кодека : avc1
Идентификатор кодека/Информация : Advanced Video Coding
Продолжительность : 7 м. 45 с.
Битрейт : 2321 Кбит/сек
Ширина : 1400 пикселей
Высота : 808 пикселей
Соотношение сторон : 1,733
Режим частоты кадров : Переменный
Частота кадров : 30,000 кадров/сек
Минимальная частота кадров : 15,000 кадров/сек
Максимальная частота кадров : 30,030 кадров/сек
Цветовое пространство : YUV
Субдискретизация насыщенности : 4:2:0
Битовая глубина : 8 бит
Тип развёртки : Прогрессивная
Бит/(Пиксели*Кадры) : 0.068
Размер потока : 129 Мбайт (93%)
Язык : English
Дата кодирования : UTC 2018-02-07 19:27:47
Дата пометки : UTC 2018-02-07 19:27:47
Аудио
Идентификатор : 2
Формат : AAC
Формат/Информация : Advanced Audio Codec
Профиль формата : LC
Идентификатор кодека : mp4a-40-2
Продолжительность : 7 м. 45 с.
Duration_LastFrame : -21 мс.
Вид битрейта : Переменный
Битрейт : 175 Кбит/сек
Максимальный битрейт : 325 Кбит/сек
Каналы : 2 канала
Расположение каналов : Front: L R
Частота : 48,0 КГц
Частота кадров : 46,875 кадров/сек (1024 SPF)
Метод сжатия : С потерями
Размер потока : 9,74 Мбайт (7%)
Язык : English
Дата кодирования : UTC 2018-02-07 19:27:47
Дата пометки : UTC 2018-02-07 19:27:47
Общее
Полное имя : .\05 Хранение состояния и аутентификация\05 Хранение состояния и аутентификация.mp4
Формат : MPEG-4
Профиль формата : Base Media
Идентификатор кодека : isom (mp41)
Размер файла : 507 Мбайт
Продолжительность : 1 ч. 40 м.
Режим общего битрейта : Переменный
Общий поток : 706 Кбит/сек
Дата кодирования : UTC 2018-03-15 10:47:54
Дата пометки : UTC 2018-03-15 10:47:54
Программа кодирования : BandiMp4Muxer 1.0
Видео
Идентификатор : 1
Формат : AVC
Формат/Информация : Advanced Video Codec
Профиль формата : Main@L3.2
Настройки формата : CABAC / 1 Ref Frames
Параметр CABAC формата : Да
Параметр RefFrames формата : 1 кадр
Идентификатор кодека : avc1
Идентификатор кодека/Информация : Advanced Video Coding
Продолжительность : 1 ч. 40 м.
Битрейт : 504 Кбит/сек
Ширина : 1424 пикселя
Высота : 824 пикселя
Соотношение сторон : 1,728
Режим частоты кадров : Переменный
Частота кадров : 30,000 кадров/сек
Минимальная частота кадров : 14,993 кадров/сек
Максимальная частота кадров : 30,030 кадров/сек
Цветовое пространство : YUV
Субдискретизация насыщенности : 4:2:0
Битовая глубина : 8 бит
Тип развёртки : Прогрессивная
Бит/(Пиксели*Кадры) : 0.014
Размер потока : 362 Мбайт (71%)
Язык : English
Дата кодирования : UTC 2018-03-15 10:47:54
Дата пометки : UTC 2018-03-15 10:47:54
Аудио
Идентификатор : 2
Формат : AAC
Формат/Информация : Advanced Audio Codec
Профиль формата : LC
Идентификатор кодека : mp4a-40-2
Продолжительность : 1 ч. 40 м.
Duration_LastFrame : -21 мс.
Вид битрейта : Переменный
Битрейт : 192 Кбит/сек
Максимальный битрейт : 286 Кбит/сек
Каналы : 2 канала
Расположение каналов : Front: L R
Частота : 48,0 КГц
Частота кадров : 46,875 кадров/сек (1024 SPF)
Метод сжатия : С потерями
Размер потока : 139 Мбайт (27%)
Язык : English
Дата кодирования : UTC 2018-03-15 10:47:54
Дата пометки : UTC 2018-03-15 10:47:54
Общее
Полное имя : .\03 Шаблонизация и организация кода\03 Шаблонизация и организация кода.mp4
Формат : MPEG-4
Профиль формата : Base Media
Идентификатор кодека : isom (mp41)
Размер файла : 501 Мбайт
Продолжительность : 1 ч. 39 м.
Режим общего битрейта : Переменный
Общий поток : 707 Кбит/сек
Дата кодирования : UTC 2018-02-10 11:22:14
Дата пометки : UTC 2018-02-10 11:22:14
Программа кодирования : BandiMp4Muxer 1.0
Видео
Идентификатор : 1
Формат : AVC
Формат/Информация : Advanced Video Codec
Профиль формата : Main@L3.2
Настройки формата : CABAC / 1 Ref Frames
Параметр CABAC формата : Да
Параметр RefFrames формата : 1 кадр
Идентификатор кодека : avc1
Идентификатор кодека/Информация : Advanced Video Coding
Продолжительность : 1 ч. 39 м.
Битрейт : 504 Кбит/сек
Ширина : 1432 пикселя
Высота : 828 пикселей
Соотношение сторон : 1,729
Режим частоты кадров : Переменный
Частота кадров : 30,000 кадров/сек
Минимальная частота кадров : 14,993 кадров/сек
Максимальная частота кадров : 30,030 кадров/сек
Цветовое пространство : YUV
Субдискретизация насыщенности : 4:2:0
Битовая глубина : 8 бит
Тип развёртки : Прогрессивная
Бит/(Пиксели*Кадры) : 0.014
Размер потока : 358 Мбайт (71%)
Язык : English
Дата кодирования : UTC 2018-02-10 11:22:14
Дата пометки : UTC 2018-02-10 11:22:14
Аудио
Идентификатор : 2
Формат : AAC
Формат/Информация : Advanced Audio Codec
Профиль формата : LC
Идентификатор кодека : mp4a-40-2
Продолжительность : 1 ч. 39 м.
Duration_LastFrame : -21 мс.
Вид битрейта : Переменный
Битрейт : 192 Кбит/сек
Максимальный битрейт : 286 Кбит/сек
Каналы : 2 канала
Расположение каналов : Front: L R
Частота : 48,0 КГц
Частота кадров : 46,875 кадров/сек (1024 SPF)
Метод сжатия : С потерями
Размер потока : 138 Мбайт (27%)
Язык : English
Дата кодирования : UTC 2018-02-10 11:22:14
Дата пометки : UTC 2018-02-10 11:22:14
Общее
Полное имя : .\02 Стандартные API\02 Стандартные API.mp4
Формат : MPEG-4
Профиль формата : Base Media
Идентификатор кодека : isom (mp41)
Размер файла : 530 Мбайт
Продолжительность : 1 ч. 53 м.
Режим общего битрейта : Переменный
Общий поток : 655 Кбит/сек
Дата кодирования : UTC 2018-02-03 09:27:28
Дата пометки : UTC 2018-02-03 09:27:28
Программа кодирования : BandiMp4Muxer 1.0
Видео
Идентификатор : 1
Формат : AVC
Формат/Информация : Advanced Video Codec
Профиль формата : Main@L4
Настройки формата : CABAC / 1 Ref Frames
Параметр CABAC формата : Да
Параметр RefFrames формата : 1 кадр
Идентификатор кодека : avc1
Идентификатор кодека/Информация : Advanced Video Coding
Продолжительность : 1 ч. 53 м.
Битрейт : 456 Кбит/сек
Ширина : 1440 пикселей
Высота : 900 пикселей
Соотношение сторон : 16:10
Режим частоты кадров : Переменный
Частота кадров : 30,000 кадров/сек
Минимальная частота кадров : 14,993 кадров/сек
Максимальная частота кадров : 30,030 кадров/сек
Цветовое пространство : YUV
Субдискретизация насыщенности : 4:2:0
Битовая глубина : 8 бит
Тип развёртки : Прогрессивная
Бит/(Пиксели*Кадры) : 0.012
Размер потока : 369 Мбайт (70%)
Язык : English
Дата кодирования : UTC 2018-02-03 09:27:28
Дата пометки : UTC 2018-02-03 09:27:28
Аудио
Идентификатор : 2
Формат : AAC
Формат/Информация : Advanced Audio Codec
Профиль формата : LC
Идентификатор кодека : mp4a-40-2
Продолжительность : 1 ч. 53 м.
Duration_LastFrame : -21 мс.
Вид битрейта : Переменный
Битрейт : 192 Кбит/сек
Максимальный битрейт : 286 Кбит/сек
Каналы : 2 канала
Расположение каналов : Front: L R
Частота : 48,0 КГц
Частота кадров : 46,875 кадров/сек (1024 SPF)
Метод сжатия : С потерями
Размер потока : 155 Мбайт (29%)
Язык : English
Дата кодирования : UTC 2018-02-03 09:27:28
Дата пометки : UTC 2018-02-03 09:27:28
"Программа курса"
Раздел 1: Знакомство
– Знакомство с интенсивом
– Учебный и личные проекты
– Что такое PHP
– Как установить и настроить PHP-окружение
– Основы синтаксиса языка
– Описание рабочего процесса
Раздел 2: Массивы и функции
– Что такое массивы
– Практика работы с массивами
– Циклы
– Обход массивов
– Стандартная библиотека PHP
– Пишем свои функции
– Отладка кода
– PhpStorm - среда разработки для PHP
Раздел 3: Шаблонизация и организация кода
– Как работать с датой и временем
– Подключение файлов в PHP-сценариях
– Как организовывать код в проекте
–Шаблонизация: отделение логики от интерфейса
– Буферизация вывода
– Боремся с XSS-атаками (межсайтовый скриптинг)
Раздел 4: Формы и протокол HTTP
– Протокол HTTP
– Работа с заголовками из PHP
– Параметры запроса
– Методы GET и POST
– Формы: отправка данных на сервер
– Отправка файлов
– Валидация форм
Раздел 5: Хранение состояния и аутентификация
– Проблема хранения состояния в вебе
– Cookies (куки)
– Сессии
– Что такое аутентификация
– Правильное хранение паролей
– Организуем вход на сайт
Раздел 6: Базы данных. Теория
– что такое База Данных (БД)
– как БД хранят информацию
– понятие реляционных БД
– анализ и проектирование БД
– язык запросов SQL
– MySQL: установка и запуск
– как строить запросы: основные операции
– живая демонстрация
Раздел 7: MySQL и PHP
– поддержка MySQL в PHP
– подключение к БД из PHP-сценария
– выполнение SQL-запросов
– получение результата запроса из MySQL
– обработка ошибок
– безопасность при выполнении запросов
– подготовленные выражения
– интерактивные демонстрации
Раздел 8: Дополнительная практика MySQL
– полнотекстовый поиск
– пагинация результатов
– транзакции
– кэширование данных
– функции даты/времени в MySQL
Раздел 9: Чужой код
– что такое объект
– демонстрация работы с объектами
– что такое библиотека
– пакетный менеджер Composer
– обзор популярных библиотек
– демонстрация работы с Composer
– документирование кода
Раздел 10: Финал
– статистика интенсива
– организационная информация
– что изучать дальше?
– разбор нерассмотренных тем
– как искать работу и составить резюме
"Дополнительная информация:"
В раздаче имеются архивы! В них содержится код из репозитория курса.
-Скриншоты:
HTML Academy | Интенсивный онлайн-курс «Базовый HTML и CSS» (2017) PCRec [H.264][Обновленная программа]
HTML Academy | Интенсивный онлайн-курс «Базовый HTML и CSS» (2017) PCRec [H.264] [Обновленная программа] - Автор (режиссер): HTML Academy
Жанр: Веб-дизайн, HTML, CSS
Описание:
HTML Academy — стандарт в обучении фронтендеров. Наша задача — сделать из любого новичка полноценного и востребованного специалиста, готового работать в веб-индустрии.
Продолжительность: 26:49:11
Качество видео: PCRec
Видео: AVC/H.264, 1280-1920x720-1080, ~303-1798 Kbps
Аудио: AAC, 2 ch, 146-236
Mediainfo:
Общее
Полное имя : \[HTML Academy] Интенсивный онлайн-курс Базовый HTML и CSS №18\02 Разметка\Базовый HTML и CSS. 2 лекция.mp4
Формат : MPEG-4
Профиль формата : Base Media / Version 2
Идентификатор кодека : mp42 (mp42/mp41/isom/avc1)
Размер файла : 705 Мбайт
Продолжительность : 2 ч. 33 м.
Режим общего битрейта : Переменный
Общий поток : 644 Кбит/сек
Дата кодирования : UTC 2017-08-11 05:52:48
Дата пометки : UTC 2017-08-11 05:52:48
Видео
Идентификатор : 1
Формат : AVC
Формат/Информация : Advanced Video Codec
Профиль формата : High@L3.2
Параметр CABAC формата : Да
Параметр RefFrames формата : 5 кадров
Параметр GOP формата : M=4, N=90
Идентификатор кодека : avc1
Идентификатор кодека/Информация : Advanced Video Coding
Продолжительность : 2 ч. 33 м.
Битрейт : 404 Кбит/сек
Ширина : 1280 пикселей
Высота : 720 пикселей
Соотношение сторон : 16:9
Режим частоты кадров : Постоянный
Частота кадров : 30,000 кадров/сек
Цветовое пространство : YUV
Субдискретизация насыщенности : 4:2:0
Битовая глубина : 8 бит
Тип развёртки : Прогрессивная
Бит/(Пиксели*Кадры) : 0.015
Размер потока : 443 Мбайт (63%)
Библиотека кодирования : x264 core 150 r10 df79067
Настройки программы : cabac=1 / ref=5 / deblock=1:0:0 / analyse=0x3:0x113 / me=hex / subme=8 / psy=1 / psy_rd=1.00:0.00 / mixed_ref=1 / me_range=16 / chroma_me=1 / trellis=2 / 8x8dct=1 / cqm=0 / deadzone=21,11 / fast_pskip=1 / chroma_qp_offset=-2 / threads=22 / lookahead_threads=3 / sliced_threads=0 / nr=0 / decimate=1 / interlaced=0 / bluray_compat=0 / stitchable=1 / constrained_intra=0 / bframes=3 / b_pyramid=2 / b_adapt=1 / b_bias=0 / direct=3 / weightb=1 / open_gop=0 / weightp=2 / keyint=infinite / keyint_min=30 / scenecut=40 / intra_refresh=0 / rc_lookahead=50 / rc=crf / mbtree=1 / crf=20.0 / qcomp=0.60 / qpmin=5 / qpmax=69 / qpstep=4 / vbv_maxrate=2750 / vbv_bufsize=7500 / crf_max=0.0 / nal_hrd=none / filler=0 / ip_ratio=1.40 / aq=1:1.00
Дата кодирования : UTC 2017-08-11 05:52:48
Дата пометки : UTC 2017-08-11 05:52:48
Цветовой диапазон : Limited
Основные цвета : BT.709
Характеристики трансфера : BT.709
Коэффициенты матрицы : BT.709
Аудио
Идентификатор : 2
Формат : AAC
Формат/Информация : Advanced Audio Codec
Профиль формата : LC
Идентификатор кодека : 40
Продолжительность : 2 ч. 33 м.
Вид битрейта : Переменный
Битрейт : 235 Кбит/сек
Каналы : 2 канала
Расположение каналов : Front: L R
Частота : 48,0 КГц
Частота кадров : 46,875 кадров/сек (1024 SPF)
Метод сжатия : С потерями
Размер потока : 258 Мбайт (37%)
Дата кодирования : UTC 2017-08-11 05:52:48
Дата пометки : UTC 2017-08-11 05:52:48
Общее
Полное имя : \[HTML Academy] Интенсивный онлайн-курс Базовый HTML и CSS №18\07 Декоративные элементы\Скринкасты\Вёрстка слайдера в «Нёрдс».mp4
Формат : MPEG-4
Профиль формата : Base Media / Version 2
Идентификатор кодека : mp42 (mp42/mp41/isom/avc1)
Размер файла : 101 Мбайт
Продолжительность : 18 м. 59 с.
Режим общего битрейта : Переменный
Общий поток : 740 Кбит/сек
Дата кодирования : UTC 2015-02-08 21:21:25
Дата пометки : UTC 2015-02-08 21:21:25
Видео
Идентификатор : 1
Формат : AVC
Формат/Информация : Advanced Video Codec
Профиль формата : High@L4
Параметр CABAC формата : Да
Параметр RefFrames формата : 4 кадра
Идентификатор кодека : avc1
Идентификатор кодека/Информация : Advanced Video Coding
Продолжительность : 18 м. 59 с.
Битрейт : 501 Кбит/сек
Ширина : 1728 пикселей
Высота : 1080 пикселей
Соотношение сторон : 16:10
Режим частоты кадров : Постоянный
Частота кадров : 30,000 кадров/сек
Цветовое пространство : YUV
Субдискретизация насыщенности : 4:2:0
Битовая глубина : 8 бит
Тип развёртки : Прогрессивная
Бит/(Пиксели*Кадры) : 0.009
Размер потока : 68,0 Мбайт (68%)
Библиотека кодирования : x264 core 142 r11 24e4fed
Настройки программы : cabac=1 / ref=3 / deblock=1:0:0 / analyse=0x3:0x113 / me=hex / subme=7 / psy=1 / psy_rd=1.00:0.00 / mixed_ref=1 / me_range=16 / chroma_me=1 / trellis=1 / 8x8dct=1 / cqm=0 / deadzone=21,11 / fast_pskip=1 / chroma_qp_offset=-2 / threads=48 / lookahead_threads=8 / sliced_threads=0 / nr=0 / decimate=1 / interlaced=0 / bluray_compat=0 / stitchable=1 / constrained_intra=0 / bframes=3 / b_pyramid=2 / b_adapt=1 / b_bias=0 / direct=1 / weightb=1 / open_gop=0 / weightp=2 / keyint=infinite / keyint_min=30 / scenecut=40 / intra_refresh=0 / rc_lookahead=40 / rc=crf / mbtree=1 / crf=20.0 / qcomp=0.60 / qpmin=5 / qpmax=69 / qpstep=4 / vbv_maxrate=4950 / vbv_bufsize=13500 / crf_max=0.0 / nal_hrd=none / filler=0 / ip_ratio=1.40 / aq=1:1.00
Дата кодирования : UTC 2015-02-08 21:21:25
Дата пометки : UTC 2015-02-08 21:21:25
Цветовой диапазон : Limited
Основные цвета : BT.709
Характеристики трансфера : BT.709
Коэффициенты матрицы : BT.709
Аудио
Идентификатор : 2
Формат : AAC
Формат/Информация : Advanced Audio Codec
Профиль формата : LC
Идентификатор кодека : 40
Продолжительность : 18 м. 59 с.
Вид битрейта : Переменный
Битрейт : 235 Кбит/сек
Каналы : 2 канала
Расположение каналов : Front: L R
Частота : 48,0 КГц
Частота кадров : 46,875 кадров/сек (1024 SPF)
Метод сжатия : С потерями
Размер потока : 32,0 Мбайт (32%)
Дата кодирования : UTC 2015-02-08 21:21:25
Дата пометки : UTC 2015-02-08 21:21:25
Общее
Полное имя :\[HTML Academy] Интенсивный онлайн-курс Базовый HTML и CSS №18\01 Вводный\Базовый HTML и CSS. 1 лекция.mp4
Формат : MPEG-4
Профиль формата : Base Media / Version 2
Идентификатор кодека : mp42 (mp42/mp41/isom/avc1)
Размер файла : 859 Мбайт
Продолжительность : 2 ч. 20 м.
Режим общего битрейта : Переменный
Общий поток : 857 Кбит/сек
Дата кодирования : UTC 2017-08-08 04:47:03
Дата пометки : UTC 2017-08-08 04:47:03
Видео
Идентификатор : 1
Формат : AVC
Формат/Информация : Advanced Video Codec
Профиль формата : High@L4
Параметр CABAC формата : Да
Параметр RefFrames формата : 4 кадра
Идентификатор кодека : avc1
Идентификатор кодека/Информация : Advanced Video Coding
Продолжительность : 2 ч. 20 м.
Битрейт : 617 Кбит/сек
Ширина : 1920 пикселей
Высота : 1080 пикселей
Соотношение сторон : 16:9
Режим частоты кадров : Постоянный
Частота кадров : 30,000 кадров/сек
Цветовое пространство : YUV
Субдискретизация насыщенности : 4:2:0
Битовая глубина : 8 бит
Тип развёртки : Прогрессивная
Бит/(Пиксели*Кадры) : 0.010
Размер потока : 618 Мбайт (72%)
Библиотека кодирования : x264 core 150 r10 df79067
Настройки программы : cabac=1 / ref=4 / deblock=1:0:0 / analyse=0x3:0x113 / me=hex / subme=8 / psy=1 / psy_rd=1.00:0.00 / mixed_ref=1 / me_range=16 / chroma_me=1 / trellis=2 / 8x8dct=1 / cqm=0 / deadzone=21,11 / fast_pskip=1 / chroma_qp_offset=-2 / threads=34 / lookahead_threads=5 / sliced_threads=0 / nr=0 / decimate=1 / interlaced=0 / bluray_compat=0 / stitchable=1 / constrained_intra=0 / bframes=3 / b_pyramid=2 / b_adapt=1 / b_bias=0 / direct=3 / weightb=1 / open_gop=0 / weightp=2 / keyint=infinite / keyint_min=30 / scenecut=40 / intra_refresh=0 / rc_lookahead=50 / rc=crf / mbtree=1 / crf=20.0 / qcomp=0.60 / qpmin=5 / qpmax=69 / qpstep=4 / vbv_maxrate=5500 / vbv_bufsize=15000 / crf_max=0.0 / nal_hrd=none / filler=0 / ip_ratio=1.40 / aq=1:1.00
Дата кодирования : UTC 2017-08-08 04:47:03
Дата пометки : UTC 2017-08-08 04:47:03
Цветовой диапазон : Limited
Основные цвета : BT.709
Характеристики трансфера : BT.709
Коэффициенты матрицы : BT.709
Аудио
Идентификатор : 2
Формат : AAC
Формат/Информация : Advanced Audio Codec
Профиль формата : LC
Идентификатор кодека : 40
Продолжительность : 2 ч. 20 м.
Вид битрейта : Переменный
Битрейт : 235 Кбит/сек
Каналы : 2 канала
Расположение каналов : Front: L R
Частота : 48,0 КГц
Частота кадров : 46,875 кадров/сек (1024 SPF)
Метод сжатия : С потерями
Размер потока : 236 Мбайт (27%)
Дата кодирования : UTC 2017-08-08 04:47:03
Дата пометки : UTC 2017-08-08 04:47:03
"Дополнительная информация:"
В раздаче имеются архивы! В них содержится дополнительные материалы.
Программа 18 потока
1. Введение
Ведущий: Александр Першин
Вводная лекция про роль и место верстальщика в мире веб-технологий.
Как проходит курс. Организационные вопросы. NEW!
Обзор личных проектов.
Как работать с наставником.
Критерии качества вёрстки.
Защита личного проекта и получение сертификата.
Что на самом деле происходит, когда вы вводите в браузере адрес сайта и нажимаете Enter?
IP-адрес, сервер и веб-сервер, «виртуальные хосты».
Доменные имена, URL-адреса и система DNS.
Загрузка и «сборка» веб-страницы.
Особенности HTTP и HTTPS. Протоколы HTTP/1.1 и HTTP/2.
Приёмы оптимизации веб-страниц.
Инструменты веб-разработчика и рабочий процесс на интенсиве.
Системы контроля версий.
Инструменты вёрстки: редакторы кода, инспекторы, полезные веб-сервисы.
Немного о браузерах, браузерных движках и различиях между ними.
2. Разметка
Ведущий: Александр Першин
Создадим логическую HTML-разметку страниц учебного и личного проектов. Попрактикуемся использовать подходящие теги, задавать имена классов, оценивать сложность разметки.
Введение в HTML. NEW!
Синтаксис HTML, типы HTML-тегов.
Структура простейшего HTML-документа.
Как работать со спецификацией HTML. NEW!
Обзор HTML-тегов из личных проектов. NEW!
Качественная разметка и стили кодирования.
Простая, понятная, читабельная и логичная разметка: примеры и антипримеры.
Типовые ошибки разметки: «ссылка или кнопка», «картинка или фон» и другие.
Модульность разметки или использование «пространств имён».
Когда использовать <article>, <section> и <div>?
Кодгайды для разметки.
Алгоритмы создания разметки: «страница как документ», «страница как приложение», «дивянка». NEW!
Создаём разметку главной страницы учебного проекта.
3.Фотошоп для верстальщика
Ведущий: Виталий Зюзин
Разберём всё необходимое для работы верстальщика в Фотошопе. Подготовим графику для проектов.
Типовые задачи верстальщика в Фотошопе.
Настройка интерфейса Фотошопа.
Работа со слоями, типы слоёв.
Получение параметров текста.
Измерение размеров блоков, отступов, получение информации о цвете.
Получение параметров сложных декоративных эффектов: тени и прочее.
Экспорт графики, работа с повторяющимися паттернами.
Обзор форматов графики в вебе.
Растровая графика — PNG, JPEG, GIF.
Векторная графика — SVG.
Как выбрать подходящий формат?
Оптимизация графики. NEW!
Обзор альтернатив. NEW!
Sketch.
Avocode.
Zeplin.
Разбор графических макетов проектов.
4. Доступность NEW!
Ведущий: Вадим Макеев
Научимся делать интерфейсы удобные и доступные для всех. Управление фокусом, важность семантики, тестирование и скринридеры.
Интерфейсы — не картинки.
Какие есть слои интерфейса, кроме графики.
Зачем нужные интерактивные элементы.
Неочевидное использование интерфейсов.
Понятие доступности.
Что мешает пользоваться интерфейсами.
Ежедневные ситуации недоступности.
Физиологические и ментальные особенности.
Взаимодействие с клавиатуры.
Интерфейсы без указателя.
Зачем нужен фокус на элементах.
Как сделать элементы интерактивными.
Значимые элементы.
Зачем семантика и как не подхватить диватоз.
Почему не нужно переделывать элементы.
Кнопки и ссылки, в чём разница?
Лейблы элементов.
Кому нужны описания элементов.
Разбор ошибок в реальных интерфейсах.
Инспекторы доступности и скринридеры.
5. Введение в CSS NEW!
Ведущий: Александр Першин
Разберёмся с базовыми механизмами CSS и начнём стилизацию проектов.
Введение в CSS.
Синтаксис CSS.
CSS-селекторы, псевдоклассы и псевдоэлементы.
Наследование, каскадность и приоритеты в CSS.
Единицы измерения в CSS: абсолютные, относительные, для управления цветом.
CSS-функции и директивы.
Практика стилизации.
Зачем нужна нормализация.
Пространства имён и независимые компоненты.
Стили кодирования для CSS.
Работа с нестандартными шрифтами.
Стилизация состояний интерактивных элементов.
Начинаем стилизацию главной страницы учебного проекта.
Задаём глобальные стили документа, описываем текстовые параметры элементов и состояния интерактивных элементов.
6. Сетки
Ведущий: Александр Першин
Разберёмся с блочной моделью документа. Создадим сетки страниц учебного и личного проектов.
Поток документа и блочная модель документа.
Понятие сетки и потока документа.
Блочные и строчные элементы и их особенности.
Свойства блочной модели: размеры, рамки и отступы.
Тонкости блочной модели: «схлопывание» и «выпадание» внешних отступов, width: 100% и width: auto, свойство box-sizing и другие.
Свойство display. Управление типом элементов.
Создание сеток на флексбоксах. NEW!
Введение во флексбокс.
Флекс-контейнер, флекс-элементы, флекс-оси.
Алгоритм расчёта размеров флекс-элементов.
Выравнивание и распределение флекс-элементов вдоль осей.
Однострочный и многострочный флекс-контейнер, управление флекс-рядами.
Особенности флексов при создании сеток.
Создаём сетку главной страницы учебного проекта.
7. Декоративные элементы
Ведущий: Александр Першин
Познакомимся с приёмами создания декоративных элементов. Завершим вёрстку главных страниц учебного и личного проектов.
Позиционирование.
Относительное позиционирование.
Абсолютное позиционирование: координаты, изменение точки начала координат, относительные координаты и размеры, координаты по умолчанию.
Фиксированное позиционирование.
Управление порядком слоёв.
Приёмы создания элементов интерфейса. NEW!
Блочно-строчные элементы и их особенности.
Борьба с пробелами между блочно-строчными элементами.
Особенности флексов при создании элементов интерфейсов.
Типовой приём «псевдоэлемент с абсолютным позиционированием».
Использование CSS-графики для создания декоративных элементов.
Завершаем вёрстку главной страницы учебного проекта.
8. Оформление контента
Ведущий: Александр Першин
Завершим вёрстку внутренних страниц и подготовим проекты к публикации. Начнём готовиться к защите личного проекта.
Практикуемся в вёрстке элементов содержимого.
Сверстаем текстовую страницу учебного проекта. Подготовим универсальные стили содержания, которые будут хорошо работать при наполнении страницы из CMS.
Сверстаем всплывающие окна с формой входа и интерактивной картой. Разберём приёмы стилизации нестандартных элементов форм.
Подготовим свёрстанный учебный макет к публикации или передаче заказчику.
Разбираем типовые случаи переполнения и способы борьбы с ними.
Готовим проект к защите. Подробный разбор критериев защиты выпускных проектов.
9. Введение в JavaScript
Ведущий: Алексей Симоненко
Познакомимся с JavaScript, узнаем что такое Vanilla JS и оживим некоторые блоки вёрстки.
Язык программирования JavaScript.
Роль программирования в жизни верстальщика.
Что такое DOM и зачем нам объект document.
Зачем нужен объект window.
Типовые случаи использования JavaScript.
Как найти любой элемент на странице.
Как реагировать на события, происходящие на странице.
Как менять CSS-стили у элементов.
Как использовать анимацию на странице.
Оживляем всплывающее окно и вставляем интерактивную карту на главной странице учебного проекта.
10. Лучшие практики NEW!
Ведущий: Вадим Макеев
Узнаем как правильно применять практические знания, как учиться новому и развиваться в профессии.
Совместимая вёрстка.
Прогрессивное улучшение.
Постепенная деградация.
Цена совместимости.
Независимые слои улучшения.
Реальное тестирование.
Многообразие браузеров и устройств.
Инспекторы, эмуляторы, виртуальные машины.
Слабые устройства и медленные сети.
Минификация, сжатие, оптимизация.
Эмпатия, приоритеты, сначала контент.
Корневые технологии.
Веб-стандарты и фантазийные велосипеды.
Ваниль против библиотек и фреймворков.
Мода, хайп, вечное и светлое.
Развитие в профессии.
Как не потерять актуальность знаний.
Обмен знаниями, события, выступления.
Пограничные дисциплины.
11. Финал
-Скриншоты:
HTML Academy | Интенсивный онлайн-курс «Продвинутый HTML и CSS» (2017) PCRec [H.264]
HTML Academy | Интенсивный онлайн-курс «Продвинутый HTML и CSS» (2017) PCRec [H.264] - Автор (режиссер): HTML Academy
Жанр: Веб-дизайн, HTML, CSS
Описание:
Во время курса вы будете работать как профессиональные верстальщики: создадите разметку по методологии БЭМ, будете писать CSS-код на препроцессорах, сделаете адаптивную сетку, поработаете с адаптивной и ретиновой графикой и подготовите автоматизацию сборки проекта для публикации.
Продолжительность: 24:08:11
Качество видео: PCRec
Видео: AVC/H.264, 1152-1920x720-1080, 293-1012 Kbps
Аудио: AAC, 2 ch, 235-256 Kbps, VBR
Mediainfo:
Общее
Полное имя : D:\[HTML Academy] Продвинутый HTML и CSS\08 Погружение в автоматизацию\Скринкасты\Сборка Less на Grunt.mp4
Формат : MPEG-4
Профиль формата : Base Media / Version 2
Идентификатор кодека : mp42 (mp42/mp41/isom/avc1)
Размер файла : 10,3 Мбайт
Продолжительность : 2 м. 41 с.
Режим общего битрейта : Переменный
Общий поток : 533 Кбит/сек
Дата кодирования : UTC 2017-09-25 14:42:50
Дата пометки : UTC 2017-09-25 14:42:50
Видео
Идентификатор : 1
Формат : AVC
Формат/Информация : Advanced Video Codec
Профиль формата : High@L3.2
Параметр CABAC формата : Да
Параметр RefFrames формата : 5 кадров
Идентификатор кодека : avc1
Идентификатор кодека/Информация : Advanced Video Coding
Продолжительность : 2 м. 41 с.
Битрейт : 293 Кбит/сек
Ширина : 1152 пикселя
Высота : 720 пикселей
Соотношение сторон : 16:10
Режим частоты кадров : Постоянный
Частота кадров : 30,000 кадров/сек
Цветовое пространство : YUV
Субдискретизация насыщенности : 4:2:0
Битовая глубина : 8 бит
Тип развёртки : Прогрессивная
Бит/(Пиксели*Кадры) : 0.012
Размер потока : 5,65 Мбайт (55%)
Библиотека кодирования : x264 core 150 r10 df79067
Настройки программы : cabac=1 / ref=5 / deblock=1:0:0 / analyse=0x3:0x113 / me=hex / subme=8 / psy=1 / psy_rd=1.00:0.00 / mixed_ref=1 / me_range=16 / chroma_me=1 / trellis=2 / 8x8dct=1 / cqm=0 / deadzone=21,11 / fast_pskip=1 / chroma_qp_offset=-2 / threads=22 / lookahead_threads=3 / sliced_threads=0 / nr=0 / decimate=1 / interlaced=0 / bluray_compat=0 / stitchable=1 / constrained_intra=0 / bframes=3 / b_pyramid=2 / b_adapt=1 / b_bias=0 / direct=3 / weightb=1 / open_gop=0 / weightp=2 / keyint=infinite / keyint_min=30 / scenecut=40 / intra_refresh=0 / rc_lookahead=50 / rc=crf / mbtree=1 / crf=20.0 / qcomp=0.60 / qpmin=5 / qpmax=69 / qpstep=4 / vbv_maxrate=2750 / vbv_bufsize=7500 / crf_max=0.0 / nal_hrd=none / filler=0 / ip_ratio=1.40 / aq=1:1.00
Дата кодирования : UTC 2017-09-25 14:42:50
Дата пометки : UTC 2017-09-25 14:42:50
Цветовой диапазон : Limited
Основные цвета : BT.709
Характеристики трансфера : BT.709
Коэффициенты матрицы : BT.709
Аудио
Идентификатор : 2
Формат : AAC
Формат/Информация : Advanced Audio Codec
Профиль формата : LC
Идентификатор кодека : 40
Продолжительность : 2 м. 41 с.
Вид битрейта : Переменный
Битрейт : 235 Кбит/сек
Каналы : 2 канала
Расположение каналов : Front: L R
Частота : 48,0 КГц
Частота кадров : 46,875 кадров/сек (1024 SPF)
Метод сжатия : С потерями
Размер потока : 4,54 Мбайт (44%)
Дата кодирования : UTC 2017-09-25 14:42:50
Дата пометки : UTC 2017-09-25 14:42:50
Общее
Полное имя : D:\[HTML Academy] Продвинутый HTML и CSS\01 Вводный\Скринкасты\Как сделать репозиторий из любого проекта.mp4
Формат : MPEG-4
Профиль формата : Base Media / Version 2
Идентификатор кодека : mp42 (mp42/mp41/isom/avc1)
Размер файла : 69,6 Мбайт
Продолжительность : 7 м. 38 с.
Режим общего битрейта : Переменный
Общий поток : 1272 Кбит/сек
Дата кодирования : UTC 2017-09-18 15:18:53
Дата пометки : UTC 2017-09-18 15:18:53
Видео
Идентификатор : 1
Формат : AVC
Формат/Информация : Advanced Video Codec
Профиль формата : High@L4
Параметр CABAC формата : Да
Параметр RefFrames формата : 4 кадра
Идентификатор кодека : avc1
Идентификатор кодека/Информация : Advanced Video Coding
Продолжительность : 7 м. 38 с.
Битрейт : 1012 Кбит/сек
Ширина : 1920 пикселей
Высота : 1080 пикселей
Соотношение сторон : 16:9
Режим частоты кадров : Постоянный
Частота кадров : 25,000 кадров/сек
Цветовое пространство : YUV
Субдискретизация насыщенности : 4:2:0
Битовая глубина : 8 бит
Тип развёртки : Прогрессивная
Бит/(Пиксели*Кадры) : 0.020
Размер потока : 55,4 Мбайт (80%)
Библиотека кодирования : x264 core 150 r10 df79067
Настройки программы : cabac=1 / ref=4 / deblock=1:0:0 / analyse=0x3:0x113 / me=hex / subme=8 / psy=1 / psy_rd=1.00:0.00 / mixed_ref=1 / me_range=16 / chroma_me=1 / trellis=2 / 8x8dct=1 / cqm=0 / deadzone=21,11 / fast_pskip=1 / chroma_qp_offset=-2 / threads=34 / lookahead_threads=5 / sliced_threads=0 / nr=0 / decimate=1 / interlaced=0 / bluray_compat=0 / stitchable=1 / constrained_intra=0 / bframes=3 / b_pyramid=2 / b_adapt=1 / b_bias=0 / direct=3 / weightb=1 / open_gop=0 / weightp=2 / keyint=infinite / keyint_min=25 / scenecut=40 / intra_refresh=0 / rc_lookahead=50 / rc=crf / mbtree=1 / crf=20.0 / qcomp=0.60 / qpmin=5 / qpmax=69 / qpstep=4 / vbv_maxrate=5500 / vbv_bufsize=15000 / crf_max=0.0 / nal_hrd=none / filler=0 / ip_ratio=1.40 / aq=1:1.00
Дата кодирования : UTC 2017-09-18 15:18:53
Дата пометки : UTC 2017-09-18 15:18:53
Цветовой диапазон : Limited
Основные цвета : BT.709
Характеристики трансфера : BT.709
Коэффициенты матрицы : BT.709
Аудио
Идентификатор : 2
Формат : AAC
Формат/Информация : Advanced Audio Codec
Профиль формата : LC
Идентификатор кодека : 40
Продолжительность : 7 м. 38 с.
Вид битрейта : Переменный
Битрейт : 256 Кбит/сек
Каналы : 2 канала
Расположение каналов : Front: L R
Частота : 48,0 КГц
Частота кадров : 46,875 кадров/сек (1024 SPF)
Метод сжатия : С потерями
Размер потока : 14,0 Мбайт (20%)
Дата кодирования : UTC 2017-09-18 15:18:53
Дата пометки : UTC 2017-09-18 15:18:53
Дополнительная информация:
В раздаче имеются архивы! В них содержится макеты.
-Скриншоты:
HTML Academy | Интенсивный онлайн-курс «Базовый JavaScript» (2017) PCRec [H.264]
HTML Academy | Интенсивный онлайн-курс «Базовый JavaScript» (2017) PCRec [H.264] - Автор (режиссер): HTML Academy
Жанр: Программирование, JavaScript
Описание:
Перед вами самый свежий и актуальный курс по базовому программированию на языке Javascript от html-academy. Цель данного курса - залить крепкий фундамент основ JavaScript, чтобы вы смогли понять его азы и в будущем профессионально развиваться в данном направлении.
Продолжительность: 21:42:47
Качество видео: PCRec
Видео: AVC/H.264, 1280-1920x720-1080, ~208-1291 Kbps
Аудио: AAC, 2 ch, 235-255 Kbps
Mediainfo:
Общее
Полное имя : \[HTML Academy] Интенсивный онлайн-курс «Базовый JavaScript»\05 Модули\05 Модули.mp4
Формат : MPEG-4
Профиль формата : Base Media / Version 2
Идентификатор кодека : mp42 (mp42/mp41/isom/avc1)
Размер файла : 641 Мбайт
Продолжительность : 2 ч. 19 м.
Режим общего битрейта : Переменный
Общий поток : 642 Кбит/сек
Дата кодирования : UTC 2017-12-01 20:48:18
Дата пометки : UTC 2017-12-01 20:48:18
Видео
Идентификатор : 1
Формат : AVC
Формат/Информация : Advanced Video Codec
Профиль формата : High@L3.2
Параметр CABAC формата : Да
Параметр RefFrames формата : 5 кадров
Идентификатор кодека : avc1
Идентификатор кодека/Информация : Advanced Video Coding
Продолжительность : 2 ч. 19 м.
Битрейт : 402 Кбит/сек
Ширина : 1280 пикселей
Высота : 720 пикселей
Соотношение сторон : 16:9
Режим частоты кадров : Постоянный
Частота кадров : 30,000 кадров/сек
Цветовое пространство : YUV
Субдискретизация насыщенности : 4:2:0
Битовая глубина : 8 бит
Тип развёртки : Прогрессивная
Бит/(Пиксели*Кадры) : 0.015
Размер потока : 401 Мбайт (63%)
Библиотека кодирования : x264 core 152 r10 ba24899
Настройки программы : cabac=1 / ref=5 / deblock=1:0:0 / analyse=0x3:0x113 / me=hex / subme=8 / psy=1 / psy_rd=1.00:0.00 / mixed_ref=1 / me_range=16 / chroma_me=1 / trellis=2 / 8x8dct=1 / cqm=0 / deadzone=21,11 / fast_pskip=1 / chroma_qp_offset=-2 / threads=22 / lookahead_threads=3 / sliced_threads=0 / nr=0 / decimate=1 / interlaced=0 / bluray_compat=0 / stitchable=1 / constrained_intra=0 / bframes=3 / b_pyramid=2 / b_adapt=2 / b_bias=0 / direct=3 / weightb=1 / open_gop=0 / weightp=2 / keyint=infinite / keyint_min=30 / scenecut=40 / intra_refresh=0 / rc_lookahead=50 / rc=crf / mbtree=1 / crf=20.0 / qcomp=0.60 / qpmin=5 / qpmax=69 / qpstep=4 / vbv_maxrate=2750 / vbv_bufsize=7500 / crf_max=0.0 / nal_hrd=none / filler=0 / ip_ratio=1.40 / aq=1:1.00
Дата кодирования : UTC 2017-12-01 20:48:18
Дата пометки : UTC 2017-12-01 20:48:18
Цветовой диапазон : Limited
Основные цвета : BT.709
Характеристики трансфера : BT.709
Коэффициенты матрицы : BT.709
Аудио
Идентификатор : 2
Формат : AAC
Формат/Информация : Advanced Audio Codec
Профиль формата : LC
Идентификатор кодека : 40
Продолжительность : 2 ч. 19 м.
Вид битрейта : Переменный
Битрейт : 235 Кбит/сек
Каналы : 2 канала
Расположение каналов : Front: L R
Частота : 48,0 КГц
Частота кадров : 46,875 кадров/сек (1024 SPF)
Метод сжатия : С потерями
Размер потока : 235 Мбайт (37%)
Дата кодирования : UTC 2017-12-01 20:48:18
Дата пометки : UTC 2017-12-01 20:48:18
Общее
Полное имя : \[HTML Academy] Интенсивный онлайн-курс «Базовый JavaScript»\00 Дополнительно\1.Как установить Git и работать в консоли.mp4
Формат : MPEG-4
Профиль формата : Base Media / Version 2
Идентификатор кодека : mp42 (mp42/mp41/isom/avc1)
Размер файла : 63,6 Мбайт
Продолжительность : 9 м. 43 с.
Режим общего битрейта : Переменный
Общий поток : 914 Кбит/сек
Дата кодирования : UTC 2017-09-18 15:18:09
Дата пометки : UTC 2017-09-18 15:18:09
Видео
Идентификатор : 1
Формат : AVC
Формат/Информация : Advanced Video Codec
Профиль формата : High@L4
Параметр CABAC формата : Да
Параметр RefFrames формата : 4 кадра
Идентификатор кодека : avc1
Идентификатор кодека/Информация : Advanced Video Coding
Продолжительность : 9 м. 43 с.
Битрейт : 653 Кбит/сек
Ширина : 1920 пикселей
Высота : 1080 пикселей
Соотношение сторон : 16:9
Режим частоты кадров : Постоянный
Частота кадров : 25,000 кадров/сек
Цветовое пространство : YUV
Субдискретизация насыщенности : 4:2:0
Битовая глубина : 8 бит
Тип развёртки : Прогрессивная
Бит/(Пиксели*Кадры) : 0.013
Размер потока : 45,5 Мбайт (72%)
Библиотека кодирования : x264 core 150 r10 df79067
Настройки программы : cabac=1 / ref=4 / deblock=1:0:0 / analyse=0x3:0x113 / me=hex / subme=8 / psy=1 / psy_rd=1.00:0.00 / mixed_ref=1 / me_range=16 / chroma_me=1 / trellis=2 / 8x8dct=1 / cqm=0 / deadzone=21,11 / fast_pskip=1 / chroma_qp_offset=-2 / threads=34 / lookahead_threads=5 / sliced_threads=0 / nr=0 / decimate=1 / interlaced=0 / bluray_compat=0 / stitchable=1 / constrained_intra=0 / bframes=3 / b_pyramid=2 / b_adapt=1 / b_bias=0 / direct=3 / weightb=1 / open_gop=0 / weightp=2 / keyint=infinite / keyint_min=25 / scenecut=40 / intra_refresh=0 / rc_lookahead=50 / rc=crf / mbtree=1 / crf=20.0 / qcomp=0.60 / qpmin=5 / qpmax=69 / qpstep=4 / vbv_maxrate=5500 / vbv_bufsize=15000 / crf_max=0.0 / nal_hrd=none / filler=0 / ip_ratio=1.40 / aq=1:1.00
Дата кодирования : UTC 2017-09-18 15:18:09
Дата пометки : UTC 2017-09-18 15:18:09
Цветовой диапазон : Limited
Основные цвета : BT.709
Характеристики трансфера : BT.709
Коэффициенты матрицы : BT.709
Аудио
Идентификатор : 2
Формат : AAC
Формат/Информация : Advanced Audio Codec
Профиль формата : LC
Идентификатор кодека : 40
Продолжительность : 9 м. 43 с.
Вид битрейта : Переменный
Битрейт : 256 Кбит/сек
Каналы : 2 канала
Расположение каналов : Front: L R
Частота : 48,0 КГц
Частота кадров : 46,875 кадров/сек (1024 SPF)
Метод сжатия : С потерями
Размер потока : 17,8 Мбайт (28%)
Дата кодирования : UTC 2017-09-18 15:18:09
Дата пометки : UTC 2017-09-18 15:18:09
Программа курса:
Раздел 1 ЗнакомствоРассмотрим схему работы на интенсиве, какие инструменты понадобятся. Начнём разбирать основы JavaScript.
Организационные вопросы.
  • Обзор проектов.
  • Схема работы на интенсиве.
Введение в программирование.
  • Программирование и алгоритмы.
  • Данные.
  • Линейные алгоритмы.
  • Ветвящиеся алгоритмы.
Основы JavaScript.
  • Типы данных.
  • Операторы.
  • Приведение типов.
  • Переменные.
  • Функции.
  • Условные операторы.
Раздел 2 Встроенные APIРазбираемся со сложными типами данных: массивы и объекты, циклические алгоритмы, а также посмотрим на встроенные в JavaScript объекты для работы с окном браузера, открытой страницей, DOM-элементами и графикой.
Отладка кода.
Сложные типы данных.
  • Циклические алгоритмы.
  • Массивы.
    Объекты.
Встроенные объекты.
  • document, элемент для работы c DOM-деревом.
  • canvas, элемент для работы c программируемой графикой.
Раздел 3 DOMПробуем создавать, удалять, перемещать и управлять DOM-элементами. Опишем данные, которые будем отображать на странице, а затем, с помощью шаблонов отрисуем их.
Управление DOM-деревом.
  • DOM-дерево: структура.
  • Поиск элементов на странице.
  • Управление атрибутами DOM-элементов.
  • Перемещение элементов в DOM-дереве.
Подходы к созданию DOM-элементов.
  • Управление разметкой: insertAdjacentHTML, innerHTML, textContent.
  • Создание DOM-объектов.
Шаблонизация.
  • Строковая шаблонизация.
  • Специальный тег <template>.
Раздел 4 Обработка событийРассмотрим динамическое взаимодействие с пользователем: как сделать так, чтобы страница начала реагировать на ввод текста в формы, нажатие на определённые элементы, прокрутки и прочее. Заодно попробуем сделать страницу более доступной: как добавить правильную работу с клавиатурой и зачем это нужно.
Асинхронность, Event Loop.
События.
  • Обработчики событий.
  • Объект Event, управление событиями.
  • Фазы событий и делегирование.
  • Клавиатурные события и доступность.
Валидация форм.Раздел 5 МодулиОбсудим принцип DRY (не повторяйся) и как им пользоваться для того, чтобы писать меньше кода, но при этом делать больше.
Перетаскивание.
  • Изменение координат элементов на странице.
  • Drag and Drop.
Области видимости функций.
  • Области видимости.
  • Глобальная область видимости.
  • Замыкания.
  • Потеря окружения.
Модульность.
  • Повторное использование кода, принцип DRY.
  • Функции как модули.
  • Понятие модуля, виды модулей.
  • Инкапсуляция.
  • Немедленно выполняющиеся функции (IIFE).
Раздел 6 Работа с сетьюВзглянем на протокол HTTP и инструменты, которые позволяют делать запросы из браузера. Рассмотрим, как меняется взаимодействие пользователя с сайтом при начале работы с сетью, что может пойти не так и что с этим делать.
Исключения.
Оператор множественного выбора switch.
Протокол HTTP и форматы данных.
  • XML.
  • JSON.
  • JSONP.
  • Объект XMLHttpRequest.
  • Обработка ошибок в запросах.
Раздел 7 Структуры данныхРазберём непопулярную среди фронтенд-разработчиков тему структур данных. Что такое данные, почему у них есть структура, и на доступных примерах посмотрим, как использование структур данных может облегчить разработчику жизнь.
Контекст функций.
  • Ключевое слово this.
  • Изменение контекста.
Продвинутая работа с массивами.
  • Управление массивами: вставка и удаление элементов.
  • Выборки из массива: slice и filter.
  • Сортировка.
  • Итераторы по массивам.
  • Свёртка массивов: some, every и reduce.
Оптимизации производительности.
  • Оценка эффективности алгоритмов.
  • Пропуск кадров — тротлинг (throttle).
  • Устранение дребезга — дебаунс (debounce).
Раздел 8 Компонентный подходРазберём продвинутую работу с объектами, узнаем как можно удобным способом создавать большое количество одинаковых объектов и зачем это нужно.
Типизированные объекты.
  • Функции-конструкторы.
  • Прототипы.
  • Цепочки прототипов, наследование.
  • Полиморфизм, переопределение методов.
Рефакторинг.Раздел 9 Узкие места в JavaScriptПосмотрим на особенности JavaScript, которые лучше не забывать учитывать при разработке. Заодно взглянем на дополнительные полезные техники, не разобранные на интенсиве.
  • Необязательные точки с запятой.
  • Подвешивание (hoisting) переменных и функций.
  • Продвинутые техники программирования.
  • Регулярные выражения.
  • Минификация кода.
Раздел 10 ФиналПодводим итоги интенсива.
История обновлений:
29.12.2017 - Торрент файл обновлен.
- Добавлено видео и презентация 10 раздела интенсива;
"Раздача ведётся путём добавления новых файлов:"
Раздача ведётся путём добавления новых файлов; при каждом добавлении создаётся новый торрент. Чтобы начать докачку новых файлов, пользователям необходимо сделать следующее:
(1) остановить скачивание,
(2) удалить старый торрент у себя из клиента (имеющиеся файлы удалять не надо),
(3) скачать новый торрент и запустить его у себя в клиенте вместо старого, при этом указать клиенту путь в старую папку, куда и должно происходить скачивание новых файлов.
Ваш клиент при этом должен произвести хеширование (проверку) старой папки (если не производит сам - помогите ему сделать это), и будет докачивать только те файлы, которых у вас ещё нет. Старые файлы при этом не удаляются, а продолжают раздаваться!
Eсли вы уже удалили старые файлы, то предотвратить повторную закачку старых файлов можно, отжав галочку в соответствующих местах при запуске нового торрента. По возможности, желательно не удалять старые файлы как можно дольше, чтобы релизёр не только продолжал раздавать старые файлы, а смог сконцентрироваться на новых.
-Скриншоты:
HTML Academy | Интенсивный онлайн-курс «Продвинутый JavaScript» (2017) PCRec [H.264]
HTML Academy | Интенсивный онлайн-курс «Продвинутый JavaScript» (2017) PCRec [H.264/720p-LQ]- Автор (режиссер): HTML Academy
Жанр: Javascript, Программирование
Описание:
Курс предназначен для тех, кто прошёл «Базовый JavaScript», или для разработчиков, желающих поднять свои навыки.
После прохождения курса вы будете уверенно готовить современные веб-приложения.
В рамках интенсива будет проходить работа над двумя проектами:
- Учебный проект;
- Личный проект.
Продолжительность: 20:23:32
Качество видео: PCRec
Видео: AVC/H.264, 1280x720, ~90-160 Kbps
Аудио: AAC, 2 ch, 127 Kbps
Mediainfo:
General
Complete name : .\[HTML Academy] Продвинутый Javascript (2017)\2\2 Модули.MP4
Format : MPEG-4
Format profile : Base Media
Codec ID : isom (isom/iso2/avc1/mp41)
File size : 240 MiB
Duration : 2 h 10 min
Overall bit rate : 258 kb/s
Writing application : Lavf57.56.100
Video
ID : 1
Format : AVC
Format/Info : Advanced Video Codec
Format profile : High@L3.1
Format settings, CABAC : Yes
Format settings, ReFrames : 4 frames
Codec ID : avc1
Codec ID/Info : Advanced Video Coding
Duration : 2 h 10 min
Bit rate : 122 kb/s
Width : 1 280 pixels
Height : 720 pixels
Display aspect ratio : 16:9
Frame rate mode : Variable
Frame rate : 30.000 FPS
Minimum frame rate : 29.653 FPS
Maximum frame rate : 30.000 FPS
Color space : YUV
Chroma subsampling : 4:2:0
Bit depth : 8 bits
Scan type : Progressive
Bits/(Pixel*Frame) : 0.004
Stream size : 114 MiB (47%)
Writing library : x264 core 148 r2744 b97ae06
Encoding settings : cabac=1 / ref=3 / deblock=1:0:0 / analyse=0x3:0x113 / me=hex / subme=7 / psy=1 / psy_rd=1.00:0.00 / mixed_ref=1 / me_range=16 / chroma_me=1 / trellis=1 / 8x8dct=1 / cqm=0 / deadzone=21,11 / fast_pskip=1 / chroma_qp_offset=-2 / threads=6 / lookahead_threads=1 / sliced_threads=0 / nr=0 / decimate=1 / interlaced=0 / bluray_compat=0 / constrained_intra=0 / bframes=3 / b_pyramid=2 / b_adapt=1 / b_bias=0 / direct=1 / weightb=1 / open_gop=0 / weightp=2 / keyint=250 / keyint_min=25 / scenecut=40 / intra_refresh=0 / rc_lookahead=40 / rc=crf / mbtree=1 / crf=23.0 / qcomp=0.60 / qpmin=0 / qpmax=69 / qpstep=4 / ip_ratio=1.40 / aq=1:1.00
Audio
ID : 2
Format : AAC
Format/Info : Advanced Audio Codec
Format profile : LC
Codec ID : 40
Duration : 2 h 10 min
Bit rate mode : Constant
Bit rate : 127 kb/s
Channel(s) : 2 channels
Channel positions : Front: L R
Sampling rate : 48.0 kHz
Frame rate : 46.875 FPS (1024 spf)
Compression mode : Lossy
Stream size : 119 MiB (49%)
Default : Yes
Alternate group : 1
"Программа курса"
"Дополнительная информация:"
Суперквест (учебный проект) - общий проект для всех. Над ним вы будете работать вместе с преподавателем на вебинарах. Это классический текстовый квест по мотивам одной популярной игры, в котором все действия с персонажем игроку приходится совершать печатая команды с клавиатуры.
Угадай Мелодию / Пиксельхантер (личный проект). После каждого вебинара вы будете выполнять задания над одним из двух личных проектов на выбор. Над личными проектами вы будете работать самостоятельно.
Угадай Мелодию - это онлайн-игра, в которой игроку предлагается две игровых механики: за отведённое время правильно угадать всех исполнителей предложенных песен или выбрать песни определённого жанра из нескольких вариантов. После прохождения игры можно сравнить свои результаты с результатами других игроков.
Пиксельхантер - это онлайн-игра, в которой игроку показывается несколько изображений и для каждого из них нужно за отведённое время ответить что это: фотореалистичная картина или фотография. По ходу игры можно ошибиться три раза. После прохождения игры можно посмотреть свои результаты и сравнить их с результатами других игроков.
-Скриншоты:
HTML Academy | Профессиональный JavaScript, уровень 1 (2018) PCRec [H.264/1080p-LQ]
HTML Academy | Профессиональный JavaScript, уровень 1 (2018) PCRec [H.264/1080p-LQ] - Автор (режиссер): HTML Academy
Жанр: Программирование, JavaScript
Описание:
Перед вами самый свежий и актуальный курс по базовому программированию на языке Javascript от html-academy. Цель данного курса - залить крепкий фундамент основ JavaScript, чтобы вы смогли понять его азы и в будущем профессионально развиваться в данном направлении.
Продолжительность: 22:48:22
Качество видео: PCRec
Видео: AVC/H.264, 1920x1080, ~536-1469 Kbps
Аудио: AAC, 2 ch, 136-256 Kbps
"Программа курса:"
Раздел 1 Знакомство
Рассмотрим схему работы на интенсиве, какие инструменты понадобятся. Начнём разбирать основы JavaScript.
Организационные вопросы.
Обзор проектов.
Схема работы на интенсиве.
Введение в программирование.
Программирование и алгоритмы.
Данные.
Линейные алгоритмы.
Ветвящиеся алгоритмы.
Основы JavaScript.
Типы данных.
Операторы.
Приведение типов.
Переменные.
Функции.
Условные операторы.-Раздел 2 Встроенные API
Разбираемся со сложными типами данных: массивы и объекты, циклические алгоритмы, а также посмотрим на встроенные в JavaScript объекты для работы с окном браузера, открытой страницей, DOM-элементами и графикой.
Отладка кода.
Сложные типы данных.
Циклические алгоритмы.
Массивы.
Объекты.
Встроенные объекты.
document, элемент для работы c DOM-деревом.
canvas, элемент для работы c программируемой графикой.-Раздел 3 DOM
Пробуем создавать, удалять, перемещать и управлять DOM-элементами. Опишем данные, которые будем отображать на странице, а затем, с помощью шаблонов отрисуем их.
Управление DOM-деревом.
DOM-дерево: структура.
Поиск элементов на странице.
Управление атрибутами DOM-элементов.
Перемещение элементов в DOM-дереве.
Подходы к созданию DOM-элементов.
Управление разметкой: insertAdjacentHTML, innerHTML, textContent.
Создание DOM-объектов.
Шаблонизация.
Строковая шаблонизация.
Специальный тег <template>.-Раздел 4 Обработка событий
Рассмотрим динамическое взаимодействие с пользователем: как сделать так, чтобы страница начала реагировать на ввод текста в формы, нажатие на определённые элементы, прокрутки и прочее. Заодно попробуем сделать страницу более доступной: как добавить правильную работу с клавиатурой и зачем это нужно.
Асинхронность, Event Loop.
События.
Обработчики событий.
Объект Event, управление событиями.
Фазы событий и делегирование.
Клавиатурные события и доступность.
Валидация форм.-Раздел 5 Модули
Обсудим принцип DRY (не повторяйся) и как им пользоваться для того, чтобы писать меньше кода, но при этом делать больше.
Перетаскивание.
Изменение координат элементов на странице.
Drag and Drop.
Области видимости функций.
Области видимости.
Глобальная область видимости.
Замыкания.
Потеря окружения.
Модульность.
Повторное использование кода, принцип DRY.
Функции как модули.
Понятие модуля, виды модулей.
Инкапсуляция.
Немедленно выполняющиеся функции (IIFE).-Раздел 6 Работа с сетью
Взглянем на протокол HTTP и инструменты, которые позволяют делать запросы из браузера. Рассмотрим, как меняется взаимодействие пользователя с сайтом при начале работы с сетью, что может пойти не так и что с этим делать.
Исключения.
Оператор множественного выбора switch.
Протокол HTTP и форматы данных.
XML.
JSON.
JSONP.
Объект XMLHttpRequest.
Обработка ошибок в запросах.-Раздел 7 Структуры данных
Разберём непопулярную среди фронтенд-разработчиков тему структур данных. Что такое данные, почему у них есть структура, и на доступных примерах посмотрим, как использование структур данных может облегчить разработчику жизнь.
Контекст функций.
Ключевое слово this.
Изменение контекста.
Продвинутая работа с массивами.
Управление массивами: вставка и удаление элементов.
Выборки из массива: slice и filter.
Сортировка.
Итераторы по массивам.
Свёртка массивов: some, every и reduce.
Оптимизации производительности.
Оценка эффективности алгоритмов.
Пропуск кадров — тротлинг (throttle).
Устранение дребезга — дебаунс (debounce).-Раздел 8 Компонентный подход
Разберём продвинутую работу с объектами, узнаем как можно удобным способом создавать большое количество одинаковых объектов и зачем это нужно.
Типизированные объекты.
Функции-конструкторы.
Прототипы.
Цепочки прототипов, наследование.
Полиморфизм, переопределение методов.
Рефакторинг.-Раздел 9 Узкие места в JavaScript
Посмотрим на особенности JavaScript, которые лучше не забывать учитывать при разработке. Заодно взглянем на дополнительные полезные техники, не разобранные на интенсиве.
Необязательные точки с запятой.
Подвешивание (hoisting) переменных и функций.
Продвинутые техники программирования.
Регулярные выражения.
Минификация кода.-Раздел 10 Финал
Подводим итоги интенсива. Что делать дальше.
-Скриншоты:
HTML Academy | Профессиональный Node.js (2018) PCRec [H.264/1080p-LQ]
HTML Academy | Профессиональный Node.js (2018) PCRec [H.264/1080p-LQ] - Автор (режиссер): HTML Academy
Жанр: Программирование, JavaScript, Node.js
Описание:
Курс предназначен для тех, кто прошёл «Профессиональный JavaScript, уровень 2», или для разработчиков, желающих научиться работать с Node.js.
Продолжительность: 19:52:45
Качество видео: PCRec
Видео: AVC/H.264, 1920x1080, ~644-1510 Kbps
Аудио: AAC, 2 ch, 255-256 Kbps
Mediainfo:
Общее
Полное имя : .\01. Привет, мир!.mp4
Формат : MPEG-4
Профиль формата : Base Media / Version 2
Идентификатор кодека : mp42 (mp42/mp41/isom/avc1)
Размер файла : 911 Мбайт
Продолжительность : 2 ч. 17 м.
Режим общего битрейта : Переменный
Общий поток : 925 Кбит/сек
Дата кодирования : UTC 2018-02-05 20:24:22
Дата пометки : UTC 2018-02-05 20:24:22
Видео
Идентификатор : 1
Формат : AVC
Формат/Информация : Advanced Video Codec
Профиль формата : High@L4
Настройки формата : CABAC / 4 Ref Frames
Параметр CABAC формата : Да
Параметр RefFrames формата : 4 кадра
Идентификатор кодека : avc1
Идентификатор кодека/Информация : Advanced Video Coding
Продолжительность : 2 ч. 17 м.
Битрейт : 665 Кбит/сек
Ширина : 1920 пикселей
Высота : 1080 пикселей
Соотношение сторон : 16:9
Режим частоты кадров : Постоянный
Частота кадров : 24,000 кадра/сек
Цветовое пространство : YUV
Субдискретизация насыщенности : 4:2:0
Битовая глубина : 8 бит
Тип развёртки : Прогрессивная
Бит/(Пиксели*Кадры) : 0.013
Размер потока : 655 Мбайт (72%)
Библиотека кодирования : x264 core 155 r10 b00bcaf
Настройки программы : cabac=1 / ref=4 / deblock=1:0:0 / analyse=0x3:0x113 / me=hex / subme=8 / psy=1 / psy_rd=1.00:0.00 / mixed_ref=1 / me_range=16 / chroma_me=1 / trellis=2 / 8x8dct=1 / cqm=0 / deadzone=21,11 / fast_pskip=1 / chroma_qp_offset=-2 / threads=34 / lookahead_threads=5 / sliced_threads=0 / nr=0 / decimate=1 / interlaced=0 / bluray_compat=0 / stitchable=1 / constrained_intra=0 / bframes=3 / b_pyramid=2 / b_adapt=2 / b_bias=0 / direct=3 / weightb=1 / open_gop=0 / weightp=2 / keyint=infinite / keyint_min=24 / scenecut=40 / intra_refresh=0 / rc_lookahead=50 / rc=crf / mbtree=1 / crf=20.0 / qcomp=0.60 / qpmin=5 / qpmax=69 / qpstep=4 / vbv_maxrate=5500 / vbv_bufsize=15000 / crf_max=0.0 / nal_hrd=none / filler=0 / ip_ratio=1.40 / aq=1:1.00
Дата кодирования : UTC 2018-02-05 20:24:22
Дата пометки : UTC 2018-02-05 20:24:22
Цветовой диапазон : Limited
Основные цвета : BT.709
Характеристики трансфера : BT.709
Коэффициенты матрицы : BT.709
Аудио
Идентификатор : 2
Формат : AAC
Формат/Информация : Advanced Audio Codec
Профиль формата : LC
Идентификатор кодека : mp4a-40-2
Продолжительность : 2 ч. 17 м.
Вид битрейта : Переменный
Битрейт : 256 Кбит/сек
Каналы : 2 канала
Расположение каналов : Front: L R
Частота : 48,0 КГц
Частота кадров : 46,875 кадров/сек (1024 SPF)
Метод сжатия : С потерями
Размер потока : 252 Мбайт (28%)
Дата кодирования : UTC 2018-02-05 20:24:22
Дата пометки : UTC 2018-02-05 20:24:22
"Дополнительная информация:"
В раздаче имеются архивы! В них содержится исходники.
"Программа курса:"
Раздел 1 Привет, мир!
Что такое Node.js?
REPL — что это и как работает.
Как запустить программу.
Глобальные переменные.
Переменные окружения.
Раздел 2 Модули, пакеты и дебаггер
Что такое модуль и как он устроен.
Особенности загрузки модулей.
Очерёдность.
Пакетный менеджер npm: как работает, как устроен.
Дебаггер.
Раздел 3 Файловая система
Что такое Event Loop.
Особенности — асинхронные и синхронные запросы.
Файловая система: особенности, что можно делать, что нельзя.
Встроенные пакеты для работы с файловой системой.
Buffer или как прочесть очень большой файл.
Как создать, обновить, прочитать и удалить файл.
Как прочесть все файлы на диске.
Тестирование в Node.js.
Раздел 4 HTTP и асинхронные функции
Синхронное выполнение, против асинхронного.
Подходы к асинхронному программированию — Async и Promise.
Паттерн Event Emitter.
Что такое Stream и как им управлять.
HTTP — тёмная сторона.
Работа с сервером.
Запрос-ответ. Чтение-запись.
Раздел 5 REST и API
Как придумать API.
Что такое REST, как писать REST-приложения.
Тестирование REST-приложения.
Фреймворк Express.
Загрузка и обработка данных.
Формат файла — MIME type.
Раздел 6 Базы данных
Базы данных: подходы, различия, особенности.
Подходы SQL и NoSQL. Как выбрать.
База данных MongoDB.
Работа с документами.
Как пользоваться GridFS.
Раздел 7 Деплой и запуск приложений
Продакшен.
Чем отличается режим продакшена от других.
Логирование.
Как найти проблему.
Снятие параметров, решение проблем.
Раздел 8 Микросервисы
Stateless- и stateful-приложения.
Кластеризация.
Где хранить состояния.
Как синхронизироваться.
Раздел 9 Типизированный JavaScript
TypeScript — типизированный JavaScript.
Работа, компиляция.
Теория типов.
Рефакторинг.
Раздел 10 Финал
Подводим итоги интенсива. Что делать дальше.
Защита проекта
Интенсив завершается защитой проекта, где ваш проект проверяется в соответствии с профессиональными критериями качества.
-Скриншоты:
ЛС не терроризировать, все что есть у меня уже залил сюда, это дело добровольная.... некому ничего не должен и мне за это не платят!! (Уважайте труды!!)


Последний раз редактировалось: Adiba (2018-08-17 20:44), всего редактировалось 22 раз(а)
[Профиль] [ЛС]

торрентс

Пол: Мужской

Стаж: 4 года 8 месяцев

Сообщений: 163

Создавать темы 18-Апр-2016 00:10 (спустя 13 дней)

[Цитировать]

скриншот нехватает
[Профиль] [ЛС]

Adiba ®

Пол: Женский

Стаж: 8 лет 5 месяцев

Сообщений: 1993

Откуда: СССР

Создавать темы 18-Апр-2016 09:33 (спустя 9 часов)

[Цитировать]

скриншот нехватает
Файк не раздаю, скрин нуно для файка О) 12 человек скачал некто претензии не предъявлял
[Профиль] [ЛС]

magviko

Пол: Мужской

Стаж: 4 года 3 месяца

Сообщений: 48

Создавать темы 09-Май-2016 03:38 (спустя 20 дней)

[Цитировать]

Adiba
Альё дайте скачать,немножко осталось!!!!
[Профиль] [ЛС]

Ростислав

Пол: Не указан

Стаж: 3 месяца 4 дня

Сообщений: 1

Создавать темы 14-Июл-2018 23:51 (спустя 2 года 2 месяца)

[Цитировать]

2252793Adiba
Альё дайте скачать,немножко осталось!!!!
+1 ! дайте скачать ! буду раздавать - только дайте !
[Профиль] [ЛС]

Adiba ®

Пол: Женский

Стаж: 8 лет 5 месяцев

Сообщений: 1993

Откуда: СССР

Создавать темы 16-Июл-2018 11:58 (спустя 1 день 12 часов)

[Цитировать]

нету в наличие, собираюсь обновить на днях..... все курсы от HTML Academy
[Профиль] [ЛС]

Adiba ®

Пол: Женский

Стаж: 8 лет 5 месяцев

Сообщений: 1993

Откуда: СССР

Создавать темы 17-Июл-2018 01:41 (спустя 13 часов)

[Цитировать]

Готова, приятного обучения ))
[Профиль] [ЛС]

Mithas204

Пол: Мужской

Стаж: 8 лет 10 месяцев

Сообщений: 13762

Откуда: Душанбе, Курган-Тюбе

Создавать темы 17-Июл-2018 06:37 (спустя 4 часа)

[Цитировать]

Подписка
[Профиль] [ЛС]

alex-co

Пол: Не указан

Стаж: 1 год 2 месяца

Сообщений: 7

Создавать темы 17-Июл-2018 09:25 (спустя 2 часа 47 минут)

[Цитировать]

Ребята! Встаньте на раздачу. Буду неделю сам раздавать
[Профиль] [ЛС]

Mithas204

Пол: Мужской

Стаж: 8 лет 10 месяцев

Сообщений: 13762

Откуда: Душанбе, Курган-Тюбе

Создавать темы 17-Июл-2018 09:32 (спустя 6 минут)

[Цитировать]

2364786Ребята! Встаньте на раздачу. Буду неделю сам раздавать
Терпение. Раздачу только зарегали.
[Профиль] [ЛС]

Adiba ®

Пол: Женский

Стаж: 8 лет 5 месяцев

Сообщений: 1993

Откуда: СССР

Создавать темы 17-Июл-2018 10:34 (спустя 1 час 2 минуты)

[Цитировать]

2364788
2364786Ребята! Встаньте на раздачу. Буду неделю сам раздавать
Терпение. Раздачу только зарегали.
Когда наше научится говорить спасибо
:\'(
[Профиль] [ЛС]

alex-co

Пол: Не указан

Стаж: 1 год 2 месяца

Сообщений: 7

Создавать темы 30-Июл-2018 15:09 (спустя 13 дней)

[Цитировать]

2364793
2364788
2364786Ребята! Встаньте на раздачу. Буду неделю сам раздавать
Терпение. Раздачу только зарегали.
Когда наше научится говорить спасибо
:\'(
Извини, я не знал всю процедуру ожидания ( Спасибо!! за файлы. Я раздаю. Не парься
[Профиль] [ЛС]

fRont

Пол: Не указан

Стаж: 2 месяца 12 дней

Сообщений: 1

Создавать темы 07-Авг-2018 15:47 (спустя 8 дней)

[Цитировать]

Ребята! Встаньте на раздачу, пожалуйста!
[Профиль] [ЛС]

savicus

Пол: Мужской

Стаж: 5 месяцев 9 дней

Сообщений: 1

Создавать темы 08-Авг-2018 18:21 (спустя 1 день 2 часа)

[Цитировать]

Доброго дня суток, действительно, дайте скачать, пару недель точно буду отдавать... пока не изучу... ;)
[Профиль] [ЛС]

oleggkazakov123

Пол: Не указан

Стаж: 2 месяца 11 дней

Сообщений: 3

Создавать темы 09-Авг-2018 18:33 (спустя 1 день)

[Цитировать]

кто то может раздать уже три дня на 55 процентах висит
[Профиль] [ЛС]

Mithas204

Пол: Мужской

Стаж: 8 лет 10 месяцев

Сообщений: 13762

Откуда: Душанбе, Курган-Тюбе

Создавать темы 09-Авг-2018 19:11 (спустя 37 минут)

[Цитировать]

2365597кто то может раздать уже три дня на 55 процентах висит
внешка слабая. Постоянно на раздаче.
[Профиль] [ЛС]

oleggkazakov123

Пол: Не указан

Стаж: 2 месяца 11 дней

Сообщений: 3

Создавать темы 09-Авг-2018 19:45 (спустя 34 минуты)

[Цитировать]

2365598
2365597кто то может раздать уже три дня на 55 процентах висит
внешка слабая. Постоянно на раздаче.
остаётся только ждать ?
[Профиль] [ЛС]

oleggkazakov123

Пол: Не указан

Стаж: 2 месяца 11 дней

Сообщений: 3

Создавать темы 09-Авг-2018 19:59 (спустя 13 минут)

[Цитировать]

как то странно на сайте сказано что я что то поучаю а на деле ноль
[Профиль] [ЛС]

brodude

Пол: Не указан

Стаж: 2 месяца 22 дня

Сообщений: 2

Создавать темы 10-Авг-2018 18:03 (спустя 22 часа)

[Цитировать]

Дайте скачать плизззз........
[Профиль] [ЛС]

Zhanna

Пол: Не указан

Стаж: 2 месяца 6 дней

Сообщений: 3

Создавать темы 13-Авг-2018 14:12 (спустя 2 дня 20 часов)

[Цитировать]

Надеюсь смогу скачать, хочу сказать ОГРОМНОЕ СПАСИБО автору! =)
[Профиль] [ЛС]
Показать сообщения:    
Ответить на тему

Текущее время: 19-Окт 15:31

Часовой пояс: UTC + 3



Вы не можете начинать темы
Вы не можете отвечать на сообщения
Вы не можете редактировать свои сообщения
Вы не можете удалять свои сообщения
Вы не можете голосовать в опросах
Вы не можете прикреплять файлы к сообщениям
Вы не можете скачивать файлы