Rihanna ft. Drake - Work + Nicki Minaj feat Beyonce - Feeling Myself [2016 г., R&B, Pop, WEB-DL 1080p]

Ответить на тему
 
Автор Сообщение

russtam1979 ®

Пол: Мужской

Стаж: 3 года 2 месяца

Сообщений: 1221

Создавать темы 23-Мар-2016 07:54

[Цитировать]


Rihanna ft. Drake - Work + Nicki Minaj feat Beyonce - Feeling Myself
Год выпуска: 2016
Страна: USA
Жанр: R&B, Pop
Продолжительность: 00:07:34 / 00:03:48

Work - третья совместная музыкальная работа двух знаменитостей. На песню были сняты два разных клипа. Представленная в этой раздаче версия - дело рук шведского клипмейкера, с которым Рианна уже сотрудничала ранее. Версия Тима Эрема по сравнению с первой куда скромнее. Рианна выглядит более гламурной. В комнате с цветной подсветкой, где на диванчике раскинулся Дрейк, девушка танцует, соблазнительно двигая бедрами.--Предлагаю вашему вниманию совместный видеоклип от Nicki Minaj feat Beyonce, на композицию Feeling Myself.--Качество: WEB-DL 1080p
Формат: MPEG-4 AVC
Видео: 1920X1080, 3854 кб/с
Аудио: AAC, 235 кб/с
Скриншоты:





IM
General
Complete name : F:\1080\Rihanna - Work ft. Drake.MP4
Format : MPEG-4
Format profile : Base Media / Version 2
Codec ID : mp42 (mp42/mp41/isom/avc1)
File size : 222 MiB
Duration : 7mn 34s
Overall bit rate mode : Variable
Overall bit rate : 4 093 Kbps
Encoded date : UTC 2016-02-22 18:22:01
Tagged date : UTC 2016-02-22 18:22:01
Video
ID : 1
Format : AVC
Format/Info : Advanced Video Codec
Format profile : High@L4
Format settings, CABAC : Yes
Format settings, ReFrames : 4 frames
Codec ID : avc1
Codec ID/Info : Advanced Video Coding
Duration : 7mn 34s
Bit rate : 3 854 Kbps
Width : 1 920 pixels
Height : 1 080 pixels
Display aspect ratio : 16:9
Frame rate mode : Constant
Frame rate : 23.976 (24000/1001) fps
Color space : YUV
Chroma subsampling : 4:2:0
Bit depth : 8 bits
Scan type : Progressive
Bits/(Pixel*Frame) : 0.078
Stream size : 209 MiB (94%)
Writing library : x264 core 148 r11 a01e339
Encoding settings : cabac=1 / ref=4 / deblock=1:0:0 / analyse=0x3:0x113 / me=umh / subme=8 / psy=1 / psy_rd=1.00:0.00 / mixed_ref=1 / me_range=16 / chroma_me=1 / trellis=1 / 8x8dct=1 / cqm=0 / deadzone=21,11 / fast_pskip=1 / chroma_qp_offset=-2 / threads=34 / lookahead_threads=5 / sliced_threads=0 / nr=0 / decimate=1 / interlaced=0 / bluray_compat=0 / stitchable=1 / constrained_intra=0 / bframes=3 / b_pyramid=2 / b_adapt=2 / b_bias=0 / direct=3 / weightb=1 / open_gop=0 / weightp=2 / keyint=infinite / keyint_min=23 / scenecut=40 / intra_refresh=0 / rc_lookahead=50 / rc=crf / mbtree=1 / crf=20.0 / qcomp=0.60 / qpmin=5 / qpmax=69 / qpstep=4 / vbv_maxrate=4950 / vbv_bufsize=13500 / crf_max=0.0 / nal_hrd=none / filler=0 / ip_ratio=1.40 / aq=1:1.00
Encoded date : UTC 2016-02-22 18:22:01
Tagged date : UTC 2016-02-22 18:22:01
Color range : Limited
Color primaries : BT.709
Transfer characteristics : BT.709
Matrix coefficients : BT.709
Audio
ID : 2
Format : AAC
Format/Info : Advanced Audio Codec
Format profile : LC
Codec ID : 40
Duration : 7mn 34s
Bit rate mode : Variable
Bit rate : 235 Kbps
Channel(s) : 2 channels
Channel positions : Front: L R
Sampling rate : 48.0 KHz
Frame rate : 46.875 fps (1024 spf)
Compression mode : Lossy
Stream size : 12.7 MiB (6%)
Encoded date : UTC 2016-02-22 18:22:01
Tagged date : UTC 2016-02-22 18:22:01
--
[Профиль] [ЛС]
Показать сообщения:    
Ответить на тему

Текущее время: 27-Июн 15:19

Часовой пояс: UTC + 3



Вы не можете начинать темы
Вы не можете отвечать на сообщения
Вы не можете редактировать свои сообщения
Вы не можете удалять свои сообщения
Вы не можете голосовать в опросах
Вы не можете прикреплять файлы к сообщениям
Вы не можете скачивать файлы