Головоломка / Inside Out (Пит Доктер, Роналдо Дель Кармен) [2015, мультфильм, драма, комедия, семейный HDTV 720p] | [Чистый звук]

Ответить на тему
 
Автор Сообщение

Root_tj ®

Пол: Мужской

Стаж: 3 года 5 месяцев

Сообщений: 5943

Откуда: Khujand

Создавать темы 06-Окт-2015 10:11

[Цитировать]

Год выпуска: 2015
Страна: США
Жанр: мультфильм, драма, комедия, семейный
Продолжительность: 01:34:34
Перевод: Дублированное [Чистый звук]
Режиссер: Пит Доктер, Роналдо Дель Кармен
В ролях: Льюис Блэк, Минди Кейлинг, Билл Хейдер, Эми Полер, Филлис Смит, Ричард Кайнд, Кейтлин Диас, Дайан Лэйн, Кайл МакЛоклен, Пола Паундстон
Описание:Райли — обычная 11-летняя школьница, и, как у каждого из нас, ее поведение определяют пять базовых эмоций: Радость, Печаль, Страх, Гнев и Брезгливость. Эмоции живут в сознании девочки и каждый день помогают ей справляться с проблемами, руководя всеми ее поступками. До поры до времени эмоции живут дружно, но вдруг оказывается, что Райли и ее родителям предстоит переезд из небольшого уютного городка в шумный и людный мегаполис. Каждая из эмоций считает, что именно она лучше прочих знает, что нужно делать в этой непростой ситуации, и в голове у девочки наступает полная неразбериха. Чтобы наладить жизнь в большом городе, освоиться в новой школе и подружиться с одноклассниками, эмоциям Райли предстоит снова научиться работать сообща.

премьера (в мире): 18 мая 2015
премьера (в РФ): 18 июня 2015, «WDSSPR»3D
релиз на DVD: 22 сентября 2015,«Уолт Дисней Компани СНГ»,
релиз на Blu-Ray: 22 сентября 2015,«Уолт Дисней Компани СНГ»,
Бюджет: $ 175 000 000
Сборы в США: $ 353 852 556
Сборы в России: $ 18 134 698
Сборы в Мире : $ 438 400 000 = $ 792 252 556
Качество: HDTV 720p
Формат: MKV
Видео кодек : AVC
Аудио кодек: AC3
Видео : x264, 5165 kb/s, 1280x720, 23.976 fps
Аудио #1 : Русский: AC3, 256 kb/s (2 ch); 48,0 КГц
Аудио #2 : Английский: AC3, 384 kb/s (2 ch); 48,0 КГц
Medianfo

Общее
Уникальный идентификатор : 183809037503395044476247020969693605762 (0x8A48553B6758BFE5AFAB20896318EF82)
Полное имя : K:\Golovolomka.2015.D.HDTV.720p.mkv
Формат : Matroska
Версия формата : Version 4 / Version 2
Размер файла : 3,91 Гбайт
Продолжительность : 1 ч. 34 м.
Общий поток : 5918 Кбит/сек
Название фильма : G0l0v0l0Mka.2015.D.WEBRip.720p.ELEKTRI4KA.uniongang.tv
Дата кодирования : UTC 2015-10-04 07:26:55
Программа кодирования : mkvmerge v8.3.0 ('Over the Horizon') 64bit
Библиотека кодирования : libebml v1.3.1 + libmatroska v1.4.2
DURATION : 01:34:34.432000000
NUMBER_OF_FRAMES : 177326
NUMBER_OF_BYTES : 272372736
_STATISTICS_WRITING_APP : mkvmerge v8.3.0 ('Over the Horizon') 64bit
_STATISTICS_WRITING_DATE_UTC : 2015-10-04 07:26:55
_STATISTICS_TAGS : BPS DURATION NUMBER_OF_FRAMES NUMBER_OF_BYTES
Видео
Идентификатор : 1
Формат : AVC
Формат/Информация : Advanced Video Codec
Профиль формата : High@L3.1
Параметр CABAC формата : Да
Параметр ReFrames формата : 3 кадра
Идентификатор кодека : V_MPEG4/ISO/AVC
Продолжительность : 1 ч. 34 м.
Битрейт : 5160 Кбит/сек
Ширина : 1280 пикселей
Высота : 720 пикселей
Соотношение сторон : 16:9
Режим частоты кадров : Постоянный
Частота кадров : 30,000 кадров/сек
Стандарт вещания : NTSC
Цветовое пространство : YUV
Субдискретизация насыщенности : 4:2:0
Битовая глубина : 8 бит
Тип развёртки : Прогрессивная
Бит/(Пиксели*Кадры) : 0.187
Размер потока : 3,41 Гбайт (87%)
Заголовок : G0l0v0l0Mka.2015.D.WEBRip.720p.ELEKTRI4KA.uniongang.tv
Язык : English
Default : Да
Forced : Нет
Цветовой диапазон : Limited
Основные цвета : BT.709
Характеристики трансфера : BT.709
Коэффициенты матрицы : BT.709
Аудио #1
Идентификатор : 2
Формат : AC-3
Формат/Информация : Audio Coding 3
Расширение режима : CM (complete main)
Параметр Endianness формата : Big
Идентификатор кодека : A_AC3
Продолжительность : 1 ч. 34 м.
Вид битрейта : Постоянный
Битрейт : 256 Кбит/сек
Каналы : 2 канала
Расположение каналов : Front: L R
Частота : 48,0 КГц
Метод сжатия : С потерями
Размер потока : 173 Мбайт (4%)
Заголовок : G0l0v0l0Mka.2015.D.WEBRip.720p.ELEKTRI4KA.uniongang.tv
Язык : Russian
Default : Да
Forced : Нет
Аудио #2
Идентификатор : 3
Формат : AC-3
Формат/Информация : Audio Coding 3
Расширение режима : CM (complete main)
Параметр Endianness формата : Big
Идентификатор кодека : A_AC3
Продолжительность : 1 ч. 34 м.
Вид битрейта : Постоянный
Битрейт : 384 Кбит/сек
Каналы : 2 канала
Расположение каналов : Front: L R
Частота : 48,0 КГц
Метод сжатия : С потерями
Размер потока : 260 Мбайт (6%)
Заголовок : G0l0v0l0Mka.2015.D.WEBRip.720p.ELEKTRI4KA.uniongang.tv
Язык : English
Default : Нет
Forced : Нет
Скриншоты




Последний раз редактировалось: Root_tj (2015-10-06 10:13), всего редактировалось 1 раз
[Профиль] [ЛС]

Root_tj ®

Пол: Мужской

Стаж: 3 года 5 месяцев

Сообщений: 5943

Откуда: Khujand

Создавать темы 06-Окт-2015 10:12 (спустя 1 минута)

[Цитировать]

Готово!!!
[Профиль] [ЛС]

Создавать темы 10-Окт-2015 19:26 (спустя 4 дня)

Топик был перенесен из форума HDTV в форум HDTV

sashalilya
 

ganizoda1992

Пол: Мужской

Стаж: 3 года 9 месяцев

Сообщений: 15

Откуда: Худжанд

Создавать темы 24-Окт-2015 16:05 (спустя 18 дней)

[Цитировать]

Рахмат, мультик отличный
[Профиль] [ЛС]
Показать сообщения:    
Ответить на тему

Текущее время: 19-Ноя 11:42

Часовой пояс: UTC + 3



Вы не можете начинать темы
Вы не можете отвечать на сообщения
Вы не можете редактировать свои сообщения
Вы не можете удалять свои сообщения
Вы не можете голосовать в опросах
Вы не можете прикреплять файлы к сообщениям
Вы не можете скачивать файлы