Тарзан / Tarzan (Крис Бак, Кевин Лима) [1999 г, мультфильм, драма, мелодрама, приключения, семейный, музыка, BDRip 1080p]

Ответить на тему
 
Автор Сообщение

fadaf9 ®

Пол: Мужской

Стаж: 6 лет 9 месяцев

Сообщений: 2142

Откуда: Таджикистан

Создавать темы 03-Фев-2015 19:14

[Цитировать]

--Тарзан / Tarzan-- Год выпуска: 1999
Страна: США
Жанр: мультфильм, драма, мелодрама, приключения, семейный, музыка
Продолжительность: 01:28:22
Перевод: Профессиональный (полное дублирование) [-Лицензия-]- Режиссеры: Крис Бак, Кевин Лима
В ролях: Брайан Блессид, Гленн Клоуз, Минни Драйвер, Тони Голдуин, Найджел Хоторн, Лэнс Хенриксен, Уэйн Найт, Алекс Д. Линц, Рози О’Доннелл, Бет Андерсон- Описание:
Тарзан вырос среди горилл, в таинственных джунглях, где не ступала нога человека. Враждебное царство диких животных долго не хотело признавать хрупкого мальчика.
Вскоре на глазах у всех слабый малыш превратился в храброго юношу и стал быстрее пантеры, сильнее тигра, зорче орла. Но когда Тарзан становится настоящим королем джунглей, происходит неожиданная встреча, которая полностью меняет его жизнь…
-
- нет возрастных ограничений- Качество: BDRip 1080p
Формат: MKV
Видео: AVC, 9850 kbps, 1920x1080p, 23.976 fps
Аудио №1: AC3, 5.1, 640 kbps, 6 ch, 48.0 KHz - Russian (полное дублирование) [-Лицензия-]
Аудио №2: DTS, 5.1, 1509 kbps, 6 ch, 48.0 KHz - Russian (одноголосое) [-А.Гаврилов-]
Аудио №3: DTS, 5.1, 1509 kbps, 6 ch, 48.0 KHz - Russian (одноголосое) [-Ю.Живов-]
Аудио №4: DTS, 5.1, 1509 kbps, 6 ch, 48.0 KHz - Russian (одноголосое) [-Самарский-]
Аудио №5: AC3, 2.0, 192 kbps, 2 ch, 48.0 KHz - Russian (одноголосое) [-С.Визгунов-]
Аудио №6: AC3, 2.0, 192 kbps, 2 ch, 48.0 KHz - Ukrainian (полное дублирование) [-LeDoyen Studio-]
Аудио №7: DTS, 5.1, 640 kbps, 5 ch, 48.0 KHz - English
Аудио №8: AAC, 2.0, ? kbps, 6 ch, 48.0 KHz - English [-Commentary with producer Bonnie Arnold & co-directors Kevin Lima & Chris Buck-]
Субтитры: Russian, English-
MediaInfo

General
Unique ID : 241544078705522657992849727295919138066 (0xB5B7B289412EF5D28AB77C66EB56A512)
Format : Matroska
Format version : Version 4 / Version 2
File size : 10.5 GiB
Duration : 1h 28mn
Overall bit rate : 17.0 Mbps
Encoded date : UTC 2014-10-04 18:41:06
Writing application : mkvmerge v7.1.0 ('Good Love') 64bit built on Jul 27 2014 13:06:55
Writing library : libebml v1.3.0 + libmatroska v1.4.1
DURATION : 01:28:17.457000000
NUMBER_OF_FRAMES : 1861
NUMBER_OF_BYTES : 85652
_STATISTICS_WRITING_APP : mkvmerge v7.1.0 ('Good Love') 64bit built on Jul 27 2014 13:06:55
_STATISTICS_WRITING_DATE_UTC : 2014-10-04 18:41:06
_STATISTICS_TAGS : BPS DURATION NUMBER_OF_FRAMES NUMBER_OF_BYTES
Video
ID : 1
Format : AVC
Format/Info : Advanced Video Codec
Format profile : High@L4.1
Format settings, CABAC : Yes
Format settings, ReFrames : 4 frames
Codec ID : V_MPEG4/ISO/AVC
Duration : 1h 28mn
Nominal bit rate : 9 850 Kbps
Width : 1 920 pixels
Height : 1 080 pixels
Display aspect ratio : 16:9
Frame rate mode : Constant
Frame rate : 23.976 fps
Color space : YUV
Chroma subsampling : 4:2:0
Bit depth : 8 bits
Scan type : Progressive
Bits/(Pixel*Frame) : 0.198
Writing library : x264 core 142 r2409+42 04be48a tMod [8-bit@all X86_64]
Encoding settings : cabac=1 / ref=4 / deblock=1:-3:-3 / analyse=0x3:0x113 / me=umh / subme=11 / psy=1 / fade_compensate=0.00 / psy_rd=1.05:0.00 / mixed_ref=1 / me_range=32 / chroma_me=1 / trellis=2 / 8x8dct=1 / cqm=0 / deadzone=21,11 / fast_pskip=0 / chroma_qp_offset=-2 / threads=6 / lookahead_threads=1 / sliced_threads=0 / nr=0 / decimate=0 / interlaced=0 / bluray_compat=0 / constrained_intra=0 / fgo=0 / bframes=11 / b_pyramid=2 / b_adapt=2 / b_bias=0 / direct=3 / weightb=1 / open_gop=0 / weightp=2 / keyint=250 / keyint_min=24 / scenecut=40 / intra_refresh=0 / rc_lookahead=50 / rc=2pass / mbtree=0 / bitrate=9850 / ratetol=1.0 / qcomp=0.65 / qpmin=0:0:0 / qpmax=69:69:69 / qpstep=4 / cplxblur=20.0 / qblur=0.5 / vbv_maxrate=50000 / vbv_bufsize=62500 / nal_hrd=none / filler=0 / ip_ratio=1.40 / pb_ratio=1.10 / aq=1:0.75 / aq-sensitivity=10.00 / aq-factor=1.00:1.00:1.00 / aq2=0 / aq3=0
Language : English
Default : Yes
Forced : No
Audio #1
ID : 2
Format : AC-3
Format/Info : Audio Coding 3
Mode extension : CM (complete main)
Format settings, Endianness : Big
Codec ID : A_AC3
Duration : 1h 28mn
Bit rate mode : Constant
Bit rate : 640 Kbps
Channel(s) : 6 channels
Channel positions : Front: L C R, Side: L R, LFE
Sampling rate : 48.0 KHz
Bit depth : 16 bits
Compression mode : Lossy
Stream size : 405 MiB (4%)
Title : DUB
Language : Russian
Default : Yes
Forced : No
Audio #2
ID : 3
Format : DTS
Format/Info : Digital Theater Systems
Mode : 16
Format settings, Endianness : Big
Codec ID : A_DTS
Duration : 1h 28mn
Bit rate mode : Constant
Bit rate : 1 509 Kbps
Channel(s) : 6 channels
Channel positions : Front: L C R, Side: L R, LFE
Sampling rate : 48.0 KHz
Bit depth : 24 bits
Compression mode : Lossy
Stream size : 955 MiB (9%)
Title : AVO [-А.Гаврилов-]
Language : Russian
Default : No
Forced : No
Audio #3
ID : 4
Format : DTS
Format/Info : Digital Theater Systems
Mode : 16
Format settings, Endianness : Big
Codec ID : A_DTS
Duration : 1h 28mn
Bit rate mode : Constant
Bit rate : 1 509 Kbps
Channel(s) : 6 channels
Channel positions : Front: L C R, Side: L R, LFE
Sampling rate : 48.0 KHz
Bit depth : 24 bits
Compression mode : Lossy
Stream size : 955 MiB (9%)
Title : AVO [-Ю.Живов-]
Language : Russian
Default : No
Forced : No
Audio #4
ID : 5
Format : DTS
Format/Info : Digital Theater Systems
Mode : 16
Format settings, Endianness : Big
Codec ID : A_DTS
Duration : 1h 28mn
Bit rate mode : Constant
Bit rate : 1 509 Kbps
Channel(s) : 6 channels
Channel positions : Front: L C R, Side: L R, LFE
Sampling rate : 48.0 KHz
Bit depth : 24 bits
Compression mode : Lossy
Stream size : 955 MiB (9%)
Title : AVO [-Самарский-]
Language : Russian
Default : No
Forced : No
Audio #5
ID : 6
Format : AC-3
Format/Info : Audio Coding 3
Mode extension : CM (complete main)
Format settings, Endianness : Big
Codec ID : A_AC3
Duration : 1h 28mn
Bit rate mode : Constant
Bit rate : 192 Kbps
Channel(s) : 2 channels
Channel positions : Front: L R
Sampling rate : 48.0 KHz
Bit depth : 16 bits
Compression mode : Lossy
Stream size : 122 MiB (1%)
Title : AVO [-С.Визгунов-]
Language : Russian
Default : No
Forced : No
Audio #6
ID : 7
Format : AC-3
Format/Info : Audio Coding 3
Mode extension : CM (complete main)
Format settings, Endianness : Big
Codec ID : A_AC3
Duration : 1h 28mn
Bit rate mode : Constant
Bit rate : 192 Kbps
Channel(s) : 2 channels
Channel positions : Front: L R
Sampling rate : 48.0 KHz
Bit depth : 16 bits
Compression mode : Lossy
Stream size : 122 MiB (1%)
Title : DUB [-LeDoyen Studio-]
Language : Ukrainian
Default : No
Forced : No
Audio #7
ID : 8
Format : DTS
Format/Info : Digital Theater Systems
Mode : 16
Format settings, Endianness : Big
Codec ID : A_DTS
Duration : 1h 28mn
Bit rate mode : Constant
Bit rate : 1 509 Kbps
Channel(s) : 5 channels
Channel positions : Front: L C R, Side: L R
Sampling rate : 48.0 KHz
Bit depth : 24 bits
Compression mode : Lossy
Stream size : 955 MiB (9%)
Title : Original
Language : English
Default : No
Forced : No
Audio #8
ID : 9
Format : AAC
Format/Info : Advanced Audio Codec
Format profile : LC
Codec ID : A_AAC
Duration : 1h 28mn
Channel(s) : 2 channels
Channel positions : Front: L R
Sampling rate : 48.0 KHz
Compression mode : Lossy
Title : Commentary with producer Bonnie Arnold & co-directors Kevin Lima & Chris Buck
Language : English
Default : No
Forced : No
Text #1
ID : 10
Format : UTF-8
Codec ID : S_TEXT/UTF8
Codec ID/Info : UTF-8 Plain Text
Title : Russian
Language : Russian
Default : No
Forced : No
Text #2
ID : 11
Format : UTF-8
Codec ID : S_TEXT/UTF8
Codec ID/Info : UTF-8 Plain Text
Title : English
Language : English
Default : No
Forced : No
Text #3
ID : 12
Format : UTF-8
Codec ID : S_TEXT/UTF8
Codec ID/Info : UTF-8 Plain Text
Title : English (Commentary)
Language : English
Default : No
Forced : No

Menu
00:00:00.000 : en:Main Title/"Two Worlds"
00:03:21.326 : en:Kala's Discovery
00:06:08.076 : en:A Narrow Escape
00:08:16.496 : en:Adopted
00:11:01.035 : en:"You'll Be in My Heart"
00:12:38.757 : en:Young Tarzan
00:14:19.775 : en:Pest Control
00:16:45.754 : en:Baby Tantor
00:18:01.580 : en:Piranha!
00:18:59.054 : en:Outcast
00:20:39.863 : en:Hand to Hand
00:22:39.941 : en:"Son of Man!"
00:25:27.234 : en:Monkeying Around
00:26:20.870 : en:Sabor Attacks
00:30:41.673 : en:Explores
00:33:49.318 : en:The Baby Baboon
00:34:50.713 : en:Tarzan to the Rescue
00:37:28.162 : en:Treetop Introductions
00:41:34.325 : en:"Trashin' the Camp"
00:45:38.736 : en:Jane's Rant
00:46:48.305 : en:Tarzan Confronts Kerchak
00:48:33.911 : en:Tarzan Drops In
00:50:14.803 : en:"Strangers Like Me"
00:54:08.954 : en:The Boat Arrives
00:56:52.325 : en:Distracting Kerchak
00:57:53.636 : en:Meeting Tarzan's Family
01:01:30.436 : en:Tarzan Defies Kerchak
01:03:23.841 : en:The Truth
01:07:14.405 : en:Clayton's Trap
01:09:20.156 : en:"We Got a Boat to Catch"
01:11:42.423 : en:Ambush
01:14:55.866 : en:A Fight to the Finish
01:16:37.884 : en:"My Son"
01:19:08.368 : en:Goodbyes
01:21:30.677 : en:Our Family
01:22:25.690 : en:End Credits
Скриншоты



[Профиль] [ЛС]
Показать сообщения:    
Ответить на тему

Текущее время: 22-Ноя 02:20

Часовой пояс: UTC + 3



Вы не можете начинать темы
Вы не можете отвечать на сообщения
Вы не можете редактировать свои сообщения
Вы не можете удалять свои сообщения
Вы не можете голосовать в опросах
Вы не можете прикреплять файлы к сообщениям
Вы не можете скачивать файлы