Три богатыря: Ход конем (2014) WEB-DLRip (Константин Феоктистов) [2014 г., мультфильм, комедия, приключения,​WEB-DL 720p] l iTunis

Ответить на тему
 
Автор Сообщение

vip.snop1k ®

Пол: Мужской

Стаж: 3 года 9 месяцев

Сообщений: 1054

Откуда: Dyshka-City

Создавать темы 26-Янв-2015 10:01

[Цитировать]

--

  • Год выпуска: 2014
  • Страна: Россия
  • Жанр: мультфильм, комедия, приключения, фэнтези
  • Продолжительность: 01:11:40
  • Перевод: : Оригинал [iTunes]
  • Субтитры: YНет--
  • В ролях:Сергей Маковецкий, Дмитрий Быковский-Ромашов, Валерий Соловьев, Олег Куликович, Дмитрий Высоцкий, Дмитрий Нагиев, Наргиз Закирова, Гоша Куценко
  • Режиссёр: Константин Феоктистов--
    Придворный конь Гай Юлий Цезарь на свою беду подслушивает разговор бояр и узнает о заговоре против князя. Что же делать? Защитить-то князя некому! Богатыри далеко - ловят разбойника Потаню, Горыныч в отпуске, войско на учениях... Но если плохие парни собираются захватить мир, то кому-то же надо его спасти? Кто же он, настоящий герой, который придет на помощь? Конечно, конь Юлий! Настоящий стратег и «великий комбинатор». Он непременно всех спасет, а если не спасет, то хотя бы постарается. Главное, чтобы операция по спасению мира не обернулась полной катастрофой.-- 
    --
  • Качество: WEB-DL 720p
  • Формат: MKV
  • Видео кодек: AVC
  • Аудио кодек: AC3
  • Видео: MPEG-4 AVC, 4169 Кбит/с, 1280x720
  • Аудио: AC3, 2 ch, 384 Кбит/с
--
MI:
Формат                                   : Matroska
Версия формата                           : Version 4 / Version 2
Размер файла                             : 2,99 Гбайт
Продолжительность                        : 1 ч. 30 м.
Общий поток                              : 4706 Кбит/сек
Дата кодирования                         : UTC 2015-01-22 13:54:35
Программа кодирования                    : mkvmerge v6.9.1 ('Blue Panther') 64bit built on Apr 18 2014 18:23:38
Библиотека кодирования                   : libebml v1.3.0 + libmatroska v1.4.1
Видео
Идентификатор                            : 1
Формат                                   : AVC
Формат/Информация                        : Advanced Video Codec
Профиль формата                          : Main@L3.1
Параметр CABAC формата                   : Нет
Параметр ReFrames формата                : 2 кадра
Идентификатор кодека                     : V_MPEG4/ISO/AVC
Продолжительность                        : 1 ч. 30 м.
Битрейт                                  : 3972 Кбит/сек
Ширина                                   : 960 пикселей
Высота                                   : 532 пикселя
Соотношение сторон                       : 2,40:1
Режим частоты кадров                     : Постоянный
Частота кадров                           : 25,000 кадров/сек
Цветовое пространство                    : YUV
Субдискретизация насыщенности            : 4:2:0
Битовая глубина                          : 8 бит
Тип развёртки                            : Прогрессивная
Бит/(Пиксели*Кадры)                      : 0.311
Размер потока                            : 2,52 Гбайт (84%)
Язык                                     : English
Default                                  : Да
Forced                                   : Нет
Основные цвета                           : BT.709
Характеристики трансфера                 : BT.709
Коэффициенты матрицы                     : BT.709
colour_range                             : Limited
Аудио #1
Идентификатор                            : 2
Формат                                   : AC-3
Формат/Информация                        : Audio Coding 3
Расширение режима                        : CM (complete main)
Параметр Endianness формата              : Big
Идентификатор кодека                     : A_AC3
Продолжительность                        : 1 ч. 30 м.
Вид битрейта                             : Постоянный
Битрейт                                  : 256 Кбит/сек
Каналы                                   : 2 канала
Расположение каналов                     : Front: L R
Частота                                  : 48,0 КГц
Битовая глубина                          : 16 бит
Метод сжатия                             : С потерями
Размер потока                            : 166 Мбайт (5%)
Default                                  : Да
Forced                                   : Нет
Аудио #2
Идентификатор                            : 3
Формат                                   : AC-3
Формат/Информация                        : Audio Coding 3
Расширение режима                        : CM (complete main)
Параметр Endianness формата              : Big
Идентификатор кодека                     : A_AC3
Продолжительность                        : 1 ч. 30 м.
Вид битрейта                             : Постоянный
Битрейт                                  : 384 Кбит/сек
Каналы                                   : 6 каналов
Расположение каналов                     : Front: L C R, Side: L R, LFE
Частота                                  : 48,0 КГц
Битовая глубина                          : 16 бит
Метод сжатия                             : С потерями
Размер потока                            : 250 Мбайт (8%)
Язык                                     : English
Default                                  : Нет
Forced                                   : Нет
Меню
00:00:00.000                             : en:1
00:08:50.000                             : en:2
00:16:26.000                             : en:3
00:26:16.000                             : en:4
00:32:38.000                             : en:5
00:41:42.000                             : en:6
00:48:12.000                             : en:7
00:56:19.000                             : en:8
01:03:08.000                             : en:9
01:11:43.000                             : en:10
01:22:36.000                             : en:11
01:27:04.000                             : en:12
Скриншоты


Последний раз редактировалось: vip.snop1k (2015-01-26 13:58), всего редактировалось 1 раз
[Профиль] [ЛС]

[VIP]ABDURAXA[VIP]

Пол: Мужской

Стаж: 4 года 2 месяца

Сообщений: 9107

Создавать темы 26-Янв-2015 11:18 (спустя 1 час 16 минут)

[Цитировать]

Рейтинг поправь, а то он от Ограбление по-американски
[Профиль] [ЛС]

Создавать темы 26-Янв-2015 18:32 (спустя 7 часов)

Топик был перенесен из форума HDTV в форум HDTV

sashalilya
 
Показать сообщения:    
Ответить на тему

Текущее время: 22-Ноя 02:26

Часовой пояс: UTC + 3



Вы не можете начинать темы
Вы не можете отвечать на сообщения
Вы не можете редактировать свои сообщения
Вы не можете удалять свои сообщения
Вы не можете голосовать в опросах
Вы не можете прикреплять файлы к сообщениям
Вы не можете скачивать файлы