Король Лев - Трилогия / The Lion King - Trilogy (Роджер Аллерс, Роб Минкофф, Даррел Руни, Роб ЛаДука, Брэдли Рэймонд) [1994, 1998, 2004, комедия, приключения, семейный, мультфильм, BDRip 1080p]

Ответить на тему
 
Автор Сообщение

fadaf9 ®

Пол: Мужской

Стаж: 6 лет 9 месяцев

Сообщений: 2142

Откуда: Таджикистан

Создавать темы 03-Янв-2015 17:10

[Цитировать]

--Король Лев / The Lion King--«The Circle of Life»-- Год выпуска: 1994
Страна: США
Жанр: драма, мюзикл, приключения, семейный, мультфильм
Продолжительность: 01:28:24
Перевод: Профессиональный (полное дублирование) [-Лицензия-]- Режиссер: Роджер Аллерс, Роб Минкофф
В ролях: Джонатан Тейлор Томас,Мэттью Бродерик, Джеймс Эрл Джонс, Джереми Айронс, Мойра Келли, Никета Калам, Эрни Сабелла, Натан Лейн, Роберт Гийом, Роуэн Эткинсон- Описание:
У величественного Короля-Льва Муфасы рождается наследник по имени Симба. Уже в детстве любознательный малыш становится жертвой интриг своего завистливого дяди Шрама, мечтающего о власти.
Симба познаёт горе утраты, предательство и изгнание, но в конце концов обретает верных друзей и находит любимую. Закалённый испытаниями, он в нелёгкой борьбе отвоёвывает своё законное место в «Круге жизни», осознав, что значит быть настоящим Королём.
-

Рейтинг G - нет возрастных ограничений!- Качество: BDRip 1080p
Формат: MKV
Видео: AVC, 9996 Kbps, 1920x1080p, 23.976 fps
Аудио №1: AC3, 5.1, 448 kbps, 6 ch, 48.0 KHz - Russian (полное дублирование) [-Лицензия-]
Аудио №2: AC3, 5.1, 384 kbps, 6 ch, 48.0 KHz - Russian (двухголосый) [-П.Гланц и Казакова-]
Аудио №3: AC3, 5.1, 384 kbps, 6 ch, 48.0 KHz - Russian (одноголосый) [-Гаврилов (ранний)-]
Аудио №4: AC3, 5.1, 384 kbps, 6 ch, 48.0 KHz - Russian (одноголосый) [-Гаврилов (поздний)-]
Аудио №5: AC3, 5.1, 384 kbps, 6 ch, 48.0 KHz - Russian (одноголосый) [-Живов-]
Аудио №6: AC3, 5.1, 448 kbps, 6 ch, 48.0 KHz - Russian (одноголосый) [-Латышев-]
Аудио №7: AC3, 5.1, 384 kbps, 6 ch, 48.0 KHz - Russian (одноголосый) [-Яковлев-]
Аудио №8: AC3, 5.1, 384 kbps, 6 ch, 48.0 KHz - Russian (одноголосый) [-Кусчак-]
Аудио №9: AC3, 1.0, 192 kbps, 1 ch, 48.0 KHz - Russian (одноголосый) [-Визгунов-]
Аудио №10: AC3, 1.0, 192 kbps, 1 ch, 48.0 KHz - Russian (одноголосый) [-Кашкин-]
Аудио №11: AC3, 5.1, 384 kbps, 6 ch, 48.0 KHz - English
Субтитры: Russian [Full, Songs], English [Full, SDH]-
Знаете ли вы,что...

• В серии The Man from J.U.N.G.L.E. (Человек из Д. Ж. У. Н. Г. Л. Е. Й.), мультсериала «Тимон и Пумба» (1995-1998), спародирована сцена из короля Льва, когда Слон вместе с птицами идет на представление Симбы.
• Чтобы сделать возможным 3D переиздание мультфильма, сотрудникам студии пришлось воссоздавать мультфильм из отдельных материалов системы CAPS. Это привело к тому, что в переизданной версии не хватает некоторых деталей (таких как тени и некоторые части сцен) в отдельных сценах.
• Чтобы помочь кинопроизводителям справиться с задачей передать естественную и величественную красоту Африки посредством мультипликации, шесть членов творческой команды посетили Восточную Африку на ранних стадиях производства. Оттуда они привезли массу зарисовок, идей, выражение «Hakuna Matata,» песенку Рафики — школьную считалку и т. д.
• «Симба» означает лев, «Сараби» — мираж, «Рафики» — друг, «Пумба» — простак, «Банзай» — прячущийся, «Шензи» — неотесанный.
• Муфаса — имя последнего короля народа, населяющего Кению перед английской колонизацией.
• Для более чем 600 художников, аниматоров и техников, которые внесли вклад в «Короля Льва», фильм представил собой много вызовов. В конце концов, больше чем один миллион рисунков были созданы для фильма, составленного из 1 197 окрашенных рукой фонов и 119 058 индивидуально нарисованных кадров для фильма.
• 25 декабря 2002 года состоялась IMAX-премьера переработанной версии «Короля-льва» с улучшенным качеством изображения и звука.
• Сцена «Круг жизни» (Circle of Life) использовалась как трейлер мультфильма. Во время рекламной кампании эту сцену можно было видеть на телевизорах во многих магазинах Диснея.
• Мрачные части партитуры фоновой музыки были позаимствованы из реквиема Моцарта.
• Один из жуков, доставаемых Тимоном из дупла во время Акуны Мататы, носит уши Микки Мауса.
• Муфаса должен был исполнить песню «To Be King», но она не подошла голосу актера.
• Когда Муфаса говорит с Симбой о великих королях прошлого, в звездном небе можно увидеть снова уши Микки Мауса. В этом же эпизоде видно созвездие Льва.
• Песенка Рафики «Большое спасибо, съешь банан» (Ashante sana, squash banana) — детская считалочка из Африки.
• Листовые муравьи, колумбийский суслик и некоторые виды гигантских муравьедов, показанные в фильме, живут только в Америке, а не в Африке.
• Если внимательно посмотреть на клюв Зазу, спустившегося поздравить Симбу с победой над Шрамом, то можно заметить его движение без звука. Изначально Зазу говорит: «Ваше Величество!».
MediaInfo

General
Unique ID : 190124411275082694952212243700469872777 (0x8F08A132EDDEAA41B210105CEFF23889)
Format : Matroska
Format version : Version 4 / Version 2
File size : 8.62 GiB
Duration : 1h 28mn
Overall bit rate : 14.0 Mbps
Encoded date : UTC 2014-10-30 12:25:59
Writing application : mkvmerge v7.3.0 ('Nouages') 64bit built on Oct 22 2014 18:53:34
Writing library : libebml v1.3.0 + libmatroska v1.4.1
DURATION : 01:27:26.616000000
NUMBER_OF_FRAMES : 1315
NUMBER_OF_BYTES : 37935
_STATISTICS_WRITING_APP : mkvmerge v7.3.0 ('Nouages') 64bit built on Oct 22 2014 18:53:34
_STATISTICS_WRITING_DATE_UTC : 2014-10-30 12:25:59
_STATISTICS_TAGS : BPS DURATION NUMBER_OF_FRAMES NUMBER_OF_BYTES
Video
ID : 1
Format : AVC
Format/Info : Advanced Video Codec
Format profile : High@L4.1
Format settings, CABAC : Yes
Format settings, ReFrames : 4 frames
Codec ID : V_MPEG4/ISO/AVC
Duration : 1h 28mn
Nominal bit rate : 9 996 Kbps
Width : 1 920 pixels
Height : 1 080 pixels
Display aspect ratio : 16:9
Frame rate mode : Constant
Frame rate : 23.976 fps
Color space : YUV
Chroma subsampling : 4:2:0
Bit depth : 8 bits
Scan type : Progressive
Bits/(Pixel*Frame) : 0.201
Writing library : x264 core 133 r2334 a3ac64b
Encoding settings : cabac=1 / ref=4 / deblock=1:0:0 / analyse=0x3:0x133 / me=umh / subme=10 / psy=1 / psy_rd=1.00:0.00 / mixed_ref=1 / me_range=32 / chroma_me=1 / trellis=2 / 8x8dct=1 / cqm=0 / deadzone=21,11 / fast_pskip=0 / chroma_qp_offset=-2 / threads=6 / lookahead_threads=1 / sliced_threads=0 / nr=0 / decimate=1 / interlaced=0 / bluray_compat=0 / constrained_intra=0 / bframes=10 / b_pyramid=2 / b_adapt=2 / b_bias=0 / direct=3 / weightb=1 / open_gop=0 / weightp=2 / keyint=240 / keyint_min=24 / scenecut=40 / intra_refresh=0 / rc_lookahead=50 / rc=2pass / mbtree=0 / bitrate=9996 / ratetol=2.0 / qcomp=1.00 / qpmin=0 / qpmax=51 / qpstep=4 / cplxblur=20.0 / qblur=0.5 / vbv_maxrate=40000 / vbv_bufsize=40000 / nal_hrd=none / ip_ratio=1.40 / pb_ratio=1.30 / aq=1:1.00
Language : English
Default : Yes
Forced : No
Color primaries : BT.709
Transfer characteristics : BT.709
Matrix coefficients : BT.709
DURATION : 01:28:23.548000000
NUMBER_OF_FRAMES : 127158
NUMBER_OF_BYTES : 6620314652
_STATISTICS_WRITING_APP : mkvmerge v7.3.0 ('Nouages') 64bit built on Oct 22 2014 18:53:34
_STATISTICS_WRITING_DATE_UTC : 2014-10-30 12:25:59
_STATISTICS_TAGS : BPS DURATION NUMBER_OF_FRAMES NUMBER_OF_BYTES
Audio #1
ID : 2
Format : AC-3
Format/Info : Audio Coding 3
Mode extension : CM (complete main)
Format settings, Endianness : Big
Codec ID : A_AC3
Duration : 1h 28mn
Bit rate mode : Constant
Bit rate : 448 Kbps
Channel(s) : 6 channels
Channel positions : Front: L C R, Side: L R, LFE
Sampling rate : 48.0 KHz
Bit depth : 16 bits
Compression mode : Lossy
Stream size : 283 MiB (3%)
Title : DUB
Language : Russian
Default : Yes
Forced : No
Audio #2
ID : 3
Format : AC-3
Format/Info : Audio Coding 3
Mode extension : CM (complete main)
Format settings, Endianness : Big
Codec ID : A_AC3
Duration : 1h 28mn
Bit rate mode : Constant
Bit rate : 384 Kbps
Channel(s) : 6 channels
Channel positions : Front: L C R, Side: L R, LFE
Sampling rate : 48.0 KHz
Bit depth : 16 bits
Compression mode : Lossy
Stream size : 243 MiB (3%)
Title : DVO [-П.Гланц и Казакова-]
Language : Russian
Default : No
Forced : No
Audio #3
ID : 4
Format : AC-3
Format/Info : Audio Coding 3
Mode extension : CM (complete main)
Format settings, Endianness : Big
Codec ID : A_AC3
Duration : 1h 28mn
Bit rate mode : Constant
Bit rate : 384 Kbps
Channel(s) : 6 channels
Channel positions : Front: L C R, Side: L R, LFE
Sampling rate : 48.0 KHz
Bit depth : 16 bits
Compression mode : Lossy
Stream size : 243 MiB (3%)
Title : AVO [-Гаврилов (ранний)-]
Language : Russian
Default : No
Forced : No
Audio #4
ID : 5
Format : AC-3
Format/Info : Audio Coding 3
Mode extension : CM (complete main)
Format settings, Endianness : Big
Codec ID : A_AC3
Duration : 1h 28mn
Bit rate mode : Constant
Bit rate : 384 Kbps
Channel(s) : 6 channels
Channel positions : Front: L C R, Side: L R, LFE
Sampling rate : 48.0 KHz
Bit depth : 16 bits
Compression mode : Lossy
Stream size : 243 MiB (3%)
Title : AVO [-Гаврилов (поздний)-]
Language : Russian
Default : No
Forced : No
Audio #5
ID : 6
Format : AC-3
Format/Info : Audio Coding 3
Mode extension : CM (complete main)
Format settings, Endianness : Big
Codec ID : A_AC3
Duration : 1h 28mn
Bit rate mode : Constant
Bit rate : 384 Kbps
Channel(s) : 6 channels
Channel positions : Front: L C R, Side: L R, LFE
Sampling rate : 48.0 KHz
Bit depth : 16 bits
Compression mode : Lossy
Stream size : 243 MiB (3%)
Title : AVO [-Живов-]
Language : Russian
Default : No
Forced : No
Audio #6
ID : 7
Format : AC-3
Format/Info : Audio Coding 3
Mode extension : CM (complete main)
Format settings, Endianness : Big
Codec ID : A_AC3
Duration : 1h 28mn
Bit rate mode : Constant
Bit rate : 448 Kbps
Channel(s) : 6 channels
Channel positions : Front: L C R, Side: L R, LFE
Sampling rate : 48.0 KHz
Bit depth : 16 bits
Compression mode : Lossy
Stream size : 283 MiB (3%)
Title : AVO [-Латышев-]
Language : Russian
Default : No
Forced : No
Audio #7
ID : 8
Format : AC-3
Format/Info : Audio Coding 3
Codec ID : A_AC3
Duration : 1h 28mn
Channel(s) : 6 channels
Sampling rate : 48.0 KHz
Compression mode : Lossy
Title : AVO [-Яковлев-]
Language : Russian
Default : No
Forced : No
Audio #8
ID : 9
Format : AC-3
Format/Info : Audio Coding 3
Codec ID : A_AC3
Duration : 1h 28mn
Channel(s) : 6 channels
Sampling rate : 48.0 KHz
Compression mode : Lossy
Title : AVO [-Кусчак-]
Language : Russian
Default : No
Forced : No
Audio #9
ID : 10
Format : AC-3
Format/Info : Audio Coding 3
Codec ID : A_AC3
Duration : 1h 28mn
Sampling rate : 48.0 KHz
Compression mode : Lossy
Title : AVO [-Визгунов-]
Language : Russian
Default : No
Forced : No
Audio #10
ID : 11
Format : AC-3
Format/Info : Audio Coding 3
Codec ID : A_AC3
Duration : 1h 28mn
Sampling rate : 48.0 KHz
Compression mode : Lossy
Title : AVO [-Кашкин-]
Language : Russian
Default : No
Forced : No
Audio #11
ID : 12
Format : AC-3
Format/Info : Audio Coding 3
Codec ID : A_AC3
Duration : 1h 28mn
Channel(s) : 6 channels
Sampling rate : 48.0 KHz
Compression mode : Lossy
Title : Original
Language : English
Default : No
Forced : No
Text #1
ID : 13
Format : UTF-8
Codec ID : S_TEXT/UTF8
Codec ID/Info : UTF-8 Plain Text
Language : Russian
Default : No
Forced : No
Text #2
ID : 14
Format : UTF-8
Codec ID : S_TEXT/UTF8
Codec ID/Info : UTF-8 Plain Text
Title : Songs
Language : Russian
Default : No
Forced : No
Text #3
ID : 15
Format : UTF-8
Codec ID : S_TEXT/UTF8
Codec ID/Info : UTF-8 Plain Text
Language : English
Default : No
Forced : No
Text #4
ID : 16
Format : UTF-8
Codec ID : S_TEXT/UTF8
Codec ID/Info : UTF-8 Plain Text
Title : SDH
Language : English
Default : No
Forced : No

Menu
00:00:00.000 : en:"Circle of Life"
00:04:40.071 : en:Scar
00:08:10.406 : en:Father and Son/Morning Report
00:11:28.979 : en:Uncle Scar
00:14:09.557 : en:"I Just Can't Wait to Be King"
00:17:51.028 : en:Elephant Graveyard
00:22:54.748 : en:Under the Stars
00:25:36.117 : en:"Be Prepared"
00:30:24.197 : en:Stampede
00:35:52.149 : en:The King Is Dead
00:40:14.078 : en:Scar Takes Over
00:41:14.430 : en:Timon and Pumbaa
00:44:16.945 : en:"Hakuna Matata"
00:48:20.564 : en:Scar in Command
00:50:07.212 : en:Pumbaa and Timon Wax Philosophical
00:53:14.774 : en:Nala and Simba Reunite
00:57:50.842 : en:"Can You Feel the Love Tonight"
01:00:56.569 : en:Trouble in Paradise
01:02:32.331 : en:He Lives in You
01:08:49.625 : en:Simba Returns
01:12:41.023 : en:Simba Confronts Scar
01:16:42.306 : en:The Fight
01:20:45.131 : en:Simba Ascends
01:23:23.873 : en:End Credits
Скриншоты




-- --Король Лев 2: Гордость Симбы / The Lion King II: Simba's Pride--«The Circle of Life Continues...»-- Год выпуска: 1998
Страна: CША, Австралия
Жанр: мелодрама, мюзикл, приключения, семейный, мультфильм
Продолжительность: 01:20:50
Перевод: Профессиональный (полное дублирование) [-Лицензия-]- Режиссер: Даррел Руни, Роб ЛаДука
В ролях: Мэттью Бродерик, Мойра Келли, Нив Кэмпбелл, Лиз Колэуэй, Мишель Хорн, Эшли Эднер, Charity Sanoy, Сюзанн Плешетт, Энди Дик, Райан О`Донохью- Описание:
Много времени утекло с тех пор, как лев Симба сверг своего злого дядю Шрама и вернул трон короля саванны. У него и королевы Налы уже подрастает дочь — принцесса Киара.
Однако порученная легкомысленным заботам наших старых знакомых Тимона и Пумбы, проказливая и непослушная Киара пока никак не похожа на будущую королеву. Однажды сбежав в Запретную Землю, она встречает там львенка Кову, который становится ее лучшим другом.
Да только принцесса не знает, что эта дружба может стоить ей короны! Кову — наследник Шрама, и пусть он не пошел в старого интригана, его мать Зира спит и видит, как бы усадить сына на трон.
И чем прочнее дружба между Киарой и Кову, тем гуще тучи над племенем Симбы…
-

Рейтинг G - нет возрастных ограничений!- Качество: BDRip 1080p
Формат: MKV
Видео: AVC, 11.3 Mbps, 1920x1080p, 23.976 fps
Аудио №1: AC3, 5.1, 640 kbps, 6 ch, 48.0 KHz - Russian (полное дублирование) [-Лицензия-]
Аудио №2: AC3, 5.1, 448 kbps, 6 ch, 48.0 KHz - Russian (многоголосый закадровый) [-Карусель-]
Аудио №3: AC3, 5.1, 448 kbps, 6 ch, 48.0 KHz - Russian (одноголосый) [-Ю.Живов-]
Аудио №4: AC3, 5.1, 448 kbps, 6 ch, 48.0 KHz - Russian (одноголосый) [-П.Гланц-]
Аудио №5: AC3, 2.0, 192 kbps, 2 ch, 48.0 KHz - Russian (одноголосый) [-Н.Антонов-]
Аудио №6: AC3, 2.0, 192 kbps, 2 ch, 48.0 KHz - Russian (одноголосый) [-С.Визгунов-]
Аудио №7: AC3, 5.1, 448 kbps, 6 ch, 48.0 KHz - English
Субтитры: Russian [Forced, Full], Ukrainian, English-
Знаете ли вы,что...

• Сцена из начала мультфильма (Рафики представляет жителям королевства маленькую Киару) и финальная сцена оригинального «Короля льва» имеют существенные различия (последовательность действий персонажей, дизайн самого львёнка), однако, согласно логике создателей, это один и тот же эпизод.
• Кову был изначально задуман как сын Шрама, но эту идею отвергли, чтобы избежать возможных неоднозначных предположений об инцесте, поскольку это означало бы, что Киара влюбилась в своего двоюродного дядю.
• Первоначальные версии имен некоторых персонажей: Зира — Бианка, Кову — Нунка, Витани — Шетани.
• В изначальной версии мультфильма смерть Зиры в результате падения не случайна — она умышленно сбросилась с уступа: тот момент, когда Киара протянула Зире лапу, Зира рычит: «Нет… Никогда…» и бросается со скалы. Впоследствии, этот момент был вырезан и переделан, однако на VHS эта сцена осталась.
• Из мультфильма была удалена сцена, когда после презентации Киары зверям саванны Нюка и Витани бегут рассказать Зире о рождении наследника. Это объясняет, откуда она знала о Киаре во время её встречи с Кову.
MediaInfo

General
Unique ID : 229154328109524115714773220211066623659 (0xAC6584AB531DA575ACEA9A6DA08F56AB)
Format : Matroska
Format version : Version 4 / Version 2
File size : 7.95 GiB
Duration : 1h 20mn
Overall bit rate : 14.1 Mbps
Encoded date : UTC 2014-09-28 10:13:16
Writing application : mkvmerge v7.1.0 ('Good Love') 64bit built on Jul 27 2014 13:06:55
Writing library : libebml v1.3.0 + libmatroska v1.4.1
DURATION : 01:14:50.485000000
NUMBER_OF_FRAMES : 851
NUMBER_OF_BYTES : 23223
_STATISTICS_WRITING_APP : mkvmerge v7.1.0 ('Good Love') 64bit built on Jul 27 2014 13:06:55
_STATISTICS_WRITING_DATE_UTC : 2014-09-28 10:13:16
_STATISTICS_TAGS : BPS DURATION NUMBER_OF_FRAMES NUMBER_OF_BYTES
Video
ID : 1
Format : AVC
Format/Info : Advanced Video Codec
Format profile : High@L4.1
Format settings, CABAC : Yes
Format settings, ReFrames : 4 frames
Codec ID : V_MPEG4/ISO/AVC
Duration : 1h 20mn
Nominal bit rate : 11.3 Mbps
Width : 1 920 pixels
Height : 1 080 pixels
Display aspect ratio : 16:9
Frame rate mode : Constant
Frame rate : 23.976 fps
Color space : YUV
Chroma subsampling : 4:2:0
Bit depth : 8 bits
Scan type : Progressive
Bits/(Pixel*Frame) : 0.227
Writing library : x264 core 133 r2334 a3ac64b
Encoding settings : cabac=1 / ref=4 / deblock=1:0:0 / analyse=0x3:0x133 / me=umh / subme=10 / psy=1 / psy_rd=1.00:0.00 / mixed_ref=1 / me_range=32 / chroma_me=1 / trellis=2 / 8x8dct=1 / cqm=0 / deadzone=21,11 / fast_pskip=0 / chroma_qp_offset=-2 / threads=6 / lookahead_threads=1 / sliced_threads=0 / nr=0 / decimate=1 / interlaced=0 / bluray_compat=0 / constrained_intra=0 / bframes=10 / b_pyramid=2 / b_adapt=2 / b_bias=0 / direct=3 / weightb=1 / open_gop=0 / weightp=2 / keyint=240 / keyint_min=24 / scenecut=40 / intra_refresh=0 / rc_lookahead=50 / rc=2pass / mbtree=0 / bitrate=11266 / ratetol=2.0 / qcomp=1.00 / qpmin=0 / qpmax=51 / qpstep=4 / cplxblur=20.0 / qblur=0.5 / vbv_maxrate=40000 / vbv_bufsize=40000 / nal_hrd=none / ip_ratio=1.40 / pb_ratio=1.30 / aq=1:1.00
Language : English
Default : Yes
Forced : No
Color primaries : BT.709
Transfer characteristics : BT.709
Matrix coefficients : BT.709
DURATION : 01:20:49.845000000
NUMBER_OF_FRAMES : 116280
NUMBER_OF_BYTES : 6829970905
_STATISTICS_WRITING_APP : mkvmerge v7.1.0 ('Good Love') 64bit built on Jul 27 2014 13:06:55
_STATISTICS_WRITING_DATE_UTC : 2014-09-28 10:13:16
_STATISTICS_TAGS : BPS DURATION NUMBER_OF_FRAMES NUMBER_OF_BYTES
Audio #1
ID : 2
Format : AC-3
Format/Info : Audio Coding 3
Mode extension : CM (complete main)
Format settings, Endianness : Big
Codec ID : A_AC3
Duration : 1h 20mn
Bit rate mode : Constant
Bit rate : 640 Kbps
Channel(s) : 6 channels
Channel positions : Front: L C R, Side: L R, LFE
Sampling rate : 48.0 KHz
Bit depth : 16 bits
Compression mode : Lossy
Stream size : 370 MiB (5%)
Title : DUB
Language : Russian
Default : Yes
Forced : No
Audio #2
ID : 3
Format : AC-3
Format/Info : Audio Coding 3
Mode extension : CM (complete main)
Format settings, Endianness : Big
Codec ID : A_AC3
Duration : 1h 20mn
Bit rate mode : Constant
Bit rate : 448 Kbps
Channel(s) : 6 channels
Channel positions : Front: L C R, Side: L R, LFE
Sampling rate : 48.0 KHz
Bit depth : 16 bits
Compression mode : Lossy
Stream size : 259 MiB (3%)
Title : MVO [-Карусель-]
Language : Russian
Default : No
Forced : No
Audio #3
ID : 4
Format : AC-3
Format/Info : Audio Coding 3
Mode extension : CM (complete main)
Format settings, Endianness : Big
Codec ID : A_AC3
Duration : 1h 20mn
Bit rate mode : Constant
Bit rate : 448 Kbps
Channel(s) : 6 channels
Channel positions : Front: L C R, Side: L R, LFE
Sampling rate : 48.0 KHz
Bit depth : 16 bits
Compression mode : Lossy
Stream size : 259 MiB (3%)
Title : AVO [-Ю.Живов-]
Language : Russian
Default : No
Forced : No
Audio #4
ID : 5
Format : AC-3
Format/Info : Audio Coding 3
Mode extension : CM (complete main)
Format settings, Endianness : Big
Codec ID : A_AC3
Duration : 1h 20mn
Bit rate mode : Constant
Bit rate : 448 Kbps
Channel(s) : 6 channels
Channel positions : Front: L C R, Side: L R, LFE
Sampling rate : 48.0 KHz
Bit depth : 16 bits
Compression mode : Lossy
Stream size : 259 MiB (3%)
Title : AVO [-П.Гланц-]
Language : Russian
Default : No
Forced : No
Audio #5
ID : 6
Format : AC-3
Format/Info : Audio Coding 3
Mode extension : CM (complete main)
Format settings, Endianness : Big
Codec ID : A_AC3
Duration : 1h 20mn
Bit rate mode : Constant
Bit rate : 192 Kbps
Channel(s) : 2 channels
Channel positions : Front: L R
Sampling rate : 48.0 KHz
Bit depth : 16 bits
Compression mode : Lossy
Stream size : 111 MiB (1%)
Title : AVO [-Н.Антонов-]
Language : Russian
Default : No
Forced : No
Audio #6
ID : 7
Format : AC-3
Format/Info : Audio Coding 3
Mode extension : CM (complete main)
Format settings, Endianness : Big
Codec ID : A_AC3
Duration : 1h 20mn
Bit rate mode : Constant
Bit rate : 192 Kbps
Channel(s) : 2 channels
Channel positions : Front: L R
Sampling rate : 48.0 KHz
Bit depth : 16 bits
Compression mode : Lossy
Stream size : 111 MiB (1%)
Title : AVO [-С.Визгунов-]
Language : Russian
Default : No
Forced : No
Audio #7
ID : 8
Format : AC-3
Format/Info : Audio Coding 3
Codec ID : A_AC3
Duration : 1h 20mn
Channel(s) : 6 channels
Sampling rate : 48.0 KHz
Compression mode : Lossy
Title : Original
Language : English
Default : No
Forced : No
Text #1
ID : 9
Format : UTF-8
Codec ID : S_TEXT/UTF8
Codec ID/Info : UTF-8 Plain Text
Title : Forced
Language : Russian
Default : No
Forced : No
Text #2
ID : 10
Format : UTF-8
Codec ID : S_TEXT/UTF8
Codec ID/Info : UTF-8 Plain Text
Language : Russian
Default : No
Forced : No
Text #3
ID : 11
Format : UTF-8
Codec ID : S_TEXT/UTF8
Codec ID/Info : UTF-8 Plain Text
Language : Ukrainian
Default : No
Forced : No
Text #4
ID : 12
Format : UTF-8
Codec ID : S_TEXT/UTF8
Codec ID/Info : UTF-8 Plain Text
Language : English
Default : No
Forced : No

Menu
00:00:00.000 : en:"He Lives in You"
00:03:33.129 : en:Daddy's Little Princess
00:05:39.005 : en:The Baby-Sitters
00:09:16.055 : en:Alligator Attack
00:14:21.068 : en:"We Are One"
00:19:09.690 : en:The Evil Outside
00:21:48.181 : en:"My Lullaby"
00:26:53.903 : en:Kiara's First Hunt
00:31:02.944 : en:Wildfire!
00:33:00.478 : en:Kovu to the Rescue
00:39:56.268 : en:Just Having Fun
00:44:47.101 : en:Simba Seeks Counsel
00:45:40.446 : en:"Upendi"
00:50:37.951 : en:Ambush!
00:56:15.830 : en:"One of Us"
00:59:51.546 : en:Kiara Defies Her Father
01:01:24.389 : en:"Love Will Find a Way"
01:05:01.439 : en:War!
01:12:54.119 : en:One Once Again
01:15:20.516 : en:End Credits
Скриншоты




-- --Король Лев 3: Хакуна Матата / The Lion King 1½--«You don't know the ½ of it!»-- Год выпуска: 2004
Страна: CША, Австралия
Жанр: комедия, приключения, семейный, мультфильм
Продолжительность: 01:16:15
Перевод: Профессиональный (полное дублирование) [-Лицензия-]- Режиссер: Брэдли Рэймонд
В ролях: Натан Лейн, Эрни Сабелла, Джули Кавнер, Джерри Стиллер, Мэттью Бродерик, Роберт Гийом, Мойра Келли, Вупи Голдберг, Чич Марин, Джим Каммингс- Описание:
Главными героями мультфильма станут всеобщие любимцы Тимон и Пумба! Вы узнаете об этих закадычных друзьях много нового, например, о том, как они впервые встретились, что за потрясающие приключения вместе прожили и на какие удивительные подвиги их сподвигло знаменитое знакомство с будущем королем саванны Симбой.
А также познакомитесь с новыми забавными героями, которые точно не дадут вам скучать — заботливой мамочкой Тимона и его ужасно саркастичным дядей Максом! Скучно не будет!
-

Рейтинг G - нет возрастных ограничений!- Качество: BDRip 1080p
Формат: MKV
Видео: AVC, 8447 kbps, 1828x1080p, 23.976 fps
Аудио №1: AC3, 5.1, 640 kbps, 6 ch, 48.0 KHz - Профессиональный (полное дублирование) [-Лицензия-]
Аудио №2: AC3, 5.1, 384 kbps, 6 ch, 48.0 KHz - Профессиональный (двухголосый)
Аудио №3: AC3, 5.1, 448 kbps, 6 ch, 48.0 KHz - Профессиональный (одноголосый) [-Ю. Живов-]
Аудио №4: AC3, 5.1, 448 kbps, 6 ch, 48.0 KHz - Профессиональный (одноголосый) [-А. Алексеев-]
Аудио №5: AC3, 5.1, 384 kbps, 6 ch, 48.0 KHz - Профессиональный (одноголосый) [-А. Дольский-]
Аудио №6: AC3, 5.1, 448 kbps, 6 ch, 48.0 KHz - English
Субтитры: Russian, Ukrainian, English-
Знаете ли вы,что...

• Название судна в последних кадрах фильма — «Mal De Mer», что в переводе с французского означает «Морская болезнь».
• Капитан Шантель Дюбуа поет для своих приспешников «Non, je ne regrette rien» в течение минуты. Это французская песня, получившая известность после того, как в 1960 году ее записала Эдит Пиаф. Пиаф посвятила запись этой песни французскому отряду иностранных волонтеров, которые до сих пор поют ее на парадах. В соответствии с реакцией мужчин на эту песню, предполагается, что все они служат или служили в этом отряде.
• Когда капитан Шантель Дюбуа распечатывает информацию из своего поиска, персонаж за кадром говорит, что слышит, как начал работать лазерный принтер. Показывают струйный принтер, а звук, использованный для него, взят от матричного принтера.
MediaInfo

General
Unique ID : 234097903560396311771731646024141217058 (0xB01D9DC1CED4382CB4C34C239CCF9D22)
Format : Matroska
Format version : Version 4 / Version 2
File size : 5.96 GiB
Duration : 1h 16mn
Overall bit rate : 11.2 Mbps
Encoded date : UTC 2014-09-28 10:28:25
Writing application : mkvmerge v7.1.0 ('Good Love') 64bit built on Jul 27 2014 13:06:55
Writing library : libebml v1.3.0 + libmatroska v1.4.1
DURATION : 01:09:49.476000000
NUMBER_OF_FRAMES : 790
NUMBER_OF_BYTES : 28295
_STATISTICS_WRITING_APP : mkvmerge v7.1.0 ('Good Love') 64bit built on Jul 27 2014 13:06:55
_STATISTICS_WRITING_DATE_UTC : 2014-09-28 10:28:25
_STATISTICS_TAGS : BPS DURATION NUMBER_OF_FRAMES NUMBER_OF_BYTES
Video
ID : 1
Format : AVC
Format/Info : Advanced Video Codec
Format profile : High@L4.1
Format settings, CABAC : Yes
Format settings, ReFrames : 4 frames
Codec ID : V_MPEG4/ISO/AVC
Duration : 1h 16mn
Bit rate : 8 447 Kbps
Width : 1 828 pixels
Height : 1 080 pixels
Display aspect ratio : 1.693
Frame rate mode : Constant
Frame rate : 23.976 fps
Color space : YUV
Chroma subsampling : 4:2:0
Bit depth : 8 bits
Scan type : Progressive
Bits/(Pixel*Frame) : 0.178
Stream size : 4.37 GiB (73%)
Writing library : x264 core 133 r2334 a3ac64b
Encoding settings : cabac=1 / ref=4 / deblock=1:0:0 / analyse=0x3:0x133 / me=umh / subme=10 / psy=1 / psy_rd=1.00:0.00 / mixed_ref=1 / me_range=32 / chroma_me=1 / trellis=2 / 8x8dct=1 / cqm=0 / deadzone=21,11 / fast_pskip=0 / chroma_qp_offset=-2 / threads=6 / lookahead_threads=1 / sliced_threads=0 / nr=0 / decimate=1 / interlaced=0 / bluray_compat=0 / constrained_intra=0 / bframes=10 / b_pyramid=2 / b_adapt=2 / b_bias=0 / direct=3 / weightb=1 / open_gop=0 / weightp=2 / keyint=240 / keyint_min=24 / scenecut=40 / intra_refresh=0 / rc_lookahead=50 / rc=2pass / mbtree=0 / bitrate=8447 / ratetol=2.0 / qcomp=1.00 / qpmin=0 / qpmax=51 / qpstep=4 / cplxblur=20.0 / qblur=0.5 / vbv_maxrate=38000 / vbv_bufsize=30000 / nal_hrd=none / ip_ratio=1.40 / pb_ratio=1.30 / aq=1:1.00
Language : English
Default : Yes
Forced : No
Color primaries : BT.709
Transfer characteristics : BT.709
Matrix coefficients : BT.709
DURATION : 01:16:14.612000000
NUMBER_OF_FRAMES : 109681
NUMBER_OF_BYTES : 4820730811
_STATISTICS_WRITING_APP : mkvmerge v7.1.0 ('Good Love') 64bit built on Jul 27 2014 13:06:55
_STATISTICS_WRITING_DATE_UTC : 2014-09-28 10:28:25
_STATISTICS_TAGS : BPS DURATION NUMBER_OF_FRAMES NUMBER_OF_BYTES
Audio #1
ID : 2
Format : AC-3
Format/Info : Audio Coding 3
Mode extension : CM (complete main)
Format settings, Endianness : Big
Codec ID : A_AC3
Duration : 1h 16mn
Bit rate mode : Constant
Bit rate : 640 Kbps
Channel(s) : 6 channels
Channel positions : Front: L C R, Side: L R, LFE
Sampling rate : 48.0 KHz
Bit depth : 16 bits
Compression mode : Lossy
Stream size : 349 MiB (6%)
Title : DUB
Language : Russian
Default : Yes
Forced : No
Audio #2
ID : 3
Format : AC-3
Format/Info : Audio Coding 3
Mode extension : CM (complete main)
Format settings, Endianness : Big
Codec ID : A_AC3
Duration : 1h 16mn
Bit rate mode : Constant
Bit rate : 384 Kbps
Channel(s) : 6 channels
Channel positions : Front: L C R, Side: L R, LFE
Sampling rate : 48.0 KHz
Bit depth : 16 bits
Compression mode : Lossy
Stream size : 209 MiB (3%)
Title : DVO
Language : Russian
Default : No
Forced : No
Audio #3
ID : 4
Format : AC-3
Format/Info : Audio Coding 3
Mode extension : CM (complete main)
Format settings, Endianness : Big
Codec ID : A_AC3
Duration : 1h 16mn
Bit rate mode : Constant
Bit rate : 448 Kbps
Channel(s) : 6 channels
Channel positions : Front: L C R, Side: L R, LFE
Sampling rate : 48.0 KHz
Bit depth : 16 bits
Compression mode : Lossy
Stream size : 244 MiB (4%)
Title : AVO [-Ю. Живов-]
Language : Russian
Default : No
Forced : No
Audio #4
ID : 5
Format : AC-3
Format/Info : Audio Coding 3
Mode extension : CM (complete main)
Format settings, Endianness : Big
Codec ID : A_AC3
Duration : 1h 16mn
Bit rate mode : Constant
Bit rate : 448 Kbps
Channel(s) : 6 channels
Channel positions : Front: L C R, Side: L R, LFE
Sampling rate : 48.0 KHz
Bit depth : 16 bits
Compression mode : Lossy
Stream size : 244 MiB (4%)
Title : AVO [-А. Алексеев-]
Language : Russian
Default : No
Forced : No
Audio #5
ID : 6
Format : AC-3
Format/Info : Audio Coding 3
Mode extension : CM (complete main)
Format settings, Endianness : Big
Codec ID : A_AC3
Duration : 1h 16mn
Bit rate mode : Constant
Bit rate : 384 Kbps
Channel(s) : 6 channels
Channel positions : Front: L C R, Side: L R, LFE
Sampling rate : 48.0 KHz
Bit depth : 16 bits
Compression mode : Lossy
Stream size : 209 MiB (3%)
Title : AVO [-А. Дольский-]
Language : Russian
Default : No
Forced : No
Audio #6
ID : 7
Format : AC-3
Format/Info : Audio Coding 3
Mode extension : CM (complete main)
Format settings, Endianness : Big
Codec ID : A_AC3
Duration : 1h 16mn
Bit rate mode : Constant
Bit rate : 448 Kbps
Channel(s) : 6 channels
Channel positions : Front: L C R, Side: L R, LFE
Sampling rate : 48.0 KHz
Bit depth : 16 bits
Compression mode : Lossy
Stream size : 244 MiB (4%)
Title : Original
Language : English
Default : No
Forced : No
Text #1
ID : 8
Format : UTF-8
Codec ID : S_TEXT/UTF8
Codec ID/Info : UTF-8 Plain Text
Language : Russian
Default : No
Forced : No
Text #2
ID : 9
Format : UTF-8
Codec ID : S_TEXT/UTF8
Codec ID/Info : UTF-8 Plain Text
Language : Ukrainian
Default : No
Forced : No
Text #3
ID : 10
Format : UTF-8
Codec ID : S_TEXT/UTF8
Codec ID/Info : UTF-8 Plain Text
Language : English
Default : No
Forced : No

Menu
00:00:00.000 : en:Before The Beginning
00:01:56.116 : en:Main Title/The Meerakts' Habitat
00:08:22.543 : en:"That's All I Need"
00:12:28.164 : en:Leaving Home
00:17:00.686 : en:A New Acquaintance
00:22:34.519 : en:Dream Home #1
00:29:19.466 : en:Real Estate Ventures
00:34:20.558 : en:Paradise At Last
00:38:19.005 : en:Sing Along: "Hakuna Matata"
00:40:22.169 : en:Simba Joins The Club
00:45:33.021 : en:Growing Up Together
00:50:09.423 : en:Nala's Return
00:54:52.455 : en:Timon Alone
00:59:02.872 : en:Return To The Pride Lands
01:06:18.432 : en:The Big Wrap-Up
01:10:25.012 : en:End Credits
Скриншоты




[Профиль] [ЛС]
Показать сообщения:    
Ответить на тему

Текущее время: 18-Ноя 18:28

Часовой пояс: UTC + 3



Вы не можете начинать темы
Вы не можете отвечать на сообщения
Вы не можете редактировать свои сообщения
Вы не можете удалять свои сообщения
Вы не можете голосовать в опросах
Вы не можете прикреплять файлы к сообщениям
Вы не можете скачивать файлы