Салам, New York / Salam, New York (Руслан Акун / Ruslan Akun) [2013, Кыргызстан, драма, WEB-DLRip 720P]

Ответить на тему
 
Автор Сообщение

Mithas204 ®

Пол: Мужской

Стаж: 7 года 7 месяца

Сообщений: 12567

Откуда: Душанбе, Курган-Тюбе

Создавать темы 05-Дек-2014 19:28

[Цитировать]

--Салам, New York / Salam, New York -- Страна: Кыргызстан
Жанр: Драма
Год выпуска: 2013
Перевод: Двухголосный закадровый (Перевод английской речи)
Субтитры: Нет
Продолжительность: 02:11:50-Режиссёр: Руслан Акун-В ролях: Бектемир Мамаюсупов, Аида Тулебаева, Фредд Трим, Юлия Даурова, Сергей Смойлович, Алекс Мейзлин, Даниэль Бурканов--Описание: Фильм повествует о приключениях парня из Кыргызстана в удивительном мегаполисе! Сможет ли он обрести любовь, дружбу, счастье, успех на чужбине? Через что приходится пройти, чтобы добиться своей мечты? Отправьтесь вместе с «Салам, New York» в незабываемое путешествие!--Дата мировой премьеры: 14.02.2013--Качество видео: WEB-DLRip 720P
Видеокодек: MPEG-4 AVC/H.264
Формат видео: MP4
Видео: 1280×720 (16:9), 25 fps, XviD MPEG-4 ~2500 kbps avg, 0.223 bit/pixel
Аудио: 48 kHz, AAC , 2/0 (L,R) ch, 147 kbps VBR--
Скриншоты






Последний раз редактировалось: Mithas204 (2014-12-05 19:54), всего редактировалось 3 раз(а)
[Профиль] [ЛС]

Mithas204 ®

Пол: Мужской

Стаж: 7 года 7 месяца

Сообщений: 12567

Откуда: Душанбе, Курган-Тюбе

Создавать темы 05-Дек-2014 19:50 (спустя 21 минута)

[Цитировать]

Источник http://nnm-club.me/forum/viewtopic.php?t=755373
добавлено спустя:
Info
Video
ID : 1
Format : AVC
Format/Info : Advanced Video Codec
Format profile : High@L3.1
Format settings, CABAC : Yes
Format settings, ReFrames : 4 frames
Codec ID : avc1
Codec ID/Info : Advanced Video Coding
Duration : 2h 11mn
Bit rate : 2 500 Kbps
Width : 1 280 pixels
Height : 720 pixels
Display aspect ratio : 16:9
Frame rate mode : Constant
Frame rate : 25.000 fps
Color space : YUV
Chroma subsampling : 4:2:0
Bit depth : 8 bits
Scan type : Progressive
Bits/(Pixel*Frame) : 0.109
Stream size : 2.29 GiB (94%)
Writing library : x264 core 140 r2377 1ca7bb9
Encoding settings : cabac=1 / ref=3 / deblock=1:0:0 / analyse=0x3:0x113 / me=hex / subme=7 / psy=1 / psy_rd=1.00:0.00 / mixed_ref=1 / me_range=16 / chroma_me=1 / trellis=1 / 8x8dct=1 / cqm=0 / deadzone=21,11 / fast_pskip=1 / chroma_qp_offset=-2 / threads=12 / lookahead_threads=2 / sliced_threads=0 / nr=0 / decimate=1 / interlaced=0 / bluray_compat=0 / stitchable=1 / constrained_intra=0 / bframes=3 / b_pyramid=2 / b_adapt=1 / b_bias=0 / direct=1 / weightb=1 / open_gop=0 / weightp=2 / keyint=75 / keyint_min=25 / scenecut=40 / intra_refresh=0 / rc_lookahead=40 / rc=2pass / mbtree=1 / bitrate=2500 / ratetol=1.0 / qcomp=0.60 / qpmin=5 / qpmax=69 / qpstep=4 / cplxblur=20.0 / qblur=0.5 / vbv_maxrate=3750 / vbv_bufsize=12500 / nal_hrd=none / filler=0 / ip_ratio=1.40 / aq=1:1.00
Encoded date : UTC 2014-02-08 02:14:45
Tagged date : UTC 2014-02-08 02:14:45
Color primaries : BT.709
Transfer characteristics : BT.709
Matrix coefficients : BT.709
Audio
ID : 2
Format : AAC
Format/Info : Advanced Audio Codec
Format profile : LC
Codec ID : 40
Duration : 2h 11mn
Bit rate mode : Variable
Bit rate : 147 Kbps
Channel(s) : 2 channels
Channel positions : Front: L R
Sampling rate : 48.0 KHz
Compression mode : Lossy
Stream size : 139 MiB (6%)
Encoded date : UTC 2014-02-08 02:14:45
Tagged date : UTC 2014-02-08 02:14:45
[Профиль] [ЛС]

vip.snop1k

Пол: Мужской

Стаж: 3 года 5 месяца

Сообщений: 1054

Откуда: Dyshka-City

Создавать темы 05-Дек-2014 20:42 (спустя 52 минуты)

[Цитировать]

Mithas204
источник ссылки не открывается !
https://nnm-club.me/forum/viewtopic.php?t=755373 теперь, попробуй
[Профиль] [ЛС]

torretto.01

Пол: Мужской

Стаж: 3 года 11 месяца

Сообщений: 5300

Создавать темы 05-Дек-2014 20:46 (спустя 3 минуты)

[Цитировать]

Mithas204
источник ссылки не открывается !
https://nnm-club.me/forum/viewtopic.php?t=755373 теперь, попробуй
Зашёл, Красава! :)
[Профиль] [ЛС]

rammstein8800

Пол: Мужской

Стаж: 3 года 4 месяца

Сообщений: 867

Создавать темы 05-Дек-2014 21:52 (спустя 1 час 5 минуты)

[Цитировать]

классный фильм!!!!
[Профиль] [ЛС]

Ser

Пол: Мужской

Стаж: 7 года 2 месяца

Сообщений: 713

Откуда: Курган-Сити

Создавать темы 06-Дек-2014 07:10 (спустя 9 часа)

[Цитировать]

классный фильм!!!!
+1
[Профиль] [ЛС]

torretto.01

Пол: Мужской

Стаж: 3 года 11 месяца

Сообщений: 5300

Создавать темы 06-Дек-2014 09:26 (спустя 2 часа 15 минуты)

[Цитировать]

классный фильм!!!!
+++
[Профиль] [ЛС]

Mithas204 ®

Пол: Мужской

Стаж: 7 года 7 месяца

Сообщений: 12567

Откуда: Душанбе, Курган-Тюбе

Создавать темы 17-Авг-2015 12:48 (спустя 8 месяца 11 дня)

[Цитировать]

классный фильм!!!!
+++
+++
[Профиль] [ЛС]
Показать сообщения:    
Ответить на тему

Текущее время: 23-Июл 07:43

Часовой пояс: UTC + 3



Вы не можете начинать темы
Вы не можете отвечать на сообщения
Вы не можете редактировать свои сообщения
Вы не можете удалять свои сообщения
Вы не можете голосовать в опросах
Вы не можете прикреплять файлы к сообщениям
Вы не можете скачивать файлы