Восьмидесятые (Сезон 4 / Серии 1-10 из 20) [2014 г., Комедия, ситком , SATRip ]

Ответить на тему
 
Автор Сообщение

[VIP]ABDURAXA[VIP] ®

Пол: Мужской

Стаж: 5 лет 2 месяца

Сообщений: 9175

Создавать темы 15-Сен-2014 13:35

[Цитировать]

- Год выпуска: 2014
Страны: Россия
Жанры: комедия
Продолжительность: 00:24:31
Перевод: Не требуется- Режиссер: Фёдор Стуков- В ролях: Александр Якин (Ваня), Наталья Земцова (Инга Бородина), Александр Половцев (Гена, отец Вани), Мария Аронова (Люда, мать Вани), Леонид Громов , Дмитрий Белоцерковский (Сергей Яковлев), Юлия Стадник , Саша Новицкий (Миша Смирнов, младший брат Вани)
- Эта история началась еще в 1986 году. Уже шла перестройка, но Советский Союз еще не распался. Это было время, когда не было интернета, гипермаркетов и даже мобильных телефонов, но зато воду пили из-под крана, в Москве не было пробок, а ключи от квартиры спокойно оставляли под ковриком.-Премьера (РФ): 14 сентября 2014- Качество: SATRip
Формат: AVI
Видео кодек: XviD
Аудио кодек: MP3
Видео: 720x400 (16:9), 25.000 fps, DivX 5, 1 500 Kbps
Аудио: MP3, 128 Kbps, 48.0 KHz, 2 ch| -
МедиаИнфо
General
Complete name                    : 80e.s04.e01.SATRip.avi
Format                           : AVI
Format/Info                      : Audio Video Interleave
File size                        : 288 MiB
Duration                         : 24mn 31s
Overall bit rate                 : 1 643 Kbps
Video
ID                               : 0
Format                           : MPEG-4 Visual
Format settings, BVOP            : Yes
Format settings, QPel            : No
Format settings, GMC             : No warppoints
Format settings, Matrix          : Default (H.263)
Codec ID                         : DX50
Codec ID/Hint                    : DivX 5
Duration                         : 24mn 31s
Bit rate                         : 1 500 Kbps
Width                            : 720 pixels
Height                           : 400 pixels
Display aspect ratio             : 16:9
Frame rate                       : 25.000 fps
Color space                      : YUV
Chroma subsampling               : 4:2:0
Bit depth                        : 8 bits
Scan type                        : Progressive
Bits/(Pixel*Frame)               : 0.208
Stream size                      : 263 MiB (91%)
Writing library                  : DivX 6.8.5 (UTC 2009-08-20)
Audio
ID                               : 1
Format                           : MPEG Audio
Format version                   : Version 1
Format profile                   : Layer 3
Mode                             : Joint stereo
Mode extension                   : MS Stereo
Codec ID                         : 55
Codec ID/Hint                    : MP3
Duration                         : 24mn 31s
Bit rate mode                    : Constant
Bit rate                         : 128 Kbps
Channel(s)                       : 2 channels
Sampling rate                    : 48.0 KHz
Stream size                      : 22.5 MiB (8%)
Alignment                        : Aligned on interleaves
Interleave, duration             : 24 ms (0.60 video frame)
Скриншоты




Последний раз редактировалось: [VIP]ABDURAXA[VIP] (2014-09-29 19:02), всего редактировалось 13 раз(а)
[Профиль] [ЛС]

[VIP]ABDURAXA[VIP] ®

Пол: Мужской

Стаж: 5 лет 2 месяца

Сообщений: 9175

Создавать темы 15-Сен-2014 13:35 (спустя 40 секунд)

[Цитировать]

- - - -
добавлено спустя 1 час 4 минуты:
2 - Серия
[Профиль] [ЛС]

~B and F~

Пол: Мужской

Стаж: 5 лет 1 месяц

Сообщений: 658

Откуда: USA

Создавать темы 15-Сен-2014 14:45 (спустя 1 час 10 минут)

[Цитировать]

Чета не качается
[Профиль] [ЛС]

Mithas204

Пол: Мужской

Стаж: 8 лет 11 месяцев

Сообщений: 13811

Откуда: Душанбе, Курган-Тюбе

Создавать темы 15-Сен-2014 15:30 (спустя 44 минуты)

[Цитировать]

[VIP]ABDURAXA[VIP] 720 P нету?
[Профиль] [ЛС]

[VIP]ABDURAXA[VIP] ®

Пол: Мужской

Стаж: 5 лет 2 месяца

Сообщений: 9175

Создавать темы 15-Сен-2014 16:34 (спустя 1 час 3 минуты)

[Цитировать]

[VIP]ABDURAXA[VIP] 720 P нету?
SATRip ? :D Да, очень жалко что сериал только в SATRip :(
[Профиль] [ЛС]

[VIP]ABDURAXA[VIP] ®

Пол: Мужской

Стаж: 5 лет 2 месяца

Сообщений: 9175

Создавать темы 16-Сен-2014 16:39 (спустя 1 день)

[Цитировать]

3 - Серия
[Профиль] [ЛС]

[VIP]ABDURAXA[VIP] ®

Пол: Мужской

Стаж: 5 лет 2 месяца

Сообщений: 9175

Создавать темы 17-Сен-2014 15:53 (спустя 23 часа)

[Цитировать]

4 - Серия
[Профиль] [ЛС]

[VIP]ABDURAXA[VIP] ®

Пол: Мужской

Стаж: 5 лет 2 месяца

Сообщений: 9175

Создавать темы 19-Сен-2014 10:46 (спустя 1 день 18 часов)

[Цитировать]

5 - Серия
[Профиль] [ЛС]

[VIP]ABDURAXA[VIP] ®

Пол: Мужской

Стаж: 5 лет 2 месяца

Сообщений: 9175

Создавать темы 22-Сен-2014 13:58 (спустя 3 дня)

[Цитировать]

6 - Серия
[Профиль] [ЛС]

[VIP]ABDURAXA[VIP] ®

Пол: Мужской

Стаж: 5 лет 2 месяца

Сообщений: 9175

Создавать темы 23-Сен-2014 14:27 (спустя 1 день)

[Цитировать]

7 - Серия
[Профиль] [ЛС]

[VIP]ABDURAXA[VIP] ®

Пол: Мужской

Стаж: 5 лет 2 месяца

Сообщений: 9175

Создавать темы 24-Сен-2014 18:31 (спустя 1 день 4 часа)

[Цитировать]

8 - Серия
[Профиль] [ЛС]

[VIP]ABDURAXA[VIP] ®

Пол: Мужской

Стаж: 5 лет 2 месяца

Сообщений: 9175

Создавать темы 25-Сен-2014 14:05 (спустя 19 часов)

[Цитировать]

9 - Серия
[Профиль] [ЛС]

[VIP]ABDURAXA[VIP] ®

Пол: Мужской

Стаж: 5 лет 2 месяца

Сообщений: 9175

Создавать темы 29-Сен-2014 19:02 (спустя 4 дня)

[Цитировать]

10 - Серия
[Профиль] [ЛС]

Mithas204

Пол: Мужской

Стаж: 8 лет 11 месяцев

Сообщений: 13811

Откуда: Душанбе, Курган-Тюбе

Создавать темы 07-Окт-2014 14:22 (спустя 7 дней)

[Цитировать]

[VIP]ABDURAXA[VIP] Асалом бародари азиз. Обнови раздачу вечером, если будет возможность, а то уже 15 серия вышла, если мне не изменяет память за ранее благодарен.
[Профиль] [ЛС]

Mithas204

Пол: Мужской

Стаж: 8 лет 11 месяцев

Сообщений: 13811

Откуда: Душанбе, Курган-Тюбе

Создавать темы 08-Окт-2014 21:06 (спустя 1 день 6 часов)

[Цитировать]

?!
[Профиль] [ЛС]

Mithas204

Пол: Мужской

Стаж: 8 лет 11 месяцев

Сообщений: 13811

Откуда: Душанбе, Курган-Тюбе

Создавать темы 09-Окт-2014 21:19 (спустя 1 день)

[Цитировать]

Продолжение Восьмидесятые / Сезон: 4 / Серии: 1-20 из 20 (Юлия Лёвкина) [2014, Комедия, SATRip]
[Профиль] [ЛС]

Создавать темы 04-Апр-2015 14:59 (спустя 5 месяцев 25 дней)

Топик был перенесен из форума Восьмидесятые в форум Архив

Mithas204
 
Показать сообщения:    
Ответить на тему

Текущее время: 19-Ноя 11:13

Часовой пояс: UTC + 3



Вы не можете начинать темы
Вы не можете отвечать на сообщения
Вы не можете редактировать свои сообщения
Вы не можете удалять свои сообщения
Вы не можете голосовать в опросах
Вы не можете прикреплять файлы к сообщениям
Вы не можете скачивать файлы