Нация Z / Z Nation [01x01-03 из 13] (2014,Джон Хайамс) WEB-DLRip HD1080p | BaibaKo

Ответить на тему
 
Автор Сообщение

798136tt ®

Пол: Мужской

Стаж: 7 лет 2 месяца

Сообщений: 410

Создавать темы 14-Сен-2014 13:02

[Цитировать]

-◈Нация Z / Z Nation◈ -Информация о фильме:
✦ Название: Нация Z
✦ Оригинальное название: Z Nation
✦ Год выхода: 2014
✦ Жанр: хоррор, экшен, зомби, апокалипсис
✦ Страна: США
✦ Продолжительность: ~ 00:43:00 серия
✦ Перевод: Профессиональный (многоголосый, закадровый) - BaibaKo
✦ Режиссер: Джон Хайамс, Абрам Кокс, Рэйчел Голденберг-✦В ролях: Abie Ekenezar (Camper), Christy Choi (Brittany), Phil Andrade (Tattooed Prisoner), Брайан Сазерленд / Brian Sutherland (Jacob), James Sweet (Berman), Pisay Pao (Cassandra (2014)), Кит Аллан / Keith Allan (Murphy), Анастасия Баранова / Anastasia Baranova (Addy), Расселл Ходжкинсон / Russell Hodgkinson (Doc), Хэролд Перрино / Harold Perrineau (Hammond), DJ Куаллс / DJ Qualls (Citizen Z), Том Эверетт Скотт / Tom Everett Scott (Garnett), Келлита Смит / Kellita Smith (Warren), Майкл Уэлш / Michael Welch (Mack)
-Описание фильма:
Спустя три года после того, как вирус зомби распространился и выпотрошил всю страну, команда героев должна перевезти единственного известного оставшегося в живых от действия чумы из Нью-Йорка в Калифорнию, где последняя функционирующая вирусная лаборатория ждет его крови. Хотя антитела, которые он несет, являются последней надеждой мира получить вакцину, он скрывает мрачную тайну, которая угрожает им всем. Выживание человечества под угрозой, когда разношерстная группа предпринимает путешествие длиной в пять тысяч километров по опустошенной, постапокалиптической Америке.-Информация о файле:
✦Качество: HD1080p WEB-DL
✦Формат: mkv
✦Видео: AVC High@L4.0 4933 Кбит/сек 1920x1080 (1.778) 23.976 кадр/сек
✦Audio ru: AC-3 6 каналов 48,0 КГц 384 Кбит/сек
✦Audio en: AC-3 6 каналов 48,0 КГц 384 Кбит/сек-
Медиа Инфо
General
Unique ID : 174345682945694342101608671511736967490 (0x8329C1D451936575BE4D372BAC2F6142)
Format : Matroska
Format version : Version 4 / Version 2
File size : 1.75 GiB
Duration : 43mn 1s
Overall bit rate : 5 817 Kbps
Encoded date : UTC 2014-09-13 21:35:12
Writing application : mkvmerge v6.7.0 ('Back to the Ground') 64bit built on Jan 8 2014 15:10:52
Writing library : libebml v1.3.0 + libmatroska v1.4.1
Video
ID : 1
Format : AVC
Format/Info : Advanced Video Codec
Format profile : High@L4.0
Format settings, CABAC : Yes
Format settings, ReFrames : 4 frames
Codec ID : V_MPEG4/ISO/AVC
Duration : 43mn 1s
Bit rate : 4 933 Kbps
Width : 1 920 pixels
Height : 1 080 pixels
Display aspect ratio : 16:9
Frame rate mode : Constant
Frame rate : 23.976 fps
Color space : YUV
Chroma subsampling : 4:2:0
Bit depth : 8 bits
Scan type : Progressive
Bits/(Pixel*Frame) : 0.099
Stream size : 1.48 GiB (85%)
Language : English
Default : Yes
Forced : No
Color primaries : BT.709
Transfer characteristics : BT.709
Matrix coefficients : BT.709
Audio #1
ID : 2
Format : AC-3
Format/Info : Audio Coding 3
Mode extension : CM (complete main)
Format settings, Endianness : Big
Codec ID : A_AC3
Duration : 43mn 1s
Bit rate mode : Constant
Bit rate : 384 Kbps
Channel(s) : 6 channels
Channel positions : Front: L C R, Side: L R, LFE
Sampling rate : 48.0 KHz
Bit depth : 16 bits
Compression mode : Lossy
Stream size : 118 MiB (7%)
Language : Russian
Default : Yes
Forced : No
Audio #2
ID : 3
Format : AC-3
Format/Info : Audio Coding 3
Mode extension : CM (complete main)
Format settings, Endianness : Big
Codec ID : A_AC3
Duration : 43mn 1s
Bit rate mode : Constant
Bit rate : 384 Kbps
Channel(s) : 6 channels
Channel positions : Front: L C R, Side: L R, LFE
Sampling rate : 48.0 KHz
Bit depth : 16 bits
Compression mode : Lossy
Stream size : 118 MiB (7%)
Language : English
Default : No
Forced : No
-
Скриншоты



-


Последний раз редактировалось: 798136tt (2014-09-28 08:02), всего редактировалось 3 раз(а)
[Профиль] [ЛС]

798136tt ®

Пол: Мужской

Стаж: 7 лет 2 месяца

Сообщений: 410

Создавать темы 21-Сен-2014 11:15 (спустя 6 дней)

[Цитировать]

Добавлена 2 серия !
[Профиль] [ЛС]

798136tt ®

Пол: Мужской

Стаж: 7 лет 2 месяца

Сообщений: 410

Создавать темы 28-Сен-2014 08:03 (спустя 6 дней)

[Цитировать]

Добавлена 3 серия !
[Профиль] [ЛС]

Lider9224

Пол: Мужской

Стаж: 4 года 4 месяца

Сообщений: 10

Создавать темы 03-Дек-2014 12:22 (спустя 2 месяца 5 дней)

[Цитировать]

Пожалуйста добавте продолжение в HD1080p WEB-DL заранме СПАСИБО....
[Профиль] [ЛС]

Создавать темы 02-Янв-2015 08:00 (спустя 29 дней)

Топик был перенесен из форума Зарубежные сериалы в форум Архив

Mithas204
 
Показать сообщения:    
Ответить на тему

Текущее время: 25-Июн 03:20

Часовой пояс: UTC + 3



Вы не можете начинать темы
Вы не можете отвечать на сообщения
Вы не можете редактировать свои сообщения
Вы не можете удалять свои сообщения
Вы не можете голосовать в опросах
Вы не можете прикреплять файлы к сообщениям
Вы не можете скачивать файлы