Годзилла в 3Д / Godzilla 3D (Гарет Эдвардс / Gareth Edwards) [2014, Фантастика, Боевик, Триллер, BDrip-AVC] Half OverUnder / Вертикальная анаморфная стереопара

Ответить на тему
 
Автор Сообщение

siroji_amir ®

Пол: Мужской

Стаж: 7 лет 6 месяцев

Сообщений: 813

Создавать темы 13-Сен-2014 15:56

[Цитировать]

-Годзилла
Godzilla
Год выпуска: 2014
Страна: США, Япония (Warner Bros. Pictures, Legendary Pictures)
Жанр: Фантастика, Боевик, Триллер
Продолжительность: 2:03:07
Перевод: Профессиональный дублированный (лицензия)
Режиссер: Гарет Эдвардс / Gareth Edwards-Роли исполняли (дублировали): Ford Brody - Аарон Тейлор-Джонсон (Антон Эльдаров), Dr. Ishiro Serizawa - Кен Ватанабе (Алексей Рязанцев), Elle Brody - Элизабет Олсен (Вероника Саркисова), Vivienne Graham - Салли Хокинс (Елена Ивасишина), Joe Brody - Брайан Крэнстон (Александр Груздев), Admiral William Stenz - Дэвид Стрэтэйрн (Василий Бочкарев), Captain Russell Hampton - Ричард Т. Джонс (Михаил Белякович), Sandra Brody - Жюльет Бинош (Елена Харитонова), Sergeant Tre Morales - Виктор Расук, Lieutenant Commander Marcus Waltz - Патрик Сабонгуй (Василий Дахненко), Jump Master - Джаред Кисо
-Описание: Человечество случайно разбудило гигантское древнее существо, что повлекло за собой ужасающие последствия…-Бюджет: $160 000 000
​Сборы в США: $200 616 740
​Сборы в мире: + $307 300 000 = $507 916 740
​Сборы в России: $15 093 806
​Зрители: Мексика 2.03 млн, Россия 1.9 млн.​, Корея Южная 527.8 тыс.​
​Премьера (мир): 8 мая 2014, ...
​Премьера (РФ): 15 мая 2014, «Каро-Премьер» 3D
​Релиз на DVD: 18 сентября 2014, «CP Дистрибуция», ...
​Релиз на Blu-Ray: 18 сентября 2014, «CP Дистрибуция», ...
​Рейтинг MPAA: Детям до 13 лет просмотр не желателен
-Качество: BDRip (by Ash61)
Контейнер: MKV
Формат 3D: Half OverUnder / Вертикальная анаморфная стереопара
Порядок ракурсов: левый ракурс первый
Видео кодек: x264
Аудио кодек: AC3-

Видео: AVC / 23,976 fps / 1920х1080p / ~5.9 Mbps
Аудио:
#1 - Русский / AC3 / 48 KHz / 5.1 ch / 448 Kbps (Дубляж - BD CEE)
#2 - Украинский / AC3 / 48 KHz / 5.1 ch / 448 Kbps (Дубляж - BD CEE)
#3 - Английский / AC3 / 48 KHz / 5.1 ch / 640 Kbps (Original - BD 3D)

Субтитры: (SRT)
Вшитые (softsub):
#1 - Русские Форсированные (включены по умолчанию)
#2 - Русские Полные
#3 - Украинские Форсированные
#4 - Украинские Полные
#5 - English Full (i)
#6 - English SDH (i)
#7 - English SDH-Colored (i)
Внешние ( UTF-8 ):
#1 - Русские Форсированные (включены по умолчанию)
#2 - Украинские Форсированные
-
Лог кодирования и MediaInfo
General
Unique ID : 191417831153080245497003695232151987994 (0x9001BBB8F118F0F58D81143A080C271A)
Complete name : E:\Godzilla(2014)3D-halfOU(Ash61)\Godzilla(2014)3D-halfOU(Ash61).mkv
Format : Matroska
Format version : Version 2
File size : 6.57 GiB
Duration : 2h 3mn
Overall bit rate : 7 635 Kbps
Movie name : Годзилла / Godzilla (2014) 3D
Encoded date : UTC 2014-09-10 14:38:41
Writing application : mkvmerge v5.8.0 ('No Sleep / Pillow') built on Sep 2 2012 15:37:04
Writing library : libebml v1.2.3 + libmatroska v1.3.0
Video
ID : 1
Format : AVC
Format/Info : Advanced Video Codec
Format profile : High@L4.1
Format settings, CABAC : Yes
Format settings, ReFrames : 4 frames
Codec ID : V_MPEG4/ISO/AVC
Duration : 2h 3mn
Bit rate : 5 947 Kbps
Width : 1 920 pixels
Height : 1 080 pixels
Display aspect ratio : 16:9
Frame rate mode : Constant
Frame rate : 23.976 fps
Color space : YUV
Chroma subsampling : 4:2:0
Bit depth : 8 bits
Scan type : Progressive
Bits/(Pixel*Frame) : 0.120
Stream size : 5.11 GiB (78%)
Title : BDRip by Ash61
Writing library : x264 core 138 r2358 9e941d1
Encoding settings : cabac=1 / ref=4 / deblock=1:-3:-3 / analyse=0x3:0x113 / me=umh / subme=10 / psy=1 / psy_rd=1.00:0.15 / mixed_ref=1 / me_range=32 / chroma_me=1 / trellis=2 / 8x8dct=1 / cqm=0 / deadzone=21,11 / fast_pskip=1 / chroma_qp_offset=-3 / threads=12 / lookahead_threads=3 / sliced_threads=0 / nr=0 / decimate=1 / interlaced=0 / bluray_compat=0 / constrained_intra=0 / bframes=10 / b_pyramid=2 / b_adapt=2 / b_bias=0 / direct=3 / weightb=1 / open_gop=0 / weightp=2 / keyint=250 / keyint_min=23 / scenecut=40 / intra_refresh=0 / rc_lookahead=60 / rc=crf / mbtree=1 / crf=17.0 / qcomp=0.70 / qpmin=0 / qpmax=69 / qpstep=4 / vbv_maxrate=40000 / vbv_bufsize=30000 / crf_max=0.0 / nal_hrd=none / frame-packing=4 / ip_ratio=1.40 / aq=1:0.70
Language : English
Default : Yes
Forced : No
Audio #1
ID : 2
Format : AC-3
Format/Info : Audio Coding 3
Mode extension : CM (complete main)
Format settings, Endianness : Big
Codec ID : A_AC3
Duration : 2h 3mn
Bit rate mode : Constant
Bit rate : 448 Kbps
Channel(s) : 6 channels
Channel positions : Front: L C R, Side: L R, LFE
Sampling rate : 48.0 KHz
Bit depth : 16 bits
Compression mode : Lossy
Stream size : 395 MiB (6%)
Title : Дубляж - BD CEE
Language : Russian
Default : Yes
Forced : No
Audio #2
ID : 3
Format : AC-3
Format/Info : Audio Coding 3
Mode extension : CM (complete main)
Format settings, Endianness : Big
Codec ID : A_AC3
Duration : 2h 3mn
Bit rate mode : Constant
Bit rate : 448 Kbps
Channel(s) : 6 channels
Channel positions : Front: L C R, Side: L R, LFE
Sampling rate : 48.0 KHz
Bit depth : 16 bits
Compression mode : Lossy
Stream size : 395 MiB (6%)
Title : Дубляж - BD CEE
Language : Ukrainian
Default : No
Forced : No
Audio #3
ID : 4
Format : AC-3
Format/Info : Audio Coding 3
Mode extension : CM (complete main)
Format settings, Endianness : Big
Codec ID : A_AC3
Duration : 2h 3mn
Bit rate mode : Constant
Bit rate : 640 Kbps
Channel(s) : 6 channels
Channel positions : Front: L C R, Side: L R, LFE
Sampling rate : 48.0 KHz
Bit depth : 16 bits
Compression mode : Lossy
Stream size : 564 MiB (8%)
Title : Original - BD 3D
Language : English
Default : No
Forced : No
Text #1
ID : 5
Format : UTF-8
Codec ID : S_TEXT/UTF8
Codec ID/Info : UTF-8 Plain Text
Title : Форсированные - iTunes
Language : Russian
Default : Yes
Forced : No
Text #2
ID : 6
Format : UTF-8
Codec ID : S_TEXT/UTF8
Codec ID/Info : UTF-8 Plain Text
Title : Полные - iTunes
Language : Russian
Default : No
Forced : No
Text #3
ID : 7
Format : UTF-8
Codec ID : S_TEXT/UTF8
Codec ID/Info : UTF-8 Plain Text
Title : Форсированные - iTunes
Language : Ukrainian
Default : No
Forced : No
Text #4
ID : 8
Format : UTF-8
Codec ID : S_TEXT/UTF8
Codec ID/Info : UTF-8 Plain Text
Title : Полные - iTunes
Language : Ukrainian
Default : No
Forced : No
Text #5
ID : 9
Format : UTF-8
Codec ID : S_TEXT/UTF8
Codec ID/Info : UTF-8 Plain Text
Title : Full (i)
Language : English
Default : No
Forced : No
Text #6
ID : 10
Format : UTF-8
Codec ID : S_TEXT/UTF8
Codec ID/Info : UTF-8 Plain Text
Title : SDH (i)
Language : English
Default : No
Forced : No
Text #7
ID : 11
Format : UTF-8
Codec ID : S_TEXT/UTF8
Codec ID/Info : UTF-8 Plain Text
Title : SDH-Colored (i)
Language : English
Default : No
Forced : No
Menu
00:00:00.000 : :1
00:09:22.562 : :2
00:19:03.225 : :3
00:30:25.532 : :4
00:39:10.098 : :5
00:49:43.439 : :6
00:59:27.189 : :7
01:09:50.186 : :8
01:19:11.246 : :9
01:29:57.267 : :10
01:40:14.759 : :11
01:52:14.728 : :12
01:56:10.088 : :13
Скриншоты



Для оценки 3Д - Анимированные скрины



[Профиль] [ЛС]

trance

Пол: Мужской

Стаж: 10 лет

Сообщений: 4373

Откуда: Amsterdam

Создавать темы 02-Май-2015 10:53 (спустя 7 месяцев 18 дней)

[Цитировать]

Станьте на раздачу после 93,6 % не качает (((((((((
[Профиль] [ЛС]

siroji_amir ®

Пол: Мужской

Стаж: 7 лет 6 месяцев

Сообщений: 813

Создавать темы 02-Май-2015 20:41 (спустя 9 часов)

[Цитировать]

качай
[Профиль] [ЛС]

Создавать темы 25-Окт-2015 20:46 (спустя 5 месяцев 23 дня)

Топик был перенесен из форума 3D Кинофильмы в форум Архив

v3000
 
Показать сообщения:    
Ответить на тему

Текущее время: 15-Ноя 18:43

Часовой пояс: UTC + 3



Вы не можете начинать темы
Вы не можете отвечать на сообщения
Вы не можете редактировать свои сообщения
Вы не можете удалять свои сообщения
Вы не можете голосовать в опросах
Вы не можете прикреплять файлы к сообщениям
Вы не можете скачивать файлы