Виноваты звезды / The Fault in Our Stars ( Джош Бун) [2014, драма, мелодрама HDRip] l Лицензия l

Ответить на тему
 
Автор Сообщение

vip.snop1k ®

Пол: Мужской

Стаж: 4 года 9 месяцев

Сообщений: 1054

Откуда: Dyshka-City

Создавать темы 13-Сен-2014 05:18

[Цитировать]

«История, покорившая миллионы женских сердец»--

  • Год выпуска: 2014
  • Страна: США
  • Жанр: Драма, мелодрама
  • Продолжительность: 02:12:53
  • Перевод: Профессиональный (дублированный) [Лицензия]
  • Субтитры: Нет--
  • В ролях: Шейлин Вудли, Энсел Элгорт, Нат Вулф, Лора Дерн, Сэм Трэммелл, Уиллем Дефо, Лотте Вербеек, Ана Дела Крус, Рэнди Ковиц


  • Режиссёр: Джош Бун--
    Хэйзел больна раком. Несмотря на то, что болезнь временно отступила, девушка не чувствует ни капли радости. Она ходит в группу поддержки, где однажды знакомится с Огастусом Уотерсом и моментально влюбляется в него. Огастус и Хэйзел отправляются в полное страсти и жизни путешествие, которое лишний раз покажет им, что весь смысл жизни можно найти в любом ее отрезке.
    -- 
    [imdb]http://www.imdb.com/title/tt2582846[/imdb]--
  • Качество: HDRip
  • Формат: AVI
  • Видео кодек: XViD
  • Аудио кодек: AC3
  • Видео: XviD, 1078 Кбит/с, 720x384
  • Аудио: AC3, 6 ch, 384 Кбит/с
--
Знаете ли вы, что...:
Название фильма является вариацией на цитату из произведения Уильяма Шекспира «Юлий Цезарь» (Акт I, Сцена II): «The fault, dear Brutus, is not in our stars, but in ourselves...» (в русском переводе: «Не жребий наш — мы сами виноваты в своем порабощенье...»).
На главную мужскую роль рассматривались такие актеры, как Ной Сильвер, Нат Вулф, Брентон Туэйтес и Ник Робинсон.
На главную женскую роль рассматривались такие актрисы, как Хейли Стайнфелд и Лиана Либерато.
Шейлин Вудли отстригла волосы для съемок и пожертвовала их организации Children With Hair Loss, которая занимается изготовлением натуральных париков для детей, потерявших волосы в связи с болезнью.
MediaInfo:
Формат                                   : AVI
Формат/Информация                        : Audio Video Interleave
Размер файла                             : 1,37 Гбайт
Продолжительность                        : 2 ч. 12 м.
Общий поток                              : 1472 Кбит/сек
Программа кодирования                    : VirtualDubMod 1.5.10.3 | www.virtualdub-fr.org || (build 2550/release)
Библиотека кодирования                   : VirtualDubMod build 2550/release
Видео
Идентификатор                            : 0
Формат                                   : MPEG-4 Visual
Профиль формата                          : Advanced Simple@L5
Параметр BVOP формата                    : 2
Параметр QPel формата                    : Нет
Параметр GMC формата                     : Без точки перехода
Параметр матрицы формата                 : Default (MPEG)
Идентификатор кодека                     : XVID
Идентификатор кодека/Подсказка           : XviD
Продолжительность                        : 2 ч. 12 м.
Битрейт                                  : 1079 Кбит/сек
Ширина                                   : 720 пикселей
Высота                                   : 384 пикселя
Соотношение сторон                       : 1,85:1
Частота кадров                           : 23,976 кадра/сек
Цветовое пространство                    : YUV
Субдискретизация насыщенности            : 4:2:0
Битовая глубина                          : 8 бит
Тип развёртки                            : Прогрессивная
Метод сжатия                             : С потерями
Бит/(Пиксели*Кадры)                      : 0.163
Размер потока                            : 1,00 Гбайт (73%)
Библиотека кодирования                   : XviD 1.2.1 (UTC 2008-12-04)
Аудио
Идентификатор                            : 1
Формат                                   : AC-3
Формат/Информация                        : Audio Coding 3
Расширение режима                        : CM (complete main)
Параметр Endianness формата              : Big
Идентификатор кодека                     : 2000
Продолжительность                        : 2 ч. 12 м.
Вид битрейта                             : Постоянный
Битрейт                                  : 384 Кбит/сек
Каналы                                   : 6 каналов
Расположение каналов                     : Front: L C R, Side: L R, LFE
Частота                                  : 48,0 КГц
Битовая глубина                          : 16 бит
Метод сжатия                             : С потерями
Размер потока                            : 365 Мбайт (26%)
Выравнивание                             : Разделение по промежуткам
Продолжительность промежутка             : 42  мс. (1,00 видеокадр)
Время предзагрузки промежутка            : 500  мс.
Скриншоты


Последний раз редактировалось: vip.snop1k (2014-09-13 06:20), всего редактировалось 2 раз(а)
[Профиль] [ЛС]

vip.snop1k ®

Пол: Мужской

Стаж: 4 года 9 месяцев

Сообщений: 1054

Откуда: Dyshka-City

Создавать темы 13-Сен-2014 05:26 (спустя 7 минут)

[Цитировать]

Супер фильм!
[Профиль] [ЛС]

Создавать темы 25-Янв-2016 12:24 (спустя 1 год 4 месяца)

Топик был перенесен из форума Драмы в форум Архив

BABILON-T
 
Показать сообщения:    
Ответить на тему

Текущее время: 15-Ноя 18:44

Часовой пояс: UTC + 3



Вы не можете начинать темы
Вы не можете отвечать на сообщения
Вы не можете редактировать свои сообщения
Вы не можете удалять свои сообщения
Вы не можете голосовать в опросах
Вы не можете прикреплять файлы к сообщениям
Вы не можете скачивать файлы