Джонни Д. / Public Enemies (Майкл Манн) [2009, драма, криминал, биография, история , BDRip 720p]от Leonardo and Scarabey | Лицензия

Ответить на тему
 
Автор Сообщение

[VIP]ABDURAXA[VIP] ®

Пол: Мужской

Стаж: 4 года 9 месяцев

Сообщений: 9145

Создавать темы 12-Сен-2014 19:27

[Цитировать]

- Год выпуска: 2009
Страны: США
Жанры: драма, криминал, биография, история
Продолжительность: 02:19:43
Перевод: Профессиональный (дублированный)
Субтитры: Русские + Английские + Украинские - Режиссер: Майкл Манн- В ролях: Джонни Депп / Johnny Depp (John Dillinger), Кристиан Бэйл / Christian Bale (Melvin Purvis), Марион Котийяр / Marion Cotillard (Billie Frechette), Стивен Лэнг / Stephen Lang (Charles Winstead), Джейсон Кларк / Jason Clarke («Red» Hamilton), Стивен Грэм / Stephen Graham (Baby Face Nelson), Билли Крудап / Billy Crudup (J. Edgar Hoover), Джон Ортис / John Ortiz (Phil D'Andrea)
- Сюжет фильма повествует о легендарном грабителе банков Джоне Диллинджере. Дерзкие нападения сделали его выдающимся героем для всех угнетенных и главной мишенью для лучшего агента ФБР Мелвина Первиса и директора бюро Джона Эдгара Гувера. Никто не мог остановить банду Диллинджера. Ни одна тюрьма не могла его удержать. Обаяние и отчаянные побеги прославляли преступника в обществе, считавшем банки главной причиной Великой депрессии.В то время, как приключения лихой банды, к которой примкнули Малыш Нельсон и Элвин Карпис, вдохновляли обозленных граждан, Гувер решил воспользоваться случаем и превратить Бюро расследований в главную правоохранительную организацию страны — ФБР. Он сделал Диллинджера самым опасным врагом Америки, а спасителем нарек Первиса, гордость Федерального бюро.-Автор Рипа: -Бюджет: $100 000 000
Сборы в США: $97 104 620
Сборы в мире: + $117 000 000 = $214 104 620
Сборы в России: $5 677 353
Зрители: США 12.9 млн , Франция 1.56 млн , Великобритания 1.27 млн
Премьера (мир): 18 июня 2009, ...
Премьера (РФ): 23 июля 2009, «UPI»
Релиз на DVD: 10 ноября 2009, «Юниверсал Пикчерс Рус», ...
Релиз на Blu-Ray: 24 ноября 2009, «Юниверсал Пикчерс Рус», ...
Рейтинг MPAA: Лицам до 17 лет обязательно присутствие взрослого- Качество: BDRip 720p
Формат: MKV
Видео кодек: AVC
Аудио кодек: AC3
Видео: 1280x534 (2.35:1), 23.976 fps, AVC, 4 016 Kbps
Аудио: AC3, 448 Kbps, 48.0 KHz, 6 ch| -
Знаете ли Вы, что...
· Этот фильм — экранизация документального романа Брайана Барроу «Враги общества: Величайшая волна преступности в Америке и рождение ФБР».
· В результате забастовки сценаристов режиссер Майкл Манн смог привлечь к проекту Джонни Деппа и Марион Котийяр, так как проекты, в которых они в то время снимались, были отложены. Джонни Депп готовился к съемкам в фильме «Шантарам» (2011), режиссер Мира Наир, а Котийяр репетировала роль в мюзикле Роба Маршалла «Девять» (2009).
· Съемки фильма прошли в семи городах штата Иллинойс, семи городах Висконсина, в одном из городов Индианы, а также в Майями.
· Планировалось, что главную роль сыграет Леонардо ДиКаприо.
· В фильме Джонни Депп говорит одному из посетителей банка: «Нам нужны не ваши деньги, а только деньги банка». Такую же фразу произносит герой Роберт Де Ниро в фильме «Схватка» (1995).
· Фильм начинается смертью Красавчика Флойда. На самом деле Флойд был убит уже после Джона Диллинджера.
· В фильме во время перестрелки в «Маленькой Богемии» был убит Нельсон, Ван Митер и другие преступники. На самом же деле никто из преступников убит не был, был только ранен Пит Пирпойнт (который почему-то в фильме в это время сидел в тюрьме, что противоречит действительности). «Маленькая Богемия» осталась одной из позорных страниц в истории ФБР: все преступники сбежали, а агенты убили ни в чём не повинного местного жителя и ранили нескольких; также был убит один из агентов ФБР.
МедиаИнфо
General
Complete name                    : public.enemies.2009.BDRip.720p.tajfile.tj.mkv
Format                           : Matroska
File size                        : 4.36 GiB
Duration                         : 2h 19mn
Overall bit rate                 : 4 466 Kbps
Movie name                       : -=LEONARDO=-
Encoded date                     : UTC 2014-06-04 07:34:33
Writing application              : mkvmerge v5.8.0 ('No Sleep / Pillow') built on Sep  2 2012 15:37:04
Writing library                  : libebml v1.2.3 + libmatroska v1.3.0
Video
ID                               : 1
Format                           : AVC
Format/Info                      : Advanced Video Codec
Format profile                   : High@L4.1
Format settings, CABAC           : Yes
Format settings, ReFrames        : 9 frames
Muxing mode                      : Container profile=Unknown@4.1
Codec ID                         : V_MPEG4/ISO/AVC
Duration                         : 2h 19mn
Bit rate                         : 4 016 Kbps
Width                            : 1 280 pixels
Height                           : 534 pixels
Display aspect ratio             : 2.35:1
Frame rate                       : 23.976 fps
Color space                      : YUV
Chroma subsampling               : 4:2:0
Bit depth                        : 8 bits
Scan type                        : Progressive
Bits/(Pixel*Frame)               : 0.245
Stream size                      : 3.83 GiB (88%)
Writing library                  : x264 core 125 r2208 d9d2288
Encoding settings                : cabac=1 / ref=9 / deblock=1:-3:-3 / analyse=0x3:0x133 / me=tesa / subme=11 / psy=1 / psy_rd=1.00:0.20 / mixed_ref=1 / me_range=32 / chroma_me=1 / trellis=2 / 8x8dct=1 / cqm=0 / deadzone=21,11 / fast_pskip=0 / chroma_qp_offset=-3 / threads=12 / lookahead_threads=2 / sliced_threads=0 / nr=0 / decimate=1 / interlaced=0 / bluray_compat=0 / constrained_intra=0 / bframes=12 / b_pyramid=2 / b_adapt=2 / b_bias=0 / direct=1 / weightb=1 / open_gop=0 / weightp=2 / keyint=250 / keyint_min=23 / scenecut=40 / intra_refresh=0 / rc=2pass / mbtree=0 / bitrate=4016 / ratetol=1.0 / qcomp=0.60 / qpmin=0 / qpmax=69 / qpstep=4 / cplxblur=20.0 / qblur=0.5 / ip_ratio=1.10 / pb_ratio=1.10 / aq=1:1.00
Audio
ID                               : 2
Format                           : AC-3
Format/Info                      : Audio Coding 3
Mode extension                   : CM (complete main)
Codec ID                         : A_AC3
Duration                         : 2h 19mn
Bit rate mode                    : Constant
Bit rate                         : 448 Kbps
Channel(s)                       : 6 channels
Channel positions                : Front: L C R, Side: L R, LFE
Sampling rate                    : 48.0 KHz
Bit depth                        : 16 bits
Stream size                      : 448 MiB (10%)
Language                         : Russian
Text #1
ID                               : 3
Format                           : UTF-8
Codec ID                         : S_TEXT/UTF8
Codec ID/Info                    : UTF-8 Plain Text
Title                            : Full
Language                         : Russian
Text #2
ID                               : 4
Format                           : UTF-8
Codec ID                         : S_TEXT/UTF8
Codec ID/Info                    : UTF-8 Plain Text
Title                            : Commentary by Director Michael Mann
Language                         : Russian
Text #3
ID                               : 5
Format                           : UTF-8
Codec ID                         : S_TEXT/UTF8
Codec ID/Info                    : UTF-8 Plain Text
Text #4
ID                               : 6
Format                           : UTF-8
Codec ID                         : S_TEXT/UTF8
Codec ID/Info                    : UTF-8 Plain Text
Language                         : Ukrainian
Text #5
ID                               : 7
Format                           : UTF-8
Codec ID                         : S_TEXT/UTF8
Codec ID/Info                    : UTF-8 Plain Text
Title                            : Tol'ko nadpisi
Language                         : Russian
Menu
00:00:00.000                     : en:Prison Break
00:07:19.606                     : en:Running from the Law
00:12:50.269                     : en:Making Money
00:20:19.093                     : en:Billie
00:25:53.469                     : en:Modern Methods
00:31:33.850                     : en:You're with Me Now
00:36:44.160                     : en:Giving the Slip
00:42:13.489                     : en:Sending for Backup
00:47:59.543                     : en:Behind Bars
00:53:26.662                     : en:The People's Hero
01:00:42.472                     : en:Busting Out
01:08:18.052                     : en:Bad for Business
01:15:23.185                     : en:Times Change
01:21:45.484                     : en:Let 'Em Have It!
01:33:49.207                     : en:What If?
01:40:54.423                     : en:Captured
01:48:13.529                     : en:Inside Information
01:53:15.872                     : en:What's the Score?
01:58:32.022                     : en:Bye Bye Blackbird
02:11:25.336                     : en:End Titles
Скриншоты



[Профиль] [ЛС]

[VIP]ABDURAXA[VIP] ®

Пол: Мужской

Стаж: 4 года 9 месяцев

Сообщений: 9145

Создавать темы 12-Сен-2014 19:28 (спустя 29 секунд)

[Цитировать]

- - - -
[Профиль] [ЛС]

Создавать темы 11-Дек-2014 09:03 (спустя 2 месяца 28 дней)

Топик был перенесен из форума HDTV в форум Архив

Mithas204
 
Показать сообщения:    
Ответить на тему

Текущее время: 25-Июн 03:20

Часовой пояс: UTC + 3



Вы не можете начинать темы
Вы не можете отвечать на сообщения
Вы не можете редактировать свои сообщения
Вы не можете удалять свои сообщения
Вы не можете голосовать в опросах
Вы не можете прикреплять файлы к сообщениям
Вы не можете скачивать файлы