Хороший человек / A Good Man ( Киони Ваксман) [2014, Боевик HDRip]

Ответить на тему
 
Автор Сообщение

vip.snop1k ®

Пол: Мужской

Стаж: 4 года 4 месяца

Сообщений: 1054

Откуда: Dyshka-City

Создавать темы 12-Сен-2014 12:28

[Цитировать]

--

  • Год выпуска: 2014
  • Страна: США
  • Жанр: Боевик
  • Продолжительность: 01:43:04
  • Перевод: Любительский (одноголосый закадровый)
  • Субтитры: Нет--
  • В ролях: Стивен Сигал, Виктор Уэбстер, Ци Ма, Рон Балики, Юлия Вердес, Massimo Dobrovic, Элиас Феркин

  • Режиссёр: Киони Ваксман--
    Александр — идеальный солдат, но во время миссии в Ираке, на его руках умирает маленькая девочка, после чего он решил отойти от дел. Сэм Хуан — силовик, то ли связанный с Триадами, то ли воюющий против них, отправил, хорошо заплатив, безопасным путем свою маленькую сестру Миа в США. Мистер Чэн гнусным образом вешает на Сэма убийство, которое он совершил, а также похищает его сестру и передает бандитам. Александр решается помочь Сэму вернуть сестру и покончить с Триадой. Число жертв растет, Александр возвращается в то, что умеет делать лучше всего — это убивать.
    -- 
    [imdb]http://www.imdb.com/title/tt1863203/[/imdb]--
  • Качество: HDRip
  • Формат: AVI
  • Видео кодек: XViD
  • Аудио кодек: AC3
  • Видео: 720x400 (1.80:1), 23.976 fps, XviD build 50 ~1694 kbps avg, 0.25 bit/pixel
  • Аудио: 448 kHz, AC3 Dolby Digital, 2/0 (L,R) ch, ~192 kbps avg
--
MediaInfo:
Format                                   : AVI
Format/Info                              : Audio Video Interleave
File size                                : 1.37 GiB
Duration                                 : 1h 43mn
Overall bit rate                         : 1 896 Kbps
Writing application                      : VirtualDubMod 1.5.10.3 | www.virtualdub-fr.org || (build 2550/release)
Writing library                          : VirtualDubMod build 2550/release
Video
ID                                       : 0
Format                                   : MPEG-4 Visual
Format profile                           : Advanced Simple@L5
Format settings, BVOP                    : 2
Format settings, QPel                    : No
Format settings, GMC                     : No warppoints
Format settings, Matrix                  : Default (MPEG)
Codec ID                                 : XVID
Codec ID/Hint                            : XviD
Duration                                 : 1h 43mn
Bit rate                                 : 1 695 Kbps
Width                                    : 720 pixels
Height                                   : 400 pixels
Display aspect ratio                     : 16:9
Frame rate                               : 23.976 fps
Color space                              : YUV
Chroma subsampling                       : 4:2:0
Bit depth                                : 8 bits
Scan type                                : Progressive
Compression mode                         : Lossy
Bits/(Pixel*Frame)                       : 0.245
Stream size                              : 1.22 GiB (89%)
Writing library                          : XviD 1.2.1 (UTC 2008-12-04)
Audio
ID                                       : 1
Format                                   : AC-3
Format/Info                              : Audio Coding 3
Mode extension                           : CM (complete main)
Format settings, Endianness              : Big
Codec ID                                 : 2000
Duration                                 : 1h 43mn
Bit rate mode                            : Constant
Bit rate                                 : 192 Kbps
Channel(s)                               : 2 channels
Channel positions                        : Front: L R
Sampling rate                            : 48.0 KHz
Bit depth                                : 16 bits
Compression mode                         : Lossy
Stream size                              : 142 MiB (10%)
Alignment                                : Split accross interleaves
Interleave, duration                     : 42 ms (1.00 video frame)
Interleave, preload duration             : 500 ms
Скриншоты
[Профиль] [ЛС]

Создавать темы 22-Мар-2015 12:37 (спустя 6 месяцев 10 дней)

Топик был перенесен из форума Боевики в форум Архив

Mithas204
 
Показать сообщения:    
Ответить на тему

Текущее время: 25-Июн 03:22

Часовой пояс: UTC + 3



Вы не можете начинать темы
Вы не можете отвечать на сообщения
Вы не можете редактировать свои сообщения
Вы не можете удалять свои сообщения
Вы не можете голосовать в опросах
Вы не можете прикреплять файлы к сообщениям
Вы не можете скачивать файлы