Геракл: Начало легенды / The Legend of Hercules (Ренни Харлин) [2014, боевик, фэнтези, BDRip-AVC] от New-Team | D | Лицензия

Ответить на тему
 
Автор Сообщение

[VIP]ABDURAXA[VIP] ®

Пол: Мужской

Стаж: 5 лет 2 месяца

Сообщений: 9175

Создавать темы 11-Сен-2014 19:18

[Цитировать]

- Год выпуска: 2014
Страны: США , Болгария
Жанры: боевик, фэнтези
Продолжительность: 01:38:38
Перевод: Дублированный [Лицензия]- Режиссер: Ренни Харлин- В ролях: Келлан Латс / Kellan Lutz (Hercules), Скотт Эдкинс / Scott Adkins (King Amphitryon), Лиам МакИнтайр / Liam McIntyre (Sotiris), Джая Уайсс / Gaia Weiss (Hebe), Лайам Гэрриган / Liam Garrigan (Iphicles), Роксанна МакКи / Roxanne McKee (Queen Alcmene), Раде Шербеджия / Rade Serbedzija (Chiron), Джонатон Шек / Johnathon Schaech (Tarak)
- 1200 г. до н. э. Древняя Греция. Прекрасная царица Алкмена попала под чары грозного бога Олимпа — Зевса и родила ему сына Геракла. При рождении ему было предсказано стать величайшим воином, который будет властвовать над народами и принесет мир и процветание своей стране. Но пока Геракл ничего не знает о своем предназначении. Он вырос прекрасным и сильным юношей. Он мечтает о любви принцессы Крита, Гебы, которая обещана в жены его брату. Когда Геракл узнает о своей великой миссии, он должен выбрать: сбежать со своей любовью или исполнить свое предназначение.-Релиз группы: -Бюджет: $70 000 000
Сборы в США: $18 848 538
Сборы в мире: + $25 600 000 = $44 448 538
Сборы в России: $4 811 012
Зрители: Россия 643.4 тыс. , Бразилия 591.5 тыс. , Турция 540.9 тыс.
Премьера (мир): 8 января 2014, ...
Премьера (РФ): 23 января 2014, «Наше Кино» 3D
Рейтинг MPAA: Детям до 13 лет просмотр не желателен- Качество: BDRip-AVC
Формат: MKV
Видео кодек: AVC
Аудио кодек: AC3
Видео: 1024x428 (2.35:1), 24.000 fps, AVC, 1 665 Kbps
Аудио: AC3, 448 Kbps, 48.0 KHz, 6 ch| -
Знаете ли Вы, что...
· Роксанна МакКи, играющая мать Келлана Латса, старше его всего на 5 лет.
· Когда Келлан Латс получил роль, он хотел набрать большую мышечную массу, чтобы изобразить Геракла. Но режиссер Ренни Харлин сказал ему просто сделать пресс более рельефным.
· Исполнивший роль Креонта Юкка Хилден является каскадером и участником финского экстремального шоу Dudesons, более известного в России под названием «Горячие финские парни». К сожалению, сюжетная линия актера не вошла в конечную версию фильма.
· Келлан Латс рассказал, что, поскольку он снимался без рубашки на протяжении большей части фильма, это позволяло ему отжиматься и делать упражнения на пресс в перерывах между дублями. При этом он мог не бояться того, что вспотеет или же испачкает костюм. За один съемочный день Латс делал более 1000 отжиманий и столько же раз качал пресс. По его словам, благодаря этому его персонаж выглядит таким накачанным.
МедиаИнфо
General
Complete name                    : gerakl.nacchalo.legendy.2014.BDRip-AVC.tajfile.tj.mkv
Format                           : Matroska
File size                        : 1.46 GiB
Duration                         : 1h 38mn
Overall bit rate                 : 2 114 Kbps
Encoded date                     : UTC 2014-09-10 05:36:53
Writing application              : mkvmerge v7.1.0 ('Good Love') 64bit built on Jul 27 2014 13:06:55
Writing library                  : libebml v1.3.0 + libmatroska v1.4.1
Video
ID                               : 1
Format                           : AVC
Format/Info                      : Advanced Video Codec
Format profile                   : High@L4.1
Format settings, CABAC           : Yes
Format settings, ReFrames        : 8 frames
Muxing mode                      : Container profile=Unknown@4.1
Codec ID                         : V_MPEG4/ISO/AVC
Duration                         : 1h 38mn
Bit rate                         : 1 665 Kbps
Width                            : 1 024 pixels
Height                           : 428 pixels
Display aspect ratio             : 2.35:1
Frame rate                       : 24.000 fps
Color space                      : YUV
Chroma subsampling               : 4:2:0
Bit depth                        : 8 bits
Scan type                        : Progressive
Bits/(Pixel*Frame)               : 0.158
Stream size                      : 1.12 GiB (77%)
Writing library                  : x264 core 130 r2273 b3065e6
Encoding settings                : cabac=1 / ref=8 / deblock=1:-3:-2 / analyse=0x3:0x113 / me=umh / subme=10 / psy=1 / psy_rd=1.00:0.05 / mixed_ref=1 / me_range=32 / chroma_me=1 / trellis=2 / 8x8dct=1 / cqm=0 / deadzone=21,11 / fast_pskip=0 / chroma_qp_offset=-3 / threads=9 / lookahead_threads=1 / sliced_threads=0 / nr=0 / decimate=0 / interlaced=0 / bluray_compat=0 / constrained_intra=0 / bframes=8 / b_pyramid=2 / b_adapt=2 / b_bias=0 / direct=3 / weightb=1 / open_gop=0 / weightp=2 / keyint=240 / keyint_min=24 / scenecut=40 / intra_refresh=0 / rc_lookahead=40 / rc=2pass / mbtree=1 / bitrate=1665 / ratetol=1.0 / qcomp=0.60 / qpmin=0 / qpmax=69 / qpstep=4 / cplxblur=20.0 / qblur=0.5 / ip_ratio=1.40 / aq=1:1.00
Audio
ID                               : 2
Format                           : AC-3
Format/Info                      : Audio Coding 3
Mode extension                   : CM (complete main)
Codec ID                         : A_AC3
Duration                         : 1h 38mn
Bit rate mode                    : Constant
Bit rate                         : 448 Kbps
Channel(s)                       : 6 channels
Channel positions                : Front: L C R, Side: L R, LFE
Sampling rate                    : 48.0 KHz
Bit depth                        : 16 bits
Stream size                      : 316 MiB (21%)
Language                         : Russian
Menu
00:00:00.000                     : en:00:00:00.000
00:00:04.000                     : en:00:00:04.000
00:10:37.417                     : en:00:10:37.417
00:26:20.625                     : en:00:26:20.625
00:35:03.750                     : en:00:35:03.750
00:47:00.333                     : en:00:47:00.333
01:00:15.500                     : en:01:00:15.500
01:11:12.542                     : en:01:11:12.542
01:23:34.417                     : en:01:23:34.417
Скриншоты



[Профиль] [ЛС]

[VIP]ABDURAXA[VIP] ®

Пол: Мужской

Стаж: 5 лет 2 месяца

Сообщений: 9175

Создавать темы 11-Сен-2014 19:39 (спустя 21 минута)

[Цитировать]

- - - -
[Профиль] [ЛС]

Создавать темы 11-Окт-2015 21:44 (спустя 1 год 1 месяц)

Топик был перенесен из форума Боевики в форум Архив

Mithas204
 
Показать сообщения:    
Ответить на тему

Текущее время: 13-Ноя 06:42

Часовой пояс: UTC + 3



Вы не можете начинать темы
Вы не можете отвечать на сообщения
Вы не можете редактировать свои сообщения
Вы не можете удалять свои сообщения
Вы не можете голосовать в опросах
Вы не можете прикреплять файлы к сообщениям
Вы не можете скачивать файлы