Спирит: Душа прерий / Spirit: Stallion of the Cimarron (Келли Эсбёри, Лорна Кук) [2002, США, мультфильм, мелодрама, комедия, приключения, семейный, вестерн, BDRip 1080p]

Ответить на тему
 
Автор Сообщение

fadaf9 ®

Пол: Мужской

Стаж: 6 лет 9 месяцев

Сообщений: 2142

Откуда: Таджикистан

Создавать темы 16-Июн-2014 12:57

[Цитировать]

--Спирит: Душа прерий / Spirit: Stallion of the Cimarron--«Some legends can never be tamed»-- Год выпуска: 2002
Страна: США
Жанр: мультфильм, мелодрама, комедия, приключения, семейный, вестерн
Продолжительность: 01:23:28
Перевод: Дублированный + Многоголосый закадровый (профессиональный)- Режиссер: Келли Эсбёри, Лорна Кук
Роли озвучивали: Мэтт Дэймон, Джеймс Кромуэлл, Дэниэл Студи, Чоппер Бернет, Джеф ЛеБо, Джон Рубано, Ричард МакГонагл, Мэтт Левин, Адам Пол, Роберт Кайт- Описание:
Этот приключенческий мультфильм рассказывает историю дикого жеребца мустанга Спирита, путешествующего по территории всей Америки. Храбрый Спирит заводит дружбу с молодым индейцем Ручейком и находит любовь с красивой кобылой по имени Гроза.
Все счастливы до тех пор, пока на жеребца не положили глаз люди, которые хотят сделать из него военную лошадь...
-

Рейтинг G - Нет возрастных ограничений- Качество: BDRip 1080p
Формат: MKV
Видео: AVC, 6000 Kbps, 1920x816p, 23,976 fps
Аудио №1: AC3, 5.1, 448 kbps, 6 ch, 48.0 KHz - Russian [-Дубляж, R5, песни на английском-]
Аудио №2: AC3, 5.1, 448 kbps, 6 ch, 48.0 KHz - Russian [-Дубляж, R5, песни на русском-]
Аудио №3: AC3, 5.1, 384 kbps, 6 ch, 48.0 KHz - Russian [-Многоголосый закадровый-]
Аудио №4: AC3, 5.1, 448 kbps, 6 ch, 48.0 KHz - Ukrainian [-Многоголосый закадровый-]
Аудио №5: AC3, 5.1, 640 kbps, 6 ch, 48.0 KHz - English [-Оригинал-]
Аудио №6: AC3, 2.0, 192 kbps, 2 ch, 48.0 KHz - Russian [-Двухголосый закадр., Комментарии Мирей Сории, Келли Эсбёри, Лорны Кук-]
Субтитры: Russian, English-
Знаете ли вы,что...

• Спирит — жеребец породы Кигер-мустангов. Это были лошади испанских конкистадоров, отбившиеся от табунов мустангов.
• Компания Dreamworks использовала в качестве модели для рисования Спирита мустанга Доннера, купленного компанией за 50 000 $.
MediaInfo


General
Unique ID : 246173161188161488133921053896144043439 (0xB93339EC6A8AA34A9A0677CAB39BBDAF)
Format : Matroska
Format version : Version 4 / Version 2
File size : 4.99 GiB
Duration : 1h 23mn
Overall bit rate : 8 562 Kbps
Encoded date : UTC 2014-06-16 09:37:22
Writing application : mkvmerge v7.0.0 ('Where We Going') 64bit built on Jun 9 2014 15:16:27
Writing library : libebml v1.3.0 + libmatroska v1.4.1
DURATION : 01:23:11.825000000
NUMBER_OF_FRAMES : 1389
NUMBER_OF_BYTES : 29152
_STATISTICS_WRITING_APP : mkvmerge v7.0.0 ('Where We Going') 64bit built on Jun 9 2014 15:16:27
_STATISTICS_WRITING_DATE_UTC : 2014-06-16 09:37:22
_STATISTICS_TAGS : BPS DURATION NUMBER_OF_FRAMES NUMBER_OF_BYTES
Video #1
ID : 1
Format : AVC
Format/Info : Advanced Video Codec
Format profile : High@L4.1
Format settings, CABAC : Yes
Format settings, ReFrames : 4 frames
Codec ID : V_MPEG4/ISO/AVC
Duration : 1h 23mn
Bit rate : 6 000 Kbps
Width : 1 920 pixels
Height : 816 pixels
Display aspect ratio : 2.35:1
Frame rate mode : Constant
Frame rate : 23.976 fps
Color space : YUV
Chroma subsampling : 4:2:0
Bit depth : 8 bits
Scan type : Progressive
Bits/(Pixel*Frame) : 0.160
Stream size : 3.40 GiB (68%)
Writing library : x264 core 138 r2358 9e941d1
Encoding settings : cabac=1 / ref=4 / deblock=1:-1:-1 / analyse=0x3:0x133 / me=umh / subme=10 / psy=1 / psy_rd=1.00:0.15 / mixed_ref=1 / me_range=32 / chroma_me=1 / trellis=2 / 8x8dct=1 / cqm=0 / deadzone=21,11 / fast_pskip=0 / chroma_qp_offset=-3 / threads=6 / lookahead_threads=1 / sliced_threads=0 / nr=0 / decimate=1 / interlaced=0 / bluray_compat=0 / constrained_intra=0 / bframes=8 / b_pyramid=2 / b_adapt=2 / b_bias=0 / direct=3 / weightb=1 / open_gop=0 / weightp=2 / keyint=250 / keyint_min=23 / scenecut=40 / intra_refresh=0 / rc_lookahead=40 / rc=2pass / mbtree=1 / bitrate=6000 / ratetol=1.0 / qcomp=0.60 / qpmin=0 / qpmax=69 / qpstep=4 / cplxblur=20.0 / qblur=0.5 / vbv_maxrate=50000 / vbv_bufsize=62500 / nal_hrd=none / ip_ratio=1.40 / aq=1:0.60
Language : English
Default : Yes
Forced : No
DURATION : 01:23:28.879000000
NUMBER_OF_FRAMES : 120093
NUMBER_OF_BYTES : 3756039777
_STATISTICS_WRITING_APP : mkvmerge v7.0.0 ('Where We Going') 64bit built on Jun 9 2014 15:16:27
_STATISTICS_WRITING_DATE_UTC : 2014-06-16 09:37:22
_STATISTICS_TAGS : BPS DURATION NUMBER_OF_FRAMES NUMBER_OF_BYTES
Audio #2
ID : 2
Format : AC-3
Format/Info : Audio Coding 3
Mode extension : CM (complete main)
Format settings, Endianness : Big
Codec ID : A_AC3
Duration : 1h 23mn
Bit rate mode : Constant
Bit rate : 448 Kbps
Channel(s) : 6 channels
Channel positions : Front: L C R, Side: L R, LFE
Sampling rate : 48.0 KHz
Bit depth : 16 bits
Compression mode : Lossy
Stream size : 268 MiB (5%)
Title : Дубляж, R5, песни на английском
Language : Russian
Default : Yes
Forced : No
Audio #3
ID : 3
Format : AC-3
Format/Info : Audio Coding 3
Mode extension : CM (complete main)
Format settings, Endianness : Big
Codec ID : A_AC3
Duration : 1h 23mn
Bit rate mode : Constant
Bit rate : 448 Kbps
Channel(s) : 6 channels
Channel positions : Front: L C R, Side: L R, LFE
Sampling rate : 48.0 KHz
Bit depth : 16 bits
Compression mode : Lossy
Stream size : 268 MiB (5%)
Title : Дубляж, R5, песни на русском
Language : Russian
Default : No
Forced : No
Audio #4
ID : 4
Format : AC-3
Format/Info : Audio Coding 3
Mode extension : CM (complete main)
Format settings, Endianness : Big
Codec ID : A_AC3
Duration : 1h 23mn
Bit rate mode : Constant
Bit rate : 384 Kbps
Channel(s) : 6 channels
Channel positions : Front: L C R, Side: L R, LFE
Sampling rate : 48.0 KHz
Bit depth : 16 bits
Compression mode : Lossy
Stream size : 229 MiB (4%)
Title : Многоголосый закадровый
Language : Russian
Default : No
Forced : No
Audio #5
ID : 5
Format : AC-3
Format/Info : Audio Coding 3
Mode extension : CM (complete main)
Format settings, Endianness : Big
Codec ID : A_AC3
Duration : 1h 23mn
Bit rate mode : Constant
Bit rate : 448 Kbps
Channel(s) : 6 channels
Channel positions : Front: L C R, Side: L R, LFE
Sampling rate : 48.0 KHz
Bit depth : 16 bits
Compression mode : Lossy
Stream size : 268 MiB (5%)
Title : Многоголосый закадровый
Language : Ukrainian
Default : No
Forced : No
Audio #6
ID : 6
Format : AC-3
Format/Info : Audio Coding 3
Mode extension : CM (complete main)
Format settings, Endianness : Big
Codec ID : A_AC3
Duration : 1h 23mn
Bit rate mode : Constant
Bit rate : 640 Kbps
Channel(s) : 6 channels
Channel positions : Front: L C R, Side: L R, LFE
Sampling rate : 48.0 KHz
Bit depth : 16 bits
Compression mode : Lossy
Stream size : 382 MiB (7%)
Title : Оригинал
Language : English
Default : No
Forced : No
Audio #7
ID : 7
Format : AC-3
Format/Info : Audio Coding 3
Mode extension : CM (complete main)
Format settings, Endianness : Big
Codec ID : A_AC3
Duration : 1h 23mn
Bit rate mode : Constant
Bit rate : 192 Kbps
Channel(s) : 2 channels
Channel positions : Front: L R
Sampling rate : 48.0 KHz
Bit depth : 16 bits
Compression mode : Lossy
Stream size : 115 MiB (2%)
Title : Двухголосый закадр., Комментарии
Language : Russian
Default : No
Forced : No
Text #8
ID : 8
Format : UTF-8
Codec ID : S_TEXT/UTF8
Codec ID/Info : UTF-8 Plain Text
Language : Russian
Default : No
Forced : No
Text #9
ID : 9
Format : UTF-8
Codec ID : S_TEXT/UTF8
Codec ID/Info : UTF-8 Plain Text
Language : English
Default : No
Forced : No

Menu
00:00:00.000 : en:Young Spirit
00:07:32.410 : en:Leader of His Herd
00:11:29.856 : en:The Journey Begins
00:18:15.011 : en:Spirit Meets Man
00:20:40.281 : en:A Strange New Place
00:23:22.359 : en:You Can't Break Me
00:25:35.492 : en:This One Seemed Different
00:30:11.184 : en:The Great Escape
00:35:24.831 : en:Indian Camp
00:38:47.951 : en:Rain's World
00:42:06.149 : en:Torn Two Ways
00:43:52.547 : en:"Go Home"
00:48:10.638 : en:The Cavalry Attacks
00:53:29.289 : en:Remember Who You Are
00:57:18.810 : en:Master Plan
01:00:49.437 : en:Breaking Free
01:04:26.863 : en:Leap of Faith
01:11:14.562 : en:Farewell My Friend
01:14:07.234 : en:The Return
01:16:12.109 : en:End Credits
Скриншоты





[Профиль] [ЛС]
Показать сообщения:    
Ответить на тему

Текущее время: 19-Ноя 11:34

Часовой пояс: UTC + 3



Вы не можете начинать темы
Вы не можете отвечать на сообщения
Вы не можете редактировать свои сообщения
Вы не можете удалять свои сообщения
Вы не можете голосовать в опросах
Вы не можете прикреплять файлы к сообщениям
Вы не можете скачивать файлы