Ральф / Wreck-It Ralph (Рич Мур) [2012 г., мультфильм, комедия, приключения, семейный, BDRip 1080p]

Ответить на тему
 
Автор Сообщение

fadaf9 ®

Пол: Мужской

Стаж: 6 лет 9 месяцев

Сообщений: 2142

Откуда: Таджикистан

Создавать темы 12-Мар-2014 17:39

[Цитировать]

--Ральф / Wreck-It Ralph--«Хорошего друга должно быть много»-- Год выпуска: 2012
Страна: США
Жанр: мультфильм, комедия, приключения, семейный
Продолжительность: 01:41:13
Перевод: Профессиональный (полное дублирование) [-Лицензия-]- Режиссер: Рич Мур
В ролях: Джон Си Райли, Джек МакБрайер, Сара Силверман, Джейн Линч, Алан Тьюдик, Минди Калинг, Джо Ло Трульо, Эд О’Нил, Деннис Хейсбёрт, Эди МакКлёрг- Описание:
Ральф — второстепенный персонаж восьмибитной компьютерной игры, и ему надоело находиться в тени главного героя, мастера на все руки Феликса, который всегда появляется, чтобы «исправить» ситуацию! После тридцати лет добросовестной работы в роли злодея, в течение которых все похвалы выпадали на долю Феликса, Ральф больше не хочет быть плохим.Он решает отправиться в путешествие по аркадным играм разных жанров, чтобы доказать всем, что и он тоже может быть героем. На своем пути Ральф встречает героев разных игр — хладнокровную сержанта Калхун из игры Hero’s Duty, оберегающую планету от нашествия инопланетных захватчиков, и сладкую на вид, но острую на язычок Ванелопа фон Кекс, чье существование в гоночном симуляторе Sugar Rush внезапно оказывается под угрозой. Наконец-то Ральфу выпадает шанс показать, что он умеет не только разрушать!-
- рекомендуется присутствие родителей!- Качество: BDRip 1080p
Формат: MKV
Видео: AVC, 12,9 Mbps, 1920x804p, 23.976 fps
Аудио №1: AC3, 5.1, 640 kbps, 6 ch, 48.0 KHz - Russian (полное дублирование) [-Лицензия-]
Аудио №2: AC3, 5.1, 640 kbps, 6 ch, 48.0 KHz - English
Субтитры: Russian [Full, Forced], English [Full, SDH, SDH Color]-
Знаете ли вы,что...

*Дизайн Соника дала компания SEGA взамен на Ральфа, поэтому Громила «попал» в игру «Sonic & All-Stars Racing Transformed».
*Еж Соник несколько раз появляется в фильме. Когда Ральф покидает игру Pac-Man и едет на центральный вокзал, Соника можно увидеть на нескольких мониторах объясняющим правило, что, «если погибнешь не в своей игре, уже не оживешь, игра окончена». Также Соник присутствует на вечеринке в честь 30-летия игры «Мастер Феликс». Его можно увидеть сразу после того, как Ральф входит в комнату. И последний раз он появляется, когда Ральф случайно запускает спасательную капсулу в игре «Долг героя». Прежде чем влететь в «Сахарный форсаж», спасательная капсула сбивает прогуливающегося Соника, и он теряет все свои кольца, как обычно и происходит во всех играх о Сонике.
*Персонаж Ванилопа был создан по образу самой Сары Силверман после прочтения ее автобиографии The Bedwetter: Stories of Courage, Redemption and Pee.
*В мультфильме задействовано более 180 уникальных персонажей — втрое больше, чем в любом другом среднестатистическом анимационном фильме.
*Первоначально писать музыку к этому фильму предлагали композитору Томасу Ньюману, но в итоге его место занял Генри Джекман.
*В отличие от большинства анимационных фильмов, актеры, озвучивающие основных персонажей, записывались вместе в одной комнате, что, естественно, привело к множественным импровизациям.
*Первые два месяца написания сценария фильма главным персонажем был Феликс (Джек МакБрайер).
*На ранних этапах создания Ральфа хотели сделать восьмибитным во всем фильме, но потом сочли, что он был бы недостаточно милым, и отказались от этой идеи.
*Был разработан персонаж Nicelander, который выглядел как Джон Лассетер, но в итоге он так и не попал в фильм.
*В начале производства студия Disney собиралась дать эпизодическую роль Марио и Луиджи, но оказалась не в состоянии выплатить за них гонорар компании Nintendo и обратилась к ней с просьбой использовать хотя бы символику. В итоге персонаж Феликс получил некоторые атрибуты Марио: комбинезон, сопровождающие звуки из Mario Bros. 1980-х, а также некоторые движения (прыжки и вращения, которые были в поздних играх серии).
*Персонаж Калхун был изначально задуман как мужчина.
*Образ Ральфа взят из игры Rampage, в которой монстры разрушают здания.
*В одной из сцен король Карамель использует классический контроллер Nintendo Entertainment System (NES) для доступа к исходному коду игры «Сахарный форсаж». Комбинация, которую он вводит, известна как код Konami (вверх, вверх, вниз, вниз, влево, вправо, влево, вправо, B, A, старт), и при вводе этой комбинации в NES-играх от Konami игроки открывали специальные читы, такие как дополнительные жизни или возможность пропускать уровни. Первоначально этот код был запрограммирован в играх, для того чтобы упростить программистам процесс проверки поздних уровней.
*Владелец игровых автоматов мистер Литвак носит рубашку судьи — это намек на Уолтера Дэя, владельца игровых автоматов Twin Galaxies в Оттумве, штат Айова. И, хотя это и не связано с этим фильмом, он снимался в документальном фильме «Охота на призраков» (2007), а также больше всего известен по фильму «Король Конга» (2007).
*Полицейских в форме пончика и эклера в игре «Сахарный форсаж» зовут Уинчел и Дункан. Это скрытый намек на две американские сети, торгующие пончиками, — Winchell’s Donut House и Dunkin’ Donuts.
*Когда Ральф копается в ящике кладовки, он достает несколько предметов. Один — гриб роста из игры Super Mario Bros, второй — восклицательный знак из серии Metal Gear и Metal Gear Solid.
*На вечеринке, посвященной 30-летию игры, в роли диджея выступает известный музыкант Skrillex.
*По фильму была сделана одноимённая игра на консоли Nintendo, а также на платформе Android и iOs.
*В сцене с кладовкой: таракан — отсылка к мультфильму «ВАЛЛ-И» (2008).
*На Центральной Станции можно заметить загадочную личность (невозможно понять кто это) читающую газету, если хорошенько присмотреться, то на газете можно увидеть символы автоботов и десептиконов.
MediaInfo

General
Unique ID : 180632481036529733314594909605972308025 (0x87E48CE80B71D1F590374FB8CB3A7039)
Format : Matroska
Format version : Version 4 / Version 2
File size : 9.99 GiB
Duration : 1h 41mn
Overall bit rate : 14.1 Mbps
Encoded date : UTC 2015-01-03 10:15:29
Writing application : mkvmerge v7.4.0 ('Circles') 64bit built on Dec 12 2014 12:19:56
Writing library : libebml v1.3.0 + libmatroska v1.4.1
DURATION : 01:40:14.808000000
NUMBER_OF_FRAMES : 1871
NUMBER_OF_BYTES : 66725
_STATISTICS_WRITING_APP : mkvmerge v7.4.0 ('Circles') 64bit built on Dec 12 2014 12:19:56
_STATISTICS_WRITING_DATE_UTC : 2015-01-03 10:15:29
_STATISTICS_TAGS : BPS DURATION NUMBER_OF_FRAMES NUMBER_OF_BYTES
Video
ID : 1
Format : AVC
Format/Info : Advanced Video Codec
Format profile : High@L4.1
Format settings, CABAC : Yes
Format settings, ReFrames : 5 frames
Codec ID : V_MPEG4/ISO/AVC
Bit rate : 12.9 Mbps
Width : 1 920 pixels
Height : 804 pixels
Display aspect ratio : 2.40:1
Frame rate mode : Variable
Original frame rate : 23.976 fps
Color space : YUV
Chroma subsampling : 4:2:0
Bit depth : 8 bits
Scan type : Progressive
Bits/(Pixel*Frame) : 0.347
Writing library : x264 core 129 r2245 bc13772
Encoding settings : cabac=1 / ref=5 / deblock=1:-1:-1 / analyse=0x3:0x113 / me=tesa / subme=11 / psy=1 / psy_rd=0.70:0.00 / mixed_ref=1 / me_range=24 / chroma_me=1 / trellis=2 / 8x8dct=1 / cqm=0 / deadzone=21,11 / fast_pskip=1 / chroma_qp_offset=-2 / threads=12 / lookahead_threads=2 / sliced_threads=0 / nr=0 / decimate=1 / interlaced=0 / bluray_compat=0 / constrained_intra=0 / bframes=8 / b_pyramid=2 / b_adapt=2 / b_bias=0 / direct=3 / weightb=1 / open_gop=0 / weightp=2 / keyint=240 / keyint_min=23 / scenecut=40 / intra_refresh=0 / rc=2pass / mbtree=0 / bitrate=12850 / ratetol=1.0 / qcomp=0.60 / qpmin=10 / qpmax=69 / qpstep=4 / cplxblur=20.0 / qblur=0.5 / ip_ratio=1.40 / pb_ratio=1.30 / aq=2:0.90
Language : English
Default : Yes
Forced : No
DURATION : 01:41:13.484000000
NUMBER_OF_FRAMES : 145618
NUMBER_OF_BYTES : 9755413379
_STATISTICS_WRITING_APP : mkvmerge v7.4.0 ('Circles') 64bit built on Dec 12 2014 12:19:56
_STATISTICS_WRITING_DATE_UTC : 2015-01-03 10:15:29
_STATISTICS_TAGS : BPS DURATION NUMBER_OF_FRAMES NUMBER_OF_BYTES
Audio #1
ID : 2
Format : AC-3
Format/Info : Audio Coding 3
Mode extension : CM (complete main)
Format settings, Endianness : Big
Codec ID : A_AC3
Duration : 1h 41mn
Bit rate mode : Constant
Bit rate : 640 Kbps
Channel(s) : 6 channels
Channel positions : Front: L C R, Side: L R, LFE
Sampling rate : 48.0 KHz
Bit depth : 16 bits
Compression mode : Lossy
Stream size : 463 MiB (5%)
Title : DUB
Language : Russian
Default : Yes
Forced : No
Audio #2
ID : 3
Format : AC-3
Format/Info : Audio Coding 3
Mode extension : CM (complete main)
Format settings, Endianness : Big
Codec ID : A_AC3
Duration : 1h 41mn
Bit rate mode : Constant
Bit rate : 640 Kbps
Channel(s) : 6 channels
Channel positions : Front: L C R, Side: L R, LFE
Sampling rate : 48.0 KHz
Bit depth : 16 bits
Compression mode : Lossy
Stream size : 463 MiB (5%)
Title : Original
Language : English
Default : No
Forced : No
Text #1
ID : 4
Format : UTF-8
Codec ID : S_TEXT/UTF8
Codec ID/Info : UTF-8 Plain Text
Title : Forced
Language : Russian
Default : No
Forced : No
Text #2
ID : 5
Format : UTF-8
Codec ID : S_TEXT/UTF8
Codec ID/Info : UTF-8 Plain Text
Title : Full
Language : Russian
Default : No
Forced : No
Text #3
ID : 6
Format : UTF-8
Codec ID : S_TEXT/UTF8
Codec ID/Info : UTF-8 Plain Text
Title : Full
Language : English
Default : No
Forced : No
Text #4
ID : 7
Format : UTF-8
Codec ID : S_TEXT/UTF8
Codec ID/Info : UTF-8 Plain Text
Title : SDH
Language : English
Default : No
Forced : No
Text #5
ID : 8
Format : UTF-8
Codec ID : S_TEXT/UTF8
Codec ID/Info : UTF-8 Plain Text
Title : SDH COLOR
Language : English
Default : No
Forced : No

Menu
00:00:00.000 : en:Opening Titles
00:07:12.140 : en:30 Years
00:16:34.910 : en:Hero's Duty
00:27:07.500 : en:Sugar Rush
00:37:25.952 : en:The Glitch
00:44:46.684 : en:Going Turbo
00:48:45.130 : en:Making a Car
00:51:36.009 : en:Driving Lessons
00:58:56.032 : en:King Candy's Secret
01:09:07.893 : en:Out of Order
01:13:39.623 : en:Every Day of My Life
01:15:56.802 : en:The Race
01:18:52.978 : en:Cy-Bug Invasion
01:21:53.742 : en:Can't Leave the Game
01:27:25.365 : en:One Game at a Time
01:33:10.543 : en:End Credits
Скриншоты









Последний раз редактировалось: fadaf9 (2015-01-04 13:30), всего редактировалось 3 раз(а)
[Профиль] [ЛС]

Davron Karimof

Пол: Мужской

Стаж: 3 года 8 месяцев

Сообщений: 374

Откуда: Dushanbe

Создавать темы 12-Мар-2014 17:58 (спустя 19 минут)

[Цитировать]

Мультик ништяг))-Оформление тоже)
[Профиль] [ЛС]

fadaf9 ®

Пол: Мужской

Стаж: 6 лет 9 месяцев

Сообщений: 2142

Откуда: Таджикистан

Создавать темы 12-Мар-2014 19:10 (спустя 1 час 12 минут)

[Цитировать]

Davron Karimof
Спасибо!
sashalilya
Проверите эти?
Трансформеры / Transformers. The Movie (Нельсон Шин) [1986 г., приключения, меха, фантастика, боевик, трансформеры, BDRip 720p]
Приключения Тинтина: Тайна Единорога / The Adventures of Tintin (Стивен Спилберг) [2011 г., мультфильм, боевик, детектив, приключения, семейный, BDRip 1080p]
[Профиль] [ЛС]

PEEE

Пол: Мужской

Стаж: 5 лет 10 месяцев

Сообщений: 276

Откуда: Душанбе

Создавать темы 14-Июл-2014 19:35 (спустя 4 месяца 2 дня)

[Цитировать]

Оформление тоже)
+10000. как сделал? отправь мне пожалуйста.
[Профиль] [ЛС]

fadaf9 ®

Пол: Мужской

Стаж: 6 лет 9 месяцев

Сообщений: 2142

Откуда: Таджикистан

Создавать темы 14-Июл-2014 19:39 (спустя 4 минуты)

[Цитировать]

PEEE
Постепенно улучшал оформление, пока не пришел к данной форме для фильмов/мультфильмов.-
Оформление
--Ральф / Wreck-It Ralph--«Хорошего друга должно быть много»-- Год выпуска: 2012
Страна: США
Жанр: мультфильм, комедия, приключения, семейный
Продолжительность: 01:41:13
Перевод: Профессиональный (полное дублирование) [-Лицензия-]- Режиссер: Рич Мур
В ролях: Джон Си Райли, Джек МакБрайер, Сара Силверман, Джейн Линч, Алан Тьюдик, Минди Калинг, Джо Ло Трульо, Эд О’Нил, Деннис Хейсбёрт, Эди МакКлёрг- Описание:
Ральф — второстепенный персонаж восьмибитной компьютерной игры, и ему надоело находиться в тени главного героя, мастера на все руки Феликса, который всегда появляется, чтобы «исправить» ситуацию! После тридцати лет добросовестной работы в роли злодея, в течение которых все похвалы выпадали на долю Феликса, Ральф больше не хочет быть плохим.Он решает отправиться в путешествие по аркадным играм разных жанров, чтобы доказать всем, что и он тоже может быть героем. На своем пути Ральф встречает героев разных игр — хладнокровную сержанта Калхун из игры Hero’s Duty, оберегающую планету от нашествия инопланетных захватчиков, и сладкую на вид, но острую на язычок Ванелопа фон Кекс, чье существование в гоночном симуляторе Sugar Rush внезапно оказывается под угрозой. Наконец-то Ральфу выпадает шанс показать, что он умеет не только разрушать!-
- рекомендуется присутствие родителей!- Качество: BDRip 1080p
Формат: MKV
Видео: AVC, 12,0 Mbps, 1920x804p, 23.976 fps
Аудио №1: DTS, 5.1, 1509 kbps, 6 ch, 48.0 KHz - Russian (полное дублирование) [-Лицензия-]
Аудио №2: AC3, 5.1, 640 kbps, 6 ch, 48.0 KHz - Ukrainian (полное дублирование) [-Лицензия-]
Аудио №3: DTS, 5.1, 1509 kbps, 6 ch, 48.0 KHz - English
Субтитры: Russian, Russian (Captions), Ukrainian, Ukrainian (Captions), English, Franch, Spanish-
Знаете ли вы,что...

*Дизайн Соника дала компания SEGA взамен на Ральфа, поэтому Громила «попал» в игру «Sonic & All-Stars Racing Transformed».
*Еж Соник несколько раз появляется в фильме. Когда Ральф покидает игру Pac-Man и едет на центральный вокзал, Соника можно увидеть на нескольких мониторах объясняющим правило, что, «если погибнешь не в своей игре, уже не оживешь, игра окончена». Также Соник присутствует на вечеринке в честь 30-летия игры «Мастер Феликс». Его можно увидеть сразу после того, как Ральф входит в комнату. И последний раз он появляется, когда Ральф случайно запускает спасательную капсулу в игре «Долг героя». Прежде чем влететь в «Сахарный форсаж», спасательная капсула сбивает прогуливающегося Соника, и он теряет все свои кольца, как обычно и происходит во всех играх о Сонике.
*Персонаж Ванилопа был создан по образу самой Сары Силверман после прочтения ее автобиографии The Bedwetter: Stories of Courage, Redemption and Pee.
*В мультфильме задействовано более 180 уникальных персонажей — втрое больше, чем в любом другом среднестатистическом анимационном фильме.
*Первоначально писать музыку к этому фильму предлагали композитору Томасу Ньюману, но в итоге его место занял Генри Джекман.
*В отличие от большинства анимационных фильмов, актеры, озвучивающие основных персонажей, записывались вместе в одной комнате, что, естественно, привело к множественным импровизациям.
*Первые два месяца написания сценария фильма главным персонажем был Феликс (Джек МакБрайер).
*На ранних этапах создания Ральфа хотели сделать восьмибитным во всем фильме, но потом сочли, что он был бы недостаточно милым, и отказались от этой идеи.
*Был разработан персонаж Nicelander, который выглядел как Джон Лассетер, но в итоге он так и не попал в фильм.
*В начале производства студия Disney собиралась дать эпизодическую роль Марио и Луиджи, но оказалась не в состоянии выплатить за них гонорар компании Nintendo и обратилась к ней с просьбой использовать хотя бы символику. В итоге персонаж Феликс получил некоторые атрибуты Марио: комбинезон, сопровождающие звуки из Mario Bros. 1980-х, а также некоторые движения (прыжки и вращения, которые были в поздних играх серии).
*Персонаж Калхун был изначально задуман как мужчина.
*Образ Ральфа взят из игры Rampage, в которой монстры разрушают здания.
*В одной из сцен король Карамель использует классический контроллер Nintendo Entertainment System (NES) для доступа к исходному коду игры «Сахарный форсаж». Комбинация, которую он вводит, известна как код Konami (вверх, вверх, вниз, вниз, влево, вправо, влево, вправо, B, A, старт), и при вводе этой комбинации в NES-играх от Konami игроки открывали специальные читы, такие как дополнительные жизни или возможность пропускать уровни. Первоначально этот код был запрограммирован в играх, для того чтобы упростить программистам процесс проверки поздних уровней.
*Владелец игровых автоматов мистер Литвак носит рубашку судьи — это намек на Уолтера Дэя, владельца игровых автоматов Twin Galaxies в Оттумве, штат Айова. И, хотя это и не связано с этим фильмом, он снимался в документальном фильме «Охота на призраков» (2007), а также больше всего известен по фильму «Король Конга» (2007).
*Полицейских в форме пончика и эклера в игре «Сахарный форсаж» зовут Уинчел и Дункан. Это скрытый намек на две американские сети, торгующие пончиками, — Winchell’s Donut House и Dunkin’ Donuts.
*Когда Ральф копается в ящике кладовки, он достает несколько предметов. Один — гриб роста из игры Super Mario Bros, второй — восклицательный знак из серии Metal Gear и Metal Gear Solid.
*На вечеринке, посвященной 30-летию игры, в роли диджея выступает известный музыкант Skrillex.
*По фильму была сделана одноимённая игра на консоли Nintendo, а также на платформе Android и iOs.
*В сцене с кладовкой: таракан — отсылка к мультфильму «ВАЛЛ-И» (2008).
*На Центральной Станции можно заметить загадочную личность (невозможно понять кто это) читающую газету, если хорошенько присмотреться, то на газете можно увидеть символы автоботов и десептиконов.
MediaInfo

General
Unique ID : 179220174462937957966183378641922120491 (0x86D48CD0F8A181FCAD232E2E93A15B2B)
Format : Matroska
Format version : Version 4 / Version 2
File size : 11.1 GiB
Duration : 1h 41mn
Overall bit rate : 15.7 Mbps
Movie name : Wreck-It Ralph (2012) - Release for HDCLUB by Skazhutin
Encoded date : UTC 2014-07-10 21:29:43
Writing application : mkvmerge v7.0.0 ('Where We Going') 64bit built on Jun 9 2014 15:16:27
Writing library : libebml v1.3.0 + libmatroska v1.4.1
DURATION : 01:34:13.563000000
NUMBER_OF_FRAMES : 1328
NUMBER_OF_BYTES : 46101
_STATISTICS_WRITING_APP : mkvmerge v7.0.0 ('Where We Going') 64bit built on Jun 9 2014 15:16:27
_STATISTICS_WRITING_DATE_UTC : 2014-07-10 21:29:43
_STATISTICS_TAGS : BPS DURATION NUMBER_OF_FRAMES NUMBER_OF_BYTES
Video #1
ID : 1
Format : AVC
Format/Info : Advanced Video Codec
Format profile : High@L4.1
Format settings, CABAC : Yes
Format settings, ReFrames : 5 frames
Codec ID : V_MPEG4/ISO/AVC
Duration : 1h 41mn
Bit rate : 12.0 Mbps
Width : 1 920 pixels
Height : 804 pixels
Display aspect ratio : 2.40:1
Frame rate mode : Constant
Frame rate : 23.976 fps
Color space : YUV
Chroma subsampling : 4:2:0
Bit depth : 8 bits
Scan type : Progressive
Bits/(Pixel*Frame) : 0.324
Stream size : 8.27 GiB (75%)
Title : Release for HDCLUB
Writing library : x264 core 130 r2273kMod b3065e6
Encoding settings : cabac=1 / ref=5 / deblock=1:-1:-1 / analyse=0x3:0x113 / me=umh / subme=11 / psy=1 / fade_compensate=0.00 / psy_rd=1.00:0.00 / mixed_ref=1 / me_range=48 / chroma_me=1 / trellis=2 / 8x8dct=1 / cqm=0 / deadzone=21,11 / fast_pskip=0 / chroma_qp_offset=-2 / threads=12 / lookahead_threads=2 / sliced_threads=0 / nr=0 / decimate=0 / interlaced=0 / bluray_compat=0 / constrained_intra=0 / bframes=8 / b_pyramid=2 / b_adapt=2 / b_bias=0 / direct=3 / weightb=1 / open_gop=0 / weightp=2 / keyint=250 / keyint_min=23 / scenecut=40 / intra_refresh=0 / rc_lookahead=40 / rc=2pass / mbtree=0 / bitrate=12000 / ratetol=1.0 / qcomp=0.65 / qpmin=0 / qpmax=69 / qpstep=4 / cplxblur=20.0 / qblur=0.5 / vbv_maxrate=50000 / vbv_bufsize=62500 / nal_hrd=none / ip_ratio=1.40 / pb_ratio=1.30 / aq=1:1.00
Language : English
Default : Yes
Forced : No
Matrix coefficients : BT.709
Audio #2
ID : 2
Format : DTS
Format/Info : Digital Theater Systems
Mode : 16
Format settings, Endianness : Big
Codec ID : A_DTS
Duration : 1h 41mn
Bit rate mode : Constant
Bit rate : 1 509 Kbps
Channel(s) : 6 channels
Channel positions : Front: L C R, Side: L R, LFE
Sampling rate : 48.0 KHz
Bit depth : 24 bits
Compression mode : Lossy
Stream size : 1.07 GiB (10%)
Title : DTS 5.1 @ 1536 kbps - Dub
Language : Russian
Default : Yes
Forced : No
Audio #3
ID : 3
Format : AC-3
Format/Info : Audio Coding 3
Mode extension : CM (complete main)
Format settings, Endianness : Big
Codec ID : A_AC3
Duration : 1h 41mn
Bit rate mode : Constant
Bit rate : 640 Kbps
Channel(s) : 6 channels
Channel positions : Front: L C R, Side: L R, LFE
Sampling rate : 48.0 KHz
Bit depth : 16 bits
Compression mode : Lossy
Stream size : 463 MiB (4%)
Title : AC3 5.1 @ 640 kbps - Dub
Language : Ukrainian
Default : No
Forced : No
Audio #4
ID : 4
Format : DTS
Format/Info : Digital Theater Systems
Mode : 16
Format settings, Endianness : Big
Codec ID : A_DTS
Duration : 1h 41mn
Bit rate mode : Constant
Bit rate : 1 509 Kbps
Channel(s) : 6 channels
Channel positions : Front: L C R, Side: L R, LFE
Sampling rate : 48.0 KHz
Bit depth : 24 bits
Compression mode : Lossy
Stream size : 1.07 GiB (10%)
Title : DTS 5.1 @ 1536 kbps
Language : English
Default : No
Forced : No
Text #5
ID : 5
Format : UTF-8
Codec ID : S_TEXT/UTF8
Codec ID/Info : UTF-8 Plain Text
Title : Captions
Language : Russian
Default : Yes
Forced : No
Text #6
ID : 6
Format : UTF-8
Codec ID : S_TEXT/UTF8
Codec ID/Info : UTF-8 Plain Text
Language : Russian
Default : No
Forced : No
Text #7
ID : 7
Format : UTF-8
Codec ID : S_TEXT/UTF8
Codec ID/Info : UTF-8 Plain Text
Title : Captions
Language : Ukrainian
Default : No
Forced : No
Text #8
ID : 8
Format : UTF-8
Codec ID : S_TEXT/UTF8
Codec ID/Info : UTF-8 Plain Text
Language : Ukrainian
Default : No
Forced : No
Text #9
ID : 9
Format : UTF-8
Codec ID : S_TEXT/UTF8
Codec ID/Info : UTF-8 Plain Text
Language : English
Default : No
Forced : No
Text #10
ID : 10
Format : UTF-8
Codec ID : S_TEXT/UTF8
Codec ID/Info : UTF-8 Plain Text
Language : English
Default : No
Forced : No
Text #11
ID : 11
Format : UTF-8
Codec ID : S_TEXT/UTF8
Codec ID/Info : UTF-8 Plain Text
Language : French
Default : No
Forced : No
Text #12
ID : 12
Format : UTF-8
Codec ID : S_TEXT/UTF8
Codec ID/Info : UTF-8 Plain Text
Language : Spanish
Default : No
Forced : No

Menu
00:00:00.000 : en:Opening Titles
00:07:12.139 : en:30 Years
00:16:34.910 : en:Hero's Duty
00:27:07.500 : en:Sugar Rush
00:37:25.951 : en:The Glitch
00:44:46.683 : en:Going Turbo
00:48:45.130 : en:Making A Car
00:51:36.009 : en:Driving Lessons
00:58:56.032 : en:King Candy's Secret
01:09:07.893 : en:Out Of Order
01:13:39.623 : en:Every Day Of My Life
01:15:56.801 : en:The Race
01:18:52.977 : en:Cy-Bug Invasion
01:21:53.741 : en:Can't Leave The Game
01:27:25.364 : en:One Game At A Time
01:33:10.542 : en:End Credits
Скриншоты







[Профиль] [ЛС]

MEMDUH

Пол: Мужской

Стаж: 5 лет 9 месяцев

Сообщений: 1086

Создавать темы 15-Июл-2014 01:24 (спустя 5 часов)

[Цитировать]

fadaf9
по поводу постера, сам сделал или взял из внешки ?
[Профиль] [ЛС]

fadaf9 ®

Пол: Мужской

Стаж: 6 лет 9 месяцев

Сообщений: 2142

Откуда: Таджикистан

Создавать темы 19-Июл-2014 16:35 (спустя 4 дня)

[Цитировать]

MEMDUH
С внешки, постеры делаю, если не нравятся существующие.
[Профиль] [ЛС]

Создавать темы 21-Окт-2014 13:52 (спустя 3 месяца 1 день)

Топик был перенесен из форума HDTV в форум Архив

sashalilya
 

DavR1k.

Пол: Мужской

Стаж: 3 года

Сообщений: 1956

Откуда: Душанбе

Создавать темы 04-Янв-2015 19:14 (спустя 5 месяцев 16 дней)

[Цитировать]

Отличный добрый мультик.
[Профиль] [ЛС]

Создавать темы 11-Янв-2015 12:14 (спустя 6 дней)

Топик был перенесен из форума Архив в форум HDTV

Paladin4eg
 
Показать сообщения:    
Ответить на тему

Текущее время: 18-Ноя 18:53

Часовой пояс: UTC + 3



Вы не можете начинать темы
Вы не можете отвечать на сообщения
Вы не можете редактировать свои сообщения
Вы не можете удалять свои сообщения
Вы не можете голосовать в опросах
Вы не можете прикреплять файлы к сообщениям
Вы не можете скачивать файлы