Ледниковый Период - Коллекция / Ice Age - Collection [2002-2012, мультфильмы, приключения, комедия, полнометражные, короткометражные, BDRip 1080p, BDRemux 1080p, WEB-DLRip 1080p]

Ответить на тему
 
Автор Сообщение

fadaf9 ®

Пол: Мужской

Стаж: 6 лет 9 месяцев

Сообщений: 2142

Откуда: Таджикистан

Создавать темы 15-Фев-2014 17:56

[Цитировать]

--Ледниковый период - Коллекция / Ice Age - Collection--
Ледниковый период / Ice Age
-Ледниковый период / Ice Age- Название: Ледниковый период
Оригинальное название: Ice Age
Год выпуска: 2002
Страна: США
Жанр: мультфильм, комедия, приключения, семейный
Продолжительность: 01:21:05
Перевод: Профессиональный (полное дублирование) + Многоголосый + Одноголосый (Живов)-Режиссер: Крис Уэдж, Карлос Салдана-В ролях: Рэй Романо, Джон Легуизамо, Дэнис Лири, Горан Вишнич, Джек Блэк, Седрик «Развлекатель», Стивен Рут, Дидрих Бадер, Алан Тьюдик, Лорри Бэгли-Описание:
Веселые и опасные приключения героев. 20 тыс. лет назад. Чтобы избежать приближающегося из-за наступления ледникового периода холода, животные мигрируют на юг. Однако некоторые из них все-таки решают остаться — одинокий, угрюмый мамонт Манфред, а также бесшабашный ленивец Сид.
Случайно эта парочка наталкивается на человеческого детеныша. Они решаются вернуть его людям и отправляются в путешествие. По пути они встречают саблезубого хитрого тигра. И теперь этой веселой компании предстоят забавные приключения!
-Качество: BDRip 1080p
Формат: MKV
Видео: AVC, 10.0 Mbps, 1920x1040p, 23.976 fps
Аудио №1: Russian, AC3, 5.1, 384 Kbps, 6ch, 48 kHz - Дубляж
Аудио №2: Russian, AC3, 5.1, 755 Kbps, 6ch, 48 kHz - Королёв
Аудио №3: English, DTS, 5.1, 1510 Kbps, 6 ch, 48 kHz-
MediaInfo

General
Unique ID : 203880869132446990151728694173583204086 (0x996206EFB2752C6285ED74497F0EDEF6)
Format : Matroska
Format version : Version 4 / Version 2
File size : 7.18 GiB
Duration : 1h 21mn
Overall bit rate : 12.7 Mbps
Encoded date : UTC 2014-11-03 16:04:04
Writing application : mkvmerge v7.3.0 ('Nouages') 64bit built on Oct 22 2014 18:53:34
Writing library : libebml v1.3.0 + libmatroska v1.4.1
DURATION : 01:21:04.758000000
NUMBER_OF_FRAMES : 456081
NUMBER_OF_BYTES : 917634972
_STATISTICS_WRITING_APP : mkvmerge v7.3.0 ('Nouages') 64bit built on Oct 22 2014 18:53:34
_STATISTICS_WRITING_DATE_UTC : 2014-11-03 16:04:04
_STATISTICS_TAGS : BPS DURATION NUMBER_OF_FRAMES NUMBER_OF_BYTES
Video
ID : 1
Format : AVC
Format/Info : Advanced Video Codec
Format profile : High@L4.1
Format settings, CABAC : Yes
Format settings, ReFrames : 5 frames
Codec ID : V_MPEG4/ISO/AVC
Duration : 1h 21mn
Bit rate : 10.0 Mbps
Width : 1 920 pixels
Height : 1 040 pixels
Display aspect ratio : 1.85:1
Frame rate mode : Constant
Frame rate : 23.976 fps
Color space : YUV
Chroma subsampling : 4:2:0
Bit depth : 8 bits
Scan type : Progressive
Bits/(Pixel*Frame) : 0.210
Stream size : 5.54 GiB (77%)
Writing library : x264 core 58
Encoding settings : cabac=1 / ref=5 / deblock=1:-3:-3 / analyse=0x3:0x133 / me=umh / subme=7 / me-prepass=1 / brdo=1 / mixed_ref=1 / me_range=24 / chroma_me=1 / trellis=0 / 8x8dct=1 / cqm=2 / deadzone=6,4 / chroma_qp_offset=0 / threads=6 / nr=0 / decimate=1 / mbaff=0 / bframes=5 / b_pyramid=1 / b_adapt=1 / b_bias=0 / direct=3 / wpredb=1 / bime=1 / keyint=250 / keyint_min=25 / scenecut=40(pre) / rc=2pass / bitrate=10030 / ratetol=1.0 / rceq='blurCplx^(1-qComp)' / qcomp=1.00 / qpmin=10 / qpmax=51 / qpstep=4 / cplxblur=20.0 / qblur=0.5 / ip_ratio=1.40 / pb_ratio=1.30 / aq=1:0.5:13.0
Language : English
Default : Yes
Forced : No
DURATION : 01:21:04.773000000
NUMBER_OF_FRAMES : 116638
NUMBER_OF_BYTES : 6099312790
_STATISTICS_WRITING_APP : mkvmerge v7.3.0 ('Nouages') 64bit built on Oct 22 2014 18:53:34
_STATISTICS_WRITING_DATE_UTC : 2014-11-03 16:04:04
_STATISTICS_TAGS : BPS DURATION NUMBER_OF_FRAMES NUMBER_OF_BYTES
Audio #1
ID : 2
Format : AC-3
Format/Info : Audio Coding 3
Mode extension : CM (complete main)
Format settings, Endianness : Big
Codec ID : A_AC3
Duration : 1h 21mn
Bit rate mode : Constant
Bit rate : 384 Kbps
Channel(s) : 6 channels
Channel positions : Front: L C R, Side: L R, LFE
Sampling rate : 48.0 KHz
Bit depth : 16 bits
Compression mode : Lossy
Stream size : 223 MiB (3%)
Title : DUB
Language : Russian
Default : Yes
Forced : No
Audio #2
ID : 3
Format : DTS
Format/Info : Digital Theater Systems
Mode : 16
Format settings, Endianness : Big
Codec ID : A_DTS
Duration : 1h 21mn
Bit rate mode : Constant
Bit rate : 755 Kbps
Channel(s) : 6 channels
Channel positions : Front: L C R, Side: L R, LFE
Sampling rate : 48.0 KHz
Bit depth : 24 bits
Compression mode : Lossy
Stream size : 438 MiB (6%)
Title : AVO [-Королёв-]
Language : Russian
Default : No
Forced : No
Audio #3
ID : 4
Format : DTS
Format/Info : Digital Theater Systems
Mode : 16
Format settings, Endianness : Big
Codec ID : A_DTS
Duration : 1h 21mn
Bit rate mode : Constant
Bit rate : 1 509 Kbps
Channel(s) : 6 channels
Channel positions : Front: L C R, Side: L R, LFE
Sampling rate : 48.0 KHz
Bit depth : 24 bits
Compression mode : Lossy
Stream size : 875 MiB (12%)
Title : Original
Language : English
Default : No
Forced : No
Menu
00:00:00.000 : en:A Squirrel's Life
00:03:50.438 : en:The Big Chill?
00:05:19.360 : en:All Alone
00:09:29.485 : en:A Great Team
00:14:39.670 : en:Tigers on the Prowl
00:17:45.773 : en:Save the Child
00:25:21.686 : en:Taking Care of the Baby
00:27:39.324 : en:Food!
00:31:24.799 : en:Bedtime
00:34:57.929 : en:Where's the Baby?
00:42:25.334 : en:A Shortcut
00:48:13.473 : en:Cave Drawings
00:51:47.979 : en:The Searchers
00:52:58.049 : en:A Hot Foot
00:56:01.441 : en:The Tiger's Plan
00:57:03.878 : en:Fire Starter
01:00:20.116 : en:Ambush!
01:08:11.754 : en:Reunited
01:13:29.821 : en:20,000 Years Later
01:15:24.478 : en:End Titles
01:21:04.860 : en:The Dam Breaks
Скриншоты




Ледниковый период 2: Глобальное потепление / Ice Age: The Meltdown
-Ледниковый период 2: Глобальное потепление / Ice Age: The Meltdown- Название: Ледниковый период 2: Глобальное потепление
Оригинальное название: Ice Age: The Meltdown
Год выпуска: 2006
Страна: США
Жанр: мультфильм, фэнтези, боевик, мелодрама, комедия
Продолжительность: 01:31:13
Перевод: Профессиональный (полное дублирование), Оригинальный (английский)-Режиссер: Карлос Салдана
В ролях: Рэй Романо, Джон Легуизамо, Дэнис Лири, Шонн Уильям Скотт, Джош Пек, Куин Латифа, Уилл Арнетт, Джей Лено, Крис Уэдж, Питер Экерман-Описание:
Саблезубый тигр Диего, мамонт Манфред, грызун Скрэт и ленивец Сид дожили до глобального потепления. С одной стороны, это круто — ледяная пустыня превратилась в настоящий аквапарк, где можно принимать теплые ванны и резвиться под сенью струй. С другой — не очень: стремительный паводок идет прямиком к их родной долине.
Теперь ответственным животным придется спасать соседей от потопа, что довольно проблематично — строить ковчег совершенно не из чего, кроме как из талого снега. Но не беспокойтесь — эвакуация разнообразной живности в сухое место пройдет не менее суетливо, смешно и успешно, чем и прошлая операция по возвращению человеческого детеныша в лоно семьи.
-Качество: BDRip 1080p
Формат: MKV
Видео: AVC, 9600 Kbps, 1920x1032p, 23.976 fps
Аудио №1: Russian, AC3, 5.1, 384 kbps, 6 ch, 48 kHz - Профессиональный (полное дублирование)
Аудио №2: Russian, DTS, 5.1, 755 kbps, 6 ch, 48 kHz - Многоголоска
Аудио №3: English, DTS, 5.1, 1510 kbps, 6 ch, 48 kHz - Оригинальный (английский)
Аудио №4: English, AC3, 2.0, 224 kbps, 2 ch, 48 kHz - Комментарии 1
Аудио №5: English, AC3, 2.0, 224 kbps, 2 ch, 48 kHz - Комментарии 2
Субтитры: английские-
MediaInfo

General
Unique ID : 192243651184075816195417649389312220065 (0x90A0C7CB23126AEF91DCCA09ECC91BA1)
Format : Matroska
Format version : Version 4 / Version 2
File size : 7.98 GiB
Duration : 1h 31mn
Overall bit rate : 12.5 Mbps
Encoded date : UTC 2014-11-03 16:18:54
Writing application : mkvmerge v7.3.0 ('Nouages') 64bit built on Oct 22 2014 18:53:34
Writing library : libebml v1.3.0 + libmatroska v1.4.1
DURATION : 01:31:13.024000000
NUMBER_OF_FRAMES : 171032
NUMBER_OF_BYTES : 153244672
_STATISTICS_WRITING_APP : mkvmerge v7.3.0 ('Nouages') 64bit built on Oct 22 2014 18:53:34
_STATISTICS_WRITING_DATE_UTC : 2014-11-03 16:18:54
_STATISTICS_TAGS : BPS DURATION NUMBER_OF_FRAMES NUMBER_OF_BYTES
Video
ID : 1
Format : AVC
Format/Info : Advanced Video Codec
Format profile : High@L5.1
Format settings, CABAC : Yes
Format settings, ReFrames : 9 frames
Codec ID : V_MPEG4/ISO/AVC
Duration : 1h 31mn
Bit rate : 9 600 Kbps
Width : 1 920 pixels
Height : 1 032 pixels
Display aspect ratio : 1.85:1
Frame rate mode : Constant
Frame rate : 23.976 fps
Color space : YUV
Chroma subsampling : 4:2:0
Bit depth : 8 bits
Scan type : Progressive
Bits/(Pixel*Frame) : 0.202
Stream size : 5.85 GiB (73%)
Writing library : x264 core 54 svn-622
Encoding settings : cabac=1 / ref=6 / deblock=1:0:0 / analyse=0x3:0x133 / me=umh / subme=7 / brdo=1 / mixed_ref=1 / me_range=24 / chroma_me=1 / trellis=1 / 8x8dct=1 / cqm=2 / deadzone=21,11 / chroma_qp_offset=0 / threads=2 / nr=0 / decimate=0 / mbaff=0 / bframes=4 / b_pyramid=1 / b_adapt=1 / b_bias=0 / direct=1 / wpredb=1 / bime=1 / keyint=250 / keyint_min=25 / scenecut=40(pre) / rc=2pass / bitrate=9600 / ratetol=1.0 / rceq='blurCplx^(1-qComp)' / qcomp=0.60 / qpmin=10 / qpmax=51 / qpstep=4 / cplxblur=20.0 / qblur=0.5 / ip_ratio=1.40 / pb_ratio=1.30
Language : English
Default : Yes
Forced : No
DURATION : 01:30:36.181000000
NUMBER_OF_FRAMES : 130338
NUMBER_OF_BYTES : 6523224482
_STATISTICS_WRITING_APP : mkvmerge v7.3.0 ('Nouages') 64bit built on Oct 22 2014 18:53:34
_STATISTICS_WRITING_DATE_UTC : 2014-11-03 16:18:54
_STATISTICS_TAGS : BPS DURATION NUMBER_OF_FRAMES NUMBER_OF_BYTES
Audio #1
ID : 2
Format : AC-3
Format/Info : Audio Coding 3
Mode extension : CM (complete main)
Format settings, Endianness : Big
Codec ID : A_AC3
Duration : 1h 31mn
Bit rate mode : Constant
Bit rate : 384 Kbps
Channel(s) : 6 channels
Channel positions : Front: L C R, Side: L R, LFE
Sampling rate : 48.0 KHz
Bit depth : 16 bits
Compression mode : Lossy
Stream size : 251 MiB (3%)
Title : DUB
Language : Russian
Default : Yes
Forced : No
Audio #2
ID : 3
Format : DTS
Format/Info : Digital Theater Systems
Mode : 16
Format settings, Endianness : Big
Codec ID : A_DTS
Duration : 1h 31mn
Bit rate mode : Constant
Bit rate : 755 Kbps
Channel(s) : 6 channels
Channel positions : Front: L C R, Side: L R, LFE
Sampling rate : 48.0 KHz
Bit depth : 24 bits
Compression mode : Lossy
Stream size : 492 MiB (6%)
Title : MVO
Language : Russian
Default : No
Forced : No
Audio #3
ID : 4
Format : DTS
Format/Info : Digital Theater Systems
Mode : 16
Format settings, Endianness : Big
Codec ID : A_DTS
Duration : 1h 31mn
Bit rate mode : Constant
Bit rate : 1 509 Kbps
Channel(s) : 6 channels
Channel positions : Front: L C R, Side: L R, LFE
Sampling rate : 48.0 KHz
Bit depth : 24 bits
Compression mode : Lossy
Stream size : 985 MiB (12%)
Title : Original
Language : English
Default : No
Forced : No
Audio #4
ID : 6
Format : AC-3
Format/Info : Audio Coding 3
Mode extension : CM (complete main)
Format settings, Endianness : Big
Codec ID : A_AC3
Duration : 1h 31mn
Bit rate mode : Constant
Bit rate : 224 Kbps
Channel(s) : 2 channels
Channel positions : Front: L R
Sampling rate : 48.0 KHz
Bit depth : 16 bits
Compression mode : Lossy
Stream size : 146 MiB (2%)
Title : Commentary 1
Language : English
Default : No
Forced : No
Audio #5
ID : 7
Format : AC-3
Format/Info : Audio Coding 3
Mode extension : CM (complete main)
Format settings, Endianness : Big
Codec ID : A_AC3
Duration : 1h 31mn
Bit rate mode : Constant
Bit rate : 224 Kbps
Channel(s) : 2 channels
Channel positions : Front: L R
Sampling rate : 48.0 KHz
Bit depth : 16 bits
Compression mode : Lossy
Stream size : 146 MiB (2%)
Title : Commentary 2
Language : English
Default : No
Forced : No
Text
ID : 5
Format : ASS
Codec ID : S_TEXT/ASS
Codec ID/Info : Advanced Sub Station Alpha
Compression mode : Lossless
Language : English
Default : Yes
Forced : No
Menu
00:00:00.000 : en:What a Good Game
00:06:19.295 : en:Storytime
00:07:42.670 : en:Doomsday
00:10:45.394 : en:The Flood Is Coming!
00:15:23.255 : en:Traffic Jam
00:17:42.936 : en:Just One Acorn
00:19:23.161 : en:The Last Mammoth
00:21:40.924 : en:Miscreants
00:23:14.267 : en:Three Possums
00:27:11.838 : en:Playing Dead
00:30:32.247 : en:On Thin Ice
00:35:44.809 : en:Tons of Fun
00:38:48.659 : en:Family Ties
00:42:26.752 : en:Big Butt
00:45:49.705 : en:Facing the Fear
00:47:44.653 : en:Ultimate Sacrifice
00:50:17.681 : en:Balancing Act
00:54:04.491 : en:Fire King
00:58:59.244 : en:Food Glorious Food
01:01:06.788 : en:Minefield
01:05:11.115 : en:The Dam Breaks
01:10:38.025 : en:To Life!
01:20:55.475 : en:Heaven's Gate
01:23:34.634 : en:End Titles
Скриншоты




Ледниковый период 3: Эра динозавров / Ice Age: Dawn of the Dinosaurs
-Ледниковый период 3: Эра динозавров / Ice Age: Dawn of the Dinosaurs- Название: Ледниковый период 3: Эра динозавров
Оригинальное название: Ice Age: Dawn of the Dinosaurs
Год выпуска: 2009
Страна: США
Жанр: мультфильм, комедия, приключения, семейный
Продолжительность: 01:34:03
Перевод: Профессиональный (полное дублирование)
Русские субтитры: есть-Режиссер: Карлос Салдана, Майк Трумейер-Роли озвучивали: Рэй Романо, Джон Легуизамо, Саймон Пегг, Куин Латифа, Шонн Уильям Скотт, Джош Пек, Дэнис Лири, Крис Уэдж, Юнис Чо, Карен Дишер-Описание:
К событиям «Ледникового периода 3» жизнь главных героев мультфильма потерпела некоторые изменения. Мамонты Манфред и Элли ожидают появление на свет своего детёныша; саблезубый тигр Диего впал в раздумье о том, не стал ли он слишком «мягкотелым» в компании своих друзей; ленивец Сид, бредя желанием создать собственное племя, решился украсть несколько яиц динозавра. Отправившись спасать Сида, друзья попадают в таинственный растительный мир, скрытый под толщами льда, где они сталкиваются с динозаврами и агрессивной окружающей средой, а также знакомятся с охотником на динозавров — лаской по имени Бак.
Крысобелка Скрэт (который вновь случайным образом стал виной глобальной проблемы, открыв путь в мир динозавров) по-прежнему гоняется за своим орехом, но на этот раз у него появился конкурент — крысобелка Скрэтти, однако, одновременно с одержимой борьбой за орех, эти двое влюбляются друг в друга.
-Качество: BDRip 1080p
Формат: MKV
Видео: AVC, 10.6 Mbps, 1920х1036p, 23.976 fps
Аудио №1: Russian, DTS, 5.1, 755 Kbps, 6 ch, 48 kHz - Профессиональный (полное дублирование)
Аудио №2: English, DTS, 5.1, 1510 Kbps, 6 ch, 48 kHz
Субтитры: Russian, English
MediaInfo

General
Unique ID : 207265951495394010226957612901154365390 (0x9BEDF861E3F223C9AEA83C2CC02B1FCE)
Complete name : F:\HD Мульты\Коллекции и сериалы\Ледниковый Период - Коллекция\Ice Age.Dawn of the Dinosaurs.2009.BDRip 1080p.mkv
Format : Matroska
Format version : Version 4 / Version 2
File size : 8.43 GiB
Duration : 1h 34mn
Overall bit rate : 12.8 Mbps
Encoded date : UTC 2014-11-03 16:30:49
Writing application : mkvmerge v7.3.0 ('Nouages') 64bit built on Oct 22 2014 18:53:34
Writing library : libebml v1.3.0 + libmatroska v1.4.1
DURATION : 01:26:13.600000000
NUMBER_OF_FRAMES : 629
NUMBER_OF_BYTES : 45948
_STATISTICS_WRITING_APP : mkvmerge v7.3.0 ('Nouages') 64bit built on Oct 22 2014 18:53:34
_STATISTICS_WRITING_DATE_UTC : 2014-11-03 16:30:49
_STATISTICS_TAGS : BPS DURATION NUMBER_OF_FRAMES NUMBER_OF_BYTES
Video
ID : 1
Format : AVC
Format/Info : Advanced Video Codec
Format profile : High@L4.1
Format settings, CABAC : Yes
Format settings, ReFrames : 4 frames
Codec ID : V_MPEG4/ISO/AVC
Duration : 1h 34mn
Bit rate : 10.6 Mbps
Width : 1 920 pixels
Height : 1 036 pixels
Display aspect ratio : 1.85:1
Frame rate mode : Constant
Frame rate : 23.976 fps
Color space : YUV
Chroma subsampling : 4:2:0
Bit depth : 8 bits
Scan type : Progressive
Bits/(Pixel*Frame) : 0.222
Stream size : 6.78 GiB (80%)
Writing library : x264 core 76 r1271 496d79d
Encoding settings : cabac=1 / ref=4 / deblock=1:-3:-3 / analyse=0x3:0x113 / me=umh / subme=10 / psy=1 / psy_rd=1.0:0.0 / mixed_ref=1 / me_range=32 / chroma_me=1 / trellis=2 / 8x8dct=1 / cqm=0 / deadzone=21,11 / chroma_qp_offset=-2 / threads=6 / nr=0 / decimate=1 / mbaff=0 / bframes=6 / b_pyramid=0 / b_adapt=2 / b_bias=0 / direct=3 / wpredb=1 / keyint=250 / keyint_min=25 / scenecut=40 / rc_lookahead=40 / rc=2pass / mbtree=1 / bitrate=10571 / ratetol=1.0 / qcomp=0.60 / qpmin=10 / qpmax=51 / qpstep=4 / cplxblur=20.0 / qblur=0.5 / ip_ratio=1.40 / aq=1:0.80
Language : English
Default : Yes
Forced : No
DURATION : 01:34:03.258000000
NUMBER_OF_FRAMES : 135303
NUMBER_OF_BYTES : 7456526668
_STATISTICS_WRITING_APP : mkvmerge v7.3.0 ('Nouages') 64bit built on Oct 22 2014 18:53:34
_STATISTICS_WRITING_DATE_UTC : 2014-11-03 16:30:49
_STATISTICS_TAGS : BPS DURATION NUMBER_OF_FRAMES NUMBER_OF_BYTES
Audio #1
ID : 2
Format : DTS
Format/Info : Digital Theater Systems
Mode : 16
Format settings, Endianness : Big
Codec ID : A_DTS
Duration : 1h 34mn
Bit rate mode : Constant
Bit rate : 755 Kbps
Channel(s) : 6 channels
Channel positions : Front: L C R, Side: L R, LFE
Sampling rate : 48.0 KHz
Bit depth : 24 bits
Compression mode : Lossy
Stream size : 508 MiB (6%)
Title : DUB
Language : Russian
Default : Yes
Forced : No
Audio #2
ID : 3
Format : DTS
Format/Info : Digital Theater Systems
Format profile : ES
Mode : 16
Format settings, Endianness : Big
Codec ID : A_DTS
Duration : 1h 34mn
Bit rate mode : Constant
Bit rate : 1 509 Kbps
Channel(s) : 6 channels
Channel positions : Front: L C R, Side: L R, LFE
Sampling rate : 48.0 KHz
Bit depth : 24 bits
Compression mode : Lossy
Stream size : 1 015 MiB (12%)
Title : Original
Language : English
Default : No
Forced : No
Text #1
ID : 4
Format : UTF-8
Codec ID : S_TEXT/UTF8
Codec ID/Info : UTF-8 Plain Text
Language : Russian
Default : No
Forced : No
Text #2
ID : 5
Format : ASS
Codec ID : S_TEXT/ASS
Codec ID/Info : Advanced Sub Station Alpha
Compression mode : Lossless
Language : English
Default : No
Forced : No
Menu
00:00:00.000 : en:Main Titles/in Love
00:03:10.815 : en:Having a Baby
00:10:38.846 : en:Sid's New Family
00:16:05.631 : en:Baby Dinosaur
00:20:00.449 : en:Play Nice
00:24:07.654 : en:One Angry Fossil
00:27:29.647 : en:Underground World
00:31:47.572 : en:Buck to the Rescue
00:36:10.668 : en:Fierce Flora
00:41:11.594 : en:Chasm of Death
00:48:29.072 : en:Parenting Dispute
00:50:46.334 : en:An Eye for a Tooth
00:57:03.002 : en:Nutty Tango
00:58:06.149 : en:On Sid's Trail
01:03:11.287 : en:Code Word
01:08:05.039 : en:Lava Lake
01:11:37.042 : en:Peaches
01:16:00.305 : en:Battling Rudy
01:21:05.068 : en:Home, Sweet Home
01:26:50.121 : en:End Titles
Скриншоты




Ледниковый период 4: Континентальный дрейф / Ice Age: Continental Drift
-Ледниковый период 4: Континентальный дрейф / Ice Age: Continental Drift- Название: Ледниковый период 4: Континентальный дрейф
Оригинальное название: Ice Age: Continental Drift
Год выпуска: 2012
Страна: США
Жанр: мультфильм, комедия, приключения, семейный
Продолжительность: 01:27:45
Перевод: Профессиональный (полное дублирование)
Русские субтитры: есть-Режиссер: Стив Мартино, Майк Трумейер-Роли озвучивали: Рэй Романо, Джон Легуизамо, Куин Латифа, Дэнис Лири, Джош Пек, Питер Динклэйдж, Кеке Палмер, Дженнифер Лопес, Ник Фрост, Азиз Ансари, Джой Бехар, Кристофер Кэмпбелл, Ален Шаба, Эстер Дин, Обри Грэм, Джейсон Фриччион, Джош Гад, Джордж Джейкобс, Ники Минаж, Хезер Моррис, Кунал Найяр, Джеймс Палумбо, Саймон Пегг, Элли Романо, Шонн Уильям Скотт, Мэттью Симмонс, Эдди «Пайолин» Сотело, Патрик Стюарт, Ванда Сайкес, Меган Трумейер, Алан Тьюдик, Крис Уэдж, Ребел Уилсон, Эшли Альберт, Эдита Брыхта, Дэннис Т. Карнеги, Эме Кастл, Джим Конрой, Нола Донкин, Дэн Флаэрти, Мэриев Херингтон, Джейсон Харрис, Сондра Джеймс, Линда Джой, Алекса Кан-Описание:
После приключений под землей прошло семь лет. Случился дрейф континентов. Главные герои мультфильма, отделённые от стада, вынуждены использовать айсберг в качестве плота. Они пересекают океан и попадают в неизвестные им ранее земли с экзотическими животными и пиратами, враждебно настроенными к ним. Скрэту удаётся получить свой жёлудь, но он перемещается в новые для него земли.-Качество: BDRip 1080p
Формат: MKV
Видео: AVC, 11.5 Mbps, 1920х800p, 23.976 fps
Аудио №1: Russian, DTS, 5.1, 768 Kbps, 6 ch, 48 kHz - Профессиональный (полное дублирование)
Аудио №2: English, DTS, 5.1, 1510 Kbps, 6 ch, 48 kHz
Субтитры: Russian, English
MediaInfo

General
Unique ID : 230494915467392052796673654891547309749 (0xAD67B4BAA193B102AA095D443351B6B5)
Format : Matroska
Format version : Version 4 / Version 2
File size : 8.44 GiB
Duration : 1h 27mn
Overall bit rate : 13.8 Mbps
Encoded date : UTC 2014-11-03 17:02:56
Writing application : mkvmerge v7.3.0 ('Nouages') 64bit built on Oct 22 2014 18:53:34
Writing library : libebml v1.3.0 + libmatroska v1.4.1
DURATION : 01:19:11.997000000
NUMBER_OF_FRAMES : 1142
NUMBER_OF_BYTES : 32763
_STATISTICS_WRITING_APP : mkvmerge v7.3.0 ('Nouages') 64bit built on Oct 22 2014 18:53:34
_STATISTICS_WRITING_DATE_UTC : 2014-11-03 17:02:56
_STATISTICS_TAGS : BPS DURATION NUMBER_OF_FRAMES NUMBER_OF_BYTES
Video
ID : 1
Format : AVC
Format/Info : Advanced Video Codec
Format profile : High@L4.1
Format settings, CABAC : Yes
Format settings, ReFrames : 5 frames
Codec ID : V_MPEG4/ISO/AVC
Duration : 1h 27mn
Bit rate : 11.5 Mbps
Width : 1 920 pixels
Height : 800 pixels
Display aspect ratio : 2.40:1
Frame rate mode : Constant
Frame rate : 23.976 fps
Color space : YUV
Chroma subsampling : 4:2:0
Bit depth : 8 bits
Scan type : Progressive
Bits/(Pixel*Frame) : 0.312
Stream size : 6.88 GiB (81%)
Writing library : x264 core 128 r2216+688+33 06dac27 tMod+MixAQ [8-bit@4:2:0 X86_64]
Encoding settings : cabac=1 / ref=5 / deblock=1:-1:-1 / analyse=0x3:0x113 / me=umh / subme=11 / psy=1 / fade_compensate=0.00 / psy_rd=0.80:0.00 / mixed_ref=1 / me_range=32 / chroma_me=1 / trellis=2 / 8x8dct=1 / cqm=0 / deadzone=21,11 / fast_pskip=0 / chroma_qp_offset=-2 / threads=18 / lookahead_threads=3 / sliced_threads=0 / nr=0 / decimate=0 / interlaced=0 / bluray_compat=0 / constrained_intra=0 / fgo=0 / bframes=8 / b_pyramid=2 / b_adapt=2 / b_bias=0 / direct=3 / weightb=1 / open_gop=0 / weightp=2 / keyint=240 / keyint_min=24 / scenecut=40 / intra_refresh=0 / rc_lookahead=240 / rc=2pass / mbtree=1 / bitrate=11500 / ratetol=1.0 / qcomp=0.70 / qpmin=0 / qpmax=69 / qpstep=4 / cplxblur=20.0 / qblur=0.5 / ip_ratio=1.10 / aq=4 / aq-strength=1.00 / aq-sensitivity=10.00 / aq-ifactor=1.00 / aq-pfactor=1.00 / aq-bfactor=1.00 / aq2=0
Language : English
Default : Yes
Forced : No
DURATION : 01:27:45.302000000
NUMBER_OF_FRAMES : 126241
NUMBER_OF_BYTES : 7564732358
_STATISTICS_WRITING_APP : mkvmerge v7.3.0 ('Nouages') 64bit built on Oct 22 2014 18:53:34
_STATISTICS_WRITING_DATE_UTC : 2014-11-03 17:02:56
_STATISTICS_TAGS : BPS DURATION NUMBER_OF_FRAMES NUMBER_OF_BYTES
Audio #1
ID : 2
Format : DTS
Format/Info : Digital Theater Systems
Mode : 16
Format settings, Endianness : Big
Codec ID : A_DTS
Duration : 1h 27mn
Bit rate mode : Constant
Bit rate : 768 Kbps
Channel(s) : 6 channels
Channel positions : Front: L C R, Side: L R, LFE
Sampling rate : 48.0 KHz
Bit depth : 24 bits
Compression mode : Lossy
Stream size : 482 MiB (6%)
Title : DUB
Language : Russian
Default : Yes
Forced : No
Audio #2
ID : 3
Format : DTS
Format/Info : Digital Theater Systems
Mode : 16
Format settings, Endianness : Big
Codec ID : A_DTS
Duration : 1h 27mn
Bit rate mode : Constant
Bit rate : 1 509 Kbps
Channel(s) : 6 channels
Channel positions : Front: L C R, Side: L R, LFE
Sampling rate : 48.0 KHz
Bit depth : 24 bits
Compression mode : Lossy
Stream size : 947 MiB (11%)
Title : Original
Language : English
Default : No
Forced : No
Text #1
ID : 4
Format : UTF-8
Codec ID : S_TEXT/UTF8
Codec ID/Info : UTF-8 Plain Text
Title : Blu-ray CEE
Language : Russian
Default : No
Forced : No
Text #2
ID : 5
Format : UTF-8
Codec ID : S_TEXT/UTF8
Codec ID/Info : UTF-8 Plain Text
Title : Voronine
Language : Russian
Default : No
Forced : No
Text #3
ID : 6
Format : UTF-8
Codec ID : S_TEXT/UTF8
Codec ID/Info : UTF-8 Plain Text
Language : English
Default : No
Forced : No
Menu
00:00:00.000 : en:Chapter 01
00:03:24.037 : en:Chapter 02
00:05:07.224 : en:Chapter 03
00:09:33.406 : en:Chapter 04
00:13:08.705 : en:Chapter 05
00:15:55.329 : en:Chapter 06
00:18:22.643 : en:Chapter 07
00:22:23.717 : en:Chapter 08
00:25:56.555 : en:Chapter 09
00:29:17.965 : en:Chapter 10
00:32:57.601 : en:Chapter 11
00:36:14.381 : en:Chapter 12
00:38:41.653 : en:Chapter 13
00:43:48.709 : en:Chapter 14
00:45:29.644 : en:Chapter 15
00:49:38.976 : en:Chapter 16
00:53:49.476 : en:Chapter 17
00:57:22.856 : en:Chapter 18
01:02:31.039 : en:Chapter 19
01:08:08.334 : en:Chapter 20
01:11:10.475 : en:Chapter 21
01:13:14.640 : en:Chapter 22
01:16:53.400 : en:Chapter 23
01:19:23.634 : en:Chapter 24
Скриншоты




Потерянный орех / Gone Nutty
-Потерянный орех / Gone Nutty- Название: Потерянный орех
Оригинальное название: Gone Nutty
Год выпуска: 2002
Страна: США
Жанр: мультфильм, короткометражка, комедия, семейный
Продолжительность: 00:04:46
Перевод: Не требуется-Режиссер: Карлос Салдана-В ролях: Крис Уэдж-Описание:
Знаменитая белка из «Ледникового периода» гоняется за орехами в процессе полета с обрыва до земли.-Качество: BDRip 1080p
Формат: MKV
Видео: AVC, 20.9 Mbps, 1920x1080p, 23.976 fps
Аудио : English, AC3, 5.1, 640 kbps. 6 ch, 48 kHz-
MediaInfo

General
Unique ID : 204245262280569081291743625399703137651 (0x99A834E7D606EE4DBD3DAB07438F6D73)
Format : Matroska
Format version : Version 2
File size : 751 MiB
Duration : 4mn 46s
Overall bit rate mode : Variable
Overall bit rate : 22.0 Mbps
Encoded date : UTC 2012-07-16 04:08:02
Writing application : mkvmerge v5.7.0 ('The Whirlwind') built on Jul 8 2012 20:08:51
Writing library : libebml v1.2.3 + libmatroska v1.3.0
Video #1
ID : 1
Format : AVC
Format/Info : Advanced Video Codec
Format profile : High@L4.1
Format settings, CABAC : Yes
Format settings, ReFrames : 4 frames
Codec ID : V_MPEG4/ISO/AVC
Duration : 4mn 46s
Bit rate mode : Variable
Bit rate : 20.9 Mbps
Maximum bit rate : 40.0 Mbps
Width : 1 920 pixels
Height : 1 080 pixels
Display aspect ratio : 16:9
Frame rate : 23.976 fps
Color space : YUV
Chroma subsampling : 4:2:0
Bit depth : 8 bits
Scan type : Progressive
Bits/(Pixel*Frame) : 0.420
Stream size : 714 MiB (95%)
Default : Yes
Forced : No
Color primaries : BT.709-5, BT.1361, IEC 61966-2-4, SMPTE RP177
Transfer characteristics : BT.709-5, BT.1361
Matrix coefficients : BT.709-5, BT.1361, IEC 61966-2-4 709, SMPTE RP177
Audio #2
ID : 2
Format : AC-3
Format/Info : Audio Coding 3
Mode extension : CM (complete main)
Format settings, Endianness : Big
Codec ID : A_AC3
Duration : 4mn 46s
Bit rate mode : Constant
Bit rate : 640 Kbps
Channel(s) : 6 channels
Channel positions : Front: L C R, Side: L R, LFE
Sampling rate : 48.0 KHz
Bit depth : 16 bits
Compression mode : Lossy
Delay relative to video : 24ms
Stream size : 21.9 MiB (3%)
Default : Yes
Forced : No
Скриншоты




Не время для орехов / No Time for Nuts
-Не время для орехов / No Time for Nuts- Название: Не время для орехов
Оригинальное название: No Time for Nuts
Год выхода: 2006
Страна: США
Жанр: мультфильм, короткометражка, комедия, приключения, семейный
Продолжительность: 00:07:07
Перевод: Не требуется-Режиссер: Крис Рено, Майк Трумейер-В ролях: Крис Уэдж-Описание:
Полюбившаяся всем саблезубая белка из «Ледникового периода» в небольшом мульте, в котором она находит машину времени и…-Качество: BDRemux 1080p
Формат: MKV
Видео: AVC, 22.1 Mbps, 1920x1080p, 23.976 fps
Аудио: English, AC3, 5.1, 448 kbps, 6 ch, 48 KHz - Дубляж-
MediaInfo

General
Unique ID : 190399383250763699125198733186818167186 (0x8F3D965D320D64F28A8FA36C9314D192)
Format : Matroska
Format version : Version 2
File size : 1.15 GiB
Duration : 7mn 7s
Overall bit rate mode : Variable
Overall bit rate : 23.0 Mbps
Encoded date : UTC 2012-07-11 07:42:18
Writing application : mkvmerge v5.7.0 ('The Whirlwind') built on Jul 8 2012 20:08:51
Writing library : libebml v1.2.3 + libmatroska v1.3.0
Video #1
ID : 1
Format : AVC
Format/Info : Advanced Video Codec
Format profile : High@L4.1
Format settings, CABAC : Yes
Format settings, ReFrames : 4 frames
Codec ID : V_MPEG4/ISO/AVC
Duration : 7mn 7s
Bit rate mode : Variable
Bit rate : 22.1 Mbps
Maximum bit rate : 40.0 Mbps
Width : 1 920 pixels
Height : 1 080 pixels
Display aspect ratio : 16:9
Frame rate : 23.976 fps
Color space : YUV
Chroma subsampling : 4:2:0
Bit depth : 8 bits
Scan type : Progressive
Bits/(Pixel*Frame) : 0.444
Stream size : 1.10 GiB (96%)
Default : Yes
Forced : No
Color primaries : BT.709-5, BT.1361, IEC 61966-2-4, SMPTE RP177
Transfer characteristics : BT.709-5, BT.1361
Matrix coefficients : BT.709-5, BT.1361, IEC 61966-2-4 709, SMPTE RP177
Audio #2
ID : 2
Format : AC-3
Format/Info : Audio Coding 3
Mode extension : CM (complete main)
Format settings, Endianness : Big
Codec ID : A_AC3
Duration : 7mn 7s
Bit rate mode : Constant
Bit rate : 448 Kbps
Channel(s) : 6 channels
Channel positions : Front: L C R, Side: L R, LFE
Sampling rate : 48.0 KHz
Bit depth : 16 bits
Compression mode : Lossy
Stream size : 22.8 MiB (2%)
Default : Yes
Forced : No
Скриншоты




Сид, инструкция по выживанию / Surviving Sid
-Сид, инструкция по выживанию / Surviving Sid- Название: Сид, инструкция по выживанию
Оригинальное название: Surviving Sid
Год выхода: 2008
Страна: США
Жанр: мультфильм, короткометражка
Продолжительность: 00:07:59
Перевод: Профессиональный (дублированный)-Режиссёр: Гален Т. Чу, Карен Дишер-Роли озвучивали: Шэйн Баумель, Пол Батчер, Шон Майкл Каннингэм, Карен Дишер, Хамани Гриффин, Джон Хокинсон, Мария Лэрк, Джон Легуизамо, Эмили Осмент, Крис Уэдж-Описание:
Сид ведёт детей в поход, попадая на пути во всевозможные передряги. В конце концов дети устают от бесконечных глупостей ленивца и берут предводительство в свои руки.-Качество: BDRemux 1080p
Формат: MKV
Видео: AVC, 22.0 Mbps, 1920x1080p, 23.976 fps
Аудио №1: Russian, AC3, 2.0, 224 kbps, 2 ch, 48 kHz - Дубляж
Аудио №2: Russian, AC3, 2.0, 192 kbps, 2 ch, 48 kHz - Многоголоска (АТОМ)
Аудио №3: English, AC3, 5.1, 448 kbps, 6 ch, 48 kHz - Комментарии (Брэд Бёрд и Джон Уолкер)
Субтитры: Russian-
MediaInfo

General
Unique ID : 249109396939337611754513898626810533272 (0xBB68B985E5E49A67A0193CDE53025598)
Format : Matroska
Format version : Version 2
File size : 1.30 GiB
Duration : 7mn 59s
Overall bit rate mode : Variable
Overall bit rate : 23.3 Mbps
Encoded date : UTC 2012-06-27 15:48:09
Writing application : mkvmerge v5.5.0 ('Healer') built on Apr 24 2012 23:47:03
Writing library : libebml v1.2.3 + libmatroska v1.3.0
Video #1
ID : 1
Format : AVC
Format/Info : Advanced Video Codec
Format profile : High@L4.1
Format settings, CABAC : Yes
Format settings, ReFrames : 4 frames
Codec ID : V_MPEG4/ISO/AVC
Duration : 7mn 59s
Bit rate mode : Variable
Bit rate : 22.0 Mbps
Maximum bit rate : 40.0 Mbps
Width : 1 920 pixels
Height : 1 080 pixels
Display aspect ratio : 16:9
Frame rate : 23.976 fps
Color space : YUV
Chroma subsampling : 4:2:0
Bit depth : 8 bits
Scan type : Progressive
Bits/(Pixel*Frame) : 0.442
Stream size : 1.23 GiB (94%)
Default : Yes
Forced : No
Color primaries : BT.709-5, BT.1361, IEC 61966-2-4, SMPTE RP177
Transfer characteristics : BT.709-5, BT.1361
Matrix coefficients : BT.709-5, BT.1361, IEC 61966-2-4 709, SMPTE RP177
Audio #2
ID : 2
Format : AC-3
Format/Info : Audio Coding 3
Format profile : Dolby Digital
Mode extension : CM (complete main)
Format settings, Endianness : Big
Codec ID : A_AC3
Duration : 7mn 59s
Bit rate mode : Constant
Bit rate : 224 Kbps
Channel(s) : 2 channels
Channel positions : Front: L R
Sampling rate : 48.0 KHz
Bit depth : 16 bits
Compression mode : Lossy
Stream size : 12.8 MiB (1%)
Title : DUB
Language : Russian
Default : Yes
Forced : Yes
Audio #3
ID : 3
Format : AC-3
Format/Info : Audio Coding 3
Mode extension : CM (complete main)
Format settings, Endianness : Big
Codec ID : A_AC3
Duration : 7mn 59s
Bit rate mode : Constant
Bit rate : 192 Kbps
Channel(s) : 2 channels
Channel positions : Front: L R
Sampling rate : 48.0 KHz
Bit depth : 16 bits
Compression mode : Lossy
Stream size : 11.0 MiB (1%)
Title : VO (АТОМ)
Language : Russian
Default : No
Forced : No
Audio #4
ID : 4
Format : AC-3
Format/Info : Audio Coding 3
Mode extension : CM (complete main)
Format settings, Endianness : Big
Codec ID : A_AC3
Duration : 7mn 59s
Bit rate mode : Constant
Bit rate : 448 Kbps
Channel(s) : 6 channels
Channel positions : Front: L C R, Side: L R, LFE
Sampling rate : 48.0 KHz
Bit depth : 16 bits
Compression mode : Lossy
Stream size : 25.6 MiB (2%)
Title : ENG
Language : English
Default : No
Forced : No
Text #5
ID : 5
Format : UTF-8
Codec ID : S_TEXT/UTF8
Codec ID/Info : UTF-8 Plain Text
Title : Rus Sub
Language : Russian
Default : Yes
Forced : No
Скриншоты




Скрат и континентальный излом / Scrat's Continental Crack-Up
-Скрат и континентальный излом / Scrat's Continental Crack-Up- Название: Скрат и континентальный излом
Оригинальное название: Scrat's Continental Crack-Up
Год выпуска: 2010
Страна: США
Жанр: мультфильм, короткометражка
Продолжительность: 00:02:40
Перевод: Не требуется
Русские субтитры: нет-Режиссёр: Стив Мартино, Майк Трумейер-Роли озвучивали: Крис Уэдж, Саймон Пегг, Джейсон Фриччион-Описание:
Очередное приключение доисторического крысобела, в результате которого произошло образование континентов на Земле.-Качество: WEB-DLRip 1080p
Формат: MKV
Видео: AVC, ? Kbps, 1920x800p, 23.976 fps
Аудио: English, AAC, 5.1, ? Kbps, 6 ch, 48.0 KHz-
MediaInfo

General
Unique ID : 185065775849747158609397209952797482374 (0x8B3A5F37656B2BA0A932A17D88625D86)
Format : Matroska
Format version : Version 1
File size : 208 MiB
Duration : 2mn 40s
Overall bit rate : 10.9 Mbps
Encoded date : UTC 2011-01-06 15:47:30
Writing application : mkvmerge v2.1.0 ('Another Place To Fall') built on Aug 19 2007 13:40:07
Writing library : libebml v0.7.7 + libmatroska v0.8.1
Video #1
ID : 1
Format : AVC
Format/Info : Advanced Video Codec
Format profile : Main@L4.1
Format settings, CABAC : No
Format settings, ReFrames : 2 frames
Codec ID : V_MPEG4/ISO/AVC
Duration : 2mn 40s
Width : 1 920 pixels
Height : 800 pixels
Display aspect ratio : 2.40:1
Frame rate : 23.976 fps
Color space : YUV
Chroma subsampling : 4:2:0
Bit depth : 8 bits
Scan type : Progressive
Default : Yes
Forced : No
Color primaries : BT.709-5, BT.1361, IEC 61966-2-4, SMPTE RP177
Transfer characteristics : BT.709-5, BT.1361
Matrix coefficients : BT.709-5, BT.1361, IEC 61966-2-4 709, SMPTE RP177
Audio #2
ID : 2
Format : AAC
Format/Info : Advanced Audio Codec
Format profile : LC
Codec ID : A_AAC
Duration : 2mn 40s
Channel(s) : 6 channels
Channel positions : Front: L C R, Side: L R, LFE
Sampling rate : 48.0 KHz
Compression mode : Lossy
Default : Yes
Forced : No
Скриншоты




Скрат и континентальный излом 2 / Scrat's Continental Crack-Up: Part 2
-Скрат и континентальный излом 2 / Scrat's Continental Crack-Up: Part 2- Название: Скрат и континентальный излом 2
Оригинальное название: Scrat's Continental Crack-Up: Part 2
Год выпуска: 2011
Страна: США
Жанр: мультфильм, короткометражка, комедия, приключения, семейный
Продолжительность: 00:02:34
Перевод: Профессиональный (многоголосый)-Режиссер: Стив Мартино, Майк Трумейер-Роли озвучивали: Азиз Ансари, Ален Шаба, Питер Динклэйдж, Джейсон Фриччион, Ник Фрост, Дэнис Лири, Джон Легуизамо, Дженнифер Лопез, Рэй Романо, Крис Уэдж-Описание:
Продолжение приключения доисторического крысобела, в результате которого произошло образование континентов на Земле.-Качество: WEB-DLRip 1080p
Формат: MKV
Видео: AVC, ? kbps, 1920x816p
Аудио №1: Russian, AC3, 2.0, 192 kbps, 2 ch, 48 KHz - Многоголоска
Аудио №2: English, AC3, 2.0, ? kbps, 6 ch, 44.1 KHz-
MediaInfo

General
Unique ID : 210131197194252140486212597347588214405 (0x9E15CBE6F0FA892D98613C025A878E85)
Format : Matroska
Format version : Version 2
File size : 180 MiB
Duration : 2mn 34s
Overall bit rate : 9 774 Kbps
Encoded date : UTC 2012-01-15 09:00:02
Writing application : mkvmerge v5.0.1 ('Es ist Sommer') built on Nov 6 2011 16:23:40
Writing library : libebml v1.2.2 + libmatroska v1.3.0
Video #1
ID : 1
Format : AVC
Format/Info : Advanced Video Codec
Format profile : Main@L4.0
Format settings, CABAC : No
Format settings, ReFrames : 2 frames
Codec ID : V_MPEG4/ISO/AVC
Duration : 2mn 34s
Width : 1 920 pixels
Height : 816 pixels
Display aspect ratio : 2.35:1
Frame rate : 23.976 fps
Color space : YUV
Chroma subsampling : 4:2:0
Bit depth : 8 bits
Scan type : Progressive
Default : Yes
Forced : No
Color primaries : BT.709-5, BT.1361, IEC 61966-2-4, SMPTE RP177
Transfer characteristics : BT.709-5, BT.1361
Matrix coefficients : BT.709-5, BT.1361, IEC 61966-2-4 709, SMPTE RP177
Audio #2
ID : 2
Format : AC-3
Format/Info : Audio Coding 3
Mode extension : CM (complete main)
Format settings, Endianness : Big
Codec ID : A_AC3
Duration : 2mn 34s
Bit rate mode : Constant
Bit rate : 192 Kbps
Channel(s) : 2 channels
Channel positions : Front: L R
Sampling rate : 48.0 KHz
Bit depth : 16 bits
Compression mode : Lossy
Stream size : 3.54 MiB (2%)
Default : No
Forced : No
Audio #3
ID : 3
Format : AAC
Format/Info : Advanced Audio Codec
Format profile : LC
Codec ID : A_AAC
Duration : 2mn 34s
Channel(s) : 2 channels
Channel positions : Front: L R
Sampling rate : 44.1 KHz
Compression mode : Lossy
Language : English
Default : No
Forced : No
Скриншоты




Ледниковый период: Гигантское Рождество / Ice Age: A Mammoth Christmas
-Ледниковый период: Гигантское Рождество / Ice Age: A Mammoth Christmas- Название: Ледниковый период: Гигантское Рождество
Оригинальное название: Ice Age: A Mammoth Christmas
Год выпуска: 2011
Страна: США
Жанр: мультфильм, короткометражка, комедия, приключения, семейный
Продолжительность: 00:25:33
Перевод: Дублированный
Cубтитры: английские, испанские
Навигация по главам: есть-Режиссер: Карен Дишер-В ролях: Рэй Романо, Джон Легуизамо, Дэнис Лири, Куин Латифа, Шонн Уильям Скотт, Джош Пек, Кьяра Браво, ТиДжей Миллер, Джуда Фридлендер, Билли Гарделл-Описание:
Когда Сид случайно разрушает рождественский камень, Мэнни говорит ему, что Сид попал в черный список Санты, и что ленивцу придется лететь на северный полюс просить извинения у Санты. На северном полюсе Сид хотел все сделать как лучше, но только усугубил ситуацию. Теперь дело за Мэнни и компанией, только они объединившись сохранят Рождество для всего мира!-Качество: BDRip 1080p
Формат: MKV
Видео: AVC, 12.4 Mbps, 1920x1080p, 23,976 fps
Аудио №1: Russian, AC3, 5.1, 384 kbps, 6 ch - Дублированный
Аудио №2: Russian, AC3, 2.0, 256 kbps, 2 ch - Многоголосый закадровый (VO-Production)
Аудио №3: Russian, DTS, 5.1, 1509 kbps, 6 ch - Одноголосый закадровый (Доцент)/color]
Аудио №4: Russian, AC3, 5.1, 384 kbps, 6 ch - Многоголосый закадровый (RG Паровозик)
Аудио №5: English, AC3, 5.1, 1510 kbps, 6 ch, 48 kHz
Субтитры: Russian, English [Full, SDH]-
MediaInfo

General
Unique ID : 244883041821321306977804316993609617458 (0xB83AC220B60940A9A2896EBE6BCD5032)
Format : Matroska
Format version : Version 4 / Version 2
File size : 3.00 GiB
Duration : 25mn 33s
Overall bit rate : 16.8 Mbps
Encoded date : UTC 2014-11-04 15:16:05
Writing application : mkvmerge v7.3.0 ('Nouages') 64bit built on Oct 22 2014 18:53:34
Writing library : libebml v1.3.0 + libmatroska v1.4.1
DURATION : 00:24:50.820000000
NUMBER_OF_FRAMES : 756
NUMBER_OF_BYTES : 57330
_STATISTICS_WRITING_APP : mkvmerge v7.3.0 ('Nouages') 64bit built on Oct 22 2014 18:53:34
_STATISTICS_WRITING_DATE_UTC : 2014-11-04 15:16:05
_STATISTICS_TAGS : BPS DURATION NUMBER_OF_FRAMES NUMBER_OF_BYTES
Video
ID : 1
Format : AVC
Format/Info : Advanced Video Codec
Format profile : High@L4.1
Format settings, CABAC : Yes
Format settings, ReFrames : 4 frames
Codec ID : V_MPEG4/ISO/AVC
Duration : 25mn 33s
Bit rate : 12.4 Mbps
Width : 1 920 pixels
Height : 1 080 pixels
Display aspect ratio : 16:9
Frame rate mode : Constant
Frame rate : 23.976 fps
Color space : YUV
Chroma subsampling : 4:2:0
Bit depth : 8 bits
Scan type : Progressive
Bits/(Pixel*Frame) : 0.250
Stream size : 2.22 GiB (74%)
Writing library : x264 core 120 r2120 0c7dab9
Encoding settings : cabac=1 / ref=4 / deblock=1:-1:-1 / analyse=0x3:0x133 / me=tesa / subme=10 / psy=1 / psy_rd=0.70:0.05 / mixed_ref=1 / me_range=32 / chroma_me=1 / trellis=2 / 8x8dct=1 / cqm=0 / deadzone=21,11 / fast_pskip=0 / chroma_qp_offset=-3 / threads=6 / sliced_threads=0 / nr=0 / decimate=1 / interlaced=0 / bluray_compat=0 / constrained_intra=0 / bframes=6 / b_pyramid=2 / b_adapt=2 / b_bias=0 / direct=3 / weightb=1 / open_gop=0 / weightp=2 / keyint=250 / keyint_min=23 / scenecut=40 / intra_refresh=0 / rc_lookahead=80 / rc=crf / mbtree=1 / crf=15.0 / qcomp=0.60 / qpmin=0 / qpmax=69 / qpstep=4 / ip_ratio=1.40 / aq=1:1.10
Language : English
Default : Yes
Forced : No
DURATION : 00:25:33.115000000
NUMBER_OF_FRAMES : 36758
NUMBER_OF_BYTES : 2445799411
_STATISTICS_WRITING_APP : mkvmerge v7.3.0 ('Nouages') 64bit built on Oct 22 2014 18:53:34
_STATISTICS_WRITING_DATE_UTC : 2014-11-04 15:16:05
_STATISTICS_TAGS : BPS DURATION NUMBER_OF_FRAMES NUMBER_OF_BYTES
Audio #1
ID : 2
Format : AC-3
Format/Info : Audio Coding 3
Mode extension : CM (complete main)
Format settings, Endianness : Big
Codec ID : A_AC3
Duration : 25mn 33s
Bit rate mode : Constant
Bit rate : 384 Kbps
Channel(s) : 6 channels
Channel positions : Front: L C R, Side: L R, LFE
Sampling rate : 48.0 KHz
Bit depth : 16 bits
Compression mode : Lossy
Stream size : 70.2 MiB (2%)
Title : DUB
Language : Russian
Default : Yes
Forced : No
Audio #2
ID : 3
Format : AC-3
Format/Info : Audio Coding 3
Mode extension : CM (complete main)
Format settings, Endianness : Big
Codec ID : A_AC3
Duration : 25mn 33s
Bit rate mode : Constant
Bit rate : 256 Kbps
Channel(s) : 2 channels
Channel positions : Front: L R
Sampling rate : 48.0 KHz
Bit depth : 16 bits
Compression mode : Lossy
Stream size : 46.8 MiB (2%)
Title : MVO [-VO-Production-]
Language : Russian
Default : No
Forced : No
Audio #3
ID : 4
Format : DTS
Format/Info : Digital Theater Systems
Mode : 16
Format settings, Endianness : Big
Codec ID : A_DTS
Duration : 25mn 33s
Bit rate mode : Constant
Bit rate : 1 509 Kbps
Channel(s) : 6 channels
Channel positions : Front: L C R, Side: L R, LFE
Sampling rate : 48.0 KHz
Bit depth : 24 bits
Compression mode : Lossy
Stream size : 276 MiB (9%)
Title : AVO [-Доцент-]
Language : Russian
Default : No
Forced : No
Audio #4
ID : 5
Format : AC-3
Format/Info : Audio Coding 3
Mode extension : CM (complete main)
Format settings, Endianness : Big
Codec ID : A_AC3
Duration : 25mn 33s
Bit rate mode : Constant
Bit rate : 384 Kbps
Channel(s) : 6 channels
Channel positions : Front: L C R, Side: L R, LFE
Sampling rate : 48.0 KHz
Bit depth : 16 bits
Compression mode : Lossy
Stream size : 70.2 MiB (2%)
Title : MVO [-RG Паровозик-]
Language : Russian
Default : No
Forced : No
Audio #5
ID : 6
Format : DTS
Format/Info : Digital Theater Systems
Mode : 16
Format settings, Endianness : Big
Codec ID : A_DTS
Duration : 25mn 33s
Bit rate mode : Constant
Bit rate : 1 509 Kbps
Channel(s) : 6 channels
Channel positions : Front: L C R, Side: L R, LFE
Sampling rate : 48.0 KHz
Bit depth : 24 bits
Compression mode : Lossy
Stream size : 276 MiB (9%)
Title : Original
Language : English
Default : No
Forced : No
Text #1
ID : 7
Format : UTF-8
Codec ID : S_TEXT/UTF8
Codec ID/Info : UTF-8 Plain Text
Language : Russian
Default : No
Forced : No
Text #2
ID : 8
Format : UTF-8
Codec ID : S_TEXT/UTF8
Codec ID/Info : UTF-8 Plain Text
Language : English
Default : No
Forced : No
Text #3
ID : 9
Format : ASS
Codec ID : S_TEXT/ASS
Codec ID/Info : Advanced Sub Station Alpha
Compression mode : Lossless
Title : SDH
Language : English
Default : No
Forced : No
Menu
00:00:00.000 : en:00:00:00.000
00:01:10.195 : en:00:01:10.195
00:06:00.026 : en:00:06:00.026
00:06:52.454 : en:00:06:52.454
00:10:55.738 : en:00:10:55.738
00:13:41.946 : en:00:13:41.946
00:17:47.858 : en:00:17:47.858
00:21:25.576 : en:00:21:25.576
Скриншоты






Последний раз редактировалось: fadaf9 (2015-01-03 17:30), всего редактировалось 1 раз
[Профиль] [ЛС]

Создавать темы 11-Дек-2014 09:45 (спустя 9 месяцев 23 дня)

Топик был перенесен из форума Сборники и Сиквелы в форум Архив

Mithas204
 

Создавать темы 11-Янв-2015 12:15 (спустя 10 месяцев 23 дня)

Топик был перенесен из форума Архив в форум Сборники и Сиквелы

Paladin4eg
 
Показать сообщения:    
Ответить на тему

Текущее время: 22-Ноя 02:26

Часовой пояс: UTC + 3



Вы не можете начинать темы
Вы не можете отвечать на сообщения
Вы не можете редактировать свои сообщения
Вы не можете удалять свои сообщения
Вы не можете голосовать в опросах
Вы не можете прикреплять файлы к сообщениям
Вы не можете скачивать файлы