Гадкий Я & Гадкий Я 2 - Коллекция / Despicable Me & Despicable Me 2 - Collection (Пьер Соффин, Крис Рено) [2010, 2013, мультфильм, комедия, приключения, полнометражки, короткометражки, BDRip, BDRemux 1080p]

Ответить на тему
 
Автор Сообщение

fadaf9 ®

Пол: Мужской

Стаж: 6 лет 9 месяцев

Сообщений: 2142

Откуда: Таджикистан

Создавать темы 18-Ноя-2013 22:39

[Цитировать]

--Гадкий Я / Despicable Me-- Год выпуска: 2010
Страна: США
Жанр: Комедия, Приключения
Продолжительность: 01:34:49
Перевод: Профессиональный (полное дублирование) [Лицензия]- Режиссер: Пьер Соффин, Крис Рено
В ролях: Стив Карелл, Джейсон Сигел, Расселл Брэнд, Джули Эндрюс, Уилл Арнетт, Кристен Уиг, Миранда Косгров, Дэна Гайер, Элси Фишер, Пьер Коффен, Крис Рено, Джемейн Клемент- Описание:
Гадкий снаружи, но добрый внутри Грю намерен, тем не менее, закрепить за собой статус главного архизлодея в мире, для чего он решает выкрасть Луну при помощи созданной им армии миньонов. Дело осложняют конкуренты, вставляющие высокотехнические палки в колеса, и семейные обстоятельства в виде трех сироток, о которых Грю вынужден заботиться.-
- рекомендуется присутствие родителей!- Качество: BDRip 1080p
Формат: MKV
Видео: AVC, 9500 Kbps, 1920x1040p, 23.976 fps
Аудио №1: AC3, 5.1, 384 kbps, 6 ch, 48.0 KHz - Russian (полное дублирование) [Лицензия]
Аудио №2: AC3, 5.1, 384 kbps, 6 ch, 48.0 KHz - Ukrainian (полное дублирование) [Лицензия]
Аудио №3: DTS, 5.1, 1509 kbps, 6 ch, 48.0 KHz - English
Аудио №4: AAC, 2.0, ? kbps, 6 ch, 48.0 KHz / 24.0 KHz - English [Commentary]
Субтитры: Russian, Russian (Full), English-
Знаете ли вы,что...

*В ссылке на так называемый «Evil Bank», указан настоящий банк «Lehman Brothers», с банкротства которого начался экономический кризис 2008 года.
*В финальном танце Грю копирует партию Джона Траволты из фильма «Лихорадка субботнего вечера».
*В картине также используется отсылка к фильму «Крёстный отец» — когда Грю просыпается в кровати и обнаруживает в ней голову куклы (в фильме «Крёстный отец» герой обнаружил отрезанную лошадиную голову).
*В конце фильма, когда Грю устраивает дискотеку, на диджейском пульте миньона видна маркировка «Gru-ray disc» с перевернутой буквой «b», представляющая собой пародию на диски Blu-Ray.
*На розовом билете на выступление девочек — номер: 072069 — это 20 июля 1969 года — дата высадки на Луну.
*На майке Марго, которую она носит под пиджачком, нарисован Лоракс из книжки доктора Сюсса.
*Когда Вектор похищает девочек, он оставляет послание для Грю, листок с детскими каракулями, с буквой V в круге, которая является отсылкой на фильм «V for Vendetta».
MediaInfo

General
Unique ID : 232533976855629377610901312549290525714 (0xAEF06A37A1AF119AAD55EA241EF84412)
Format : Matroska
Format version : Version 2
File size : 7.84 GiB
Duration : 1h 34mn
Overall bit rate : 11.8 Mbps
Movie name : Despicable.Me.2010.1080p.BluRay.x264-EbP
Encoded date : UTC 2010-12-10 16:26:56
Writing application : mkvmerge v4.4.0 ('Die Wiederkehr') built on Oct 31 2010 21:52:48
Writing library : libebml v1.0.0 + libmatroska v1.0.0
Video #1
ID : 1
Format : AVC
Format/Info : Advanced Video Codec
Format profile : High@L4.1
Format settings, CABAC : Yes
Format settings, ReFrames : 4 frames
Codec ID : V_MPEG4/ISO/AVC
Duration : 1h 34mn
Nominal bit rate : 9 500 Kbps
Width : 1 920 pixels
Height : 1 040 pixels
Display aspect ratio : 1.85:1
Frame rate mode : Constant
Frame rate : 23.976 fps
Color space : YUV
Chroma subsampling : 4:2:0
Bit depth : 8 bits
Scan type : Progressive
Bits/(Pixel*Frame) : 0.198
Writing library : x264 core 110 r1820 fdcf2ae
Encoding settings : cabac=1 / ref=4 / deblock=1:-3:-3 / analyse=0x3:0x113 / me=tesa / subme=10 / psy=1 / psy_rd=0.45:0.00 / mixed_ref=1 / me_range=16 / chroma_me=1 / trellis=2 / 8x8dct=1 / cqm=0 / deadzone=21,11 / fast_pskip=0 / chroma_qp_offset=-2 / threads=12 / sliced_threads=0 / nr=0 / decimate=0 / interlaced=0 / constrained_intra=0 / bframes=6 / b_pyramid=2 / b_adapt=2 / b_bias=0 / direct=3 / weightb=1 / open_gop=0 / weightp=2 / keyint=250 / keyint_min=23 / scenecut=40 / intra_refresh=0 / rc=2pass / mbtree=0 / bitrate=9500 / ratetol=1.0 / qcomp=0.60 / qpmin=0 / qpmax=51 / qpstep=4 / cplxblur=20.0 / qblur=0.5 / ip_ratio=1.40 / pb_ratio=1.30 / aq=1:0.90 / zones=1400,1873,b=2.0/2035,2111,b=2.0/2880,2996,b=2.0/3197,3226,b=2.0/3312,3333,b=2.0/3741,3871,b=2.0/3915,4053,b=2.0/4162,4254,b=2.0/4616,4678,b=2.0/6888,7107,b=2.0/9084,9395,b=2.0/28854,28943,b=2.0/29322,29398,b=2.0/29598,29696,b=2.0/29753,29961,b=2.0/30066,30240,b=2.0/30268,30306,b=2.0/30324,30782,b=2.0/30917,31071,b=2.0/31198,31266,b=2.0/31464,31833,b=2.0/33270,33395,b=2.0/33544,33566,b=2.0/33942,33992,b=2.0/34187,34220,b=2.0/34432,34660,b=2.0/34704,34840,b=2.0/35232,35390,b=2.0/59750,60149,b=2.0/62778,62866,b=2.0/69297,69510,b=2.0/70319,70477,b=2.0/70668,70751,b=2.0/70992,71067,b=2.0/71117,71187,b=2.0/71874,71915,b=2.0/74954,75154,b=2.0/109941,110047,b=2.0/110099,110199,b=2.0/110623,110729,b=2.0/110757,110823,b=2.0/111225,111480,b=2.0/112284,112667,b=2.0
Language : English
Default : Yes
Forced : No
Audio #2
ID : 2
Format : AC-3
Format/Info : Audio Coding 3
Mode extension : CM (complete main)
Format settings, Endianness : Big
Codec ID : A_AC3
Duration : 1h 34mn
Bit rate mode : Constant
Bit rate : 384 Kbps
Channel(s) : 6 channels
Channel positions : Front: L C R, Side: L R, LFE
Sampling rate : 48.0 KHz
Bit depth : 16 bits
Compression mode : Lossy
Stream size : 260 MiB (3%)
Title : Dub
Language : Russian
Default : Yes
Forced : No
Audio #3
ID : 3
Format : AC-3
Format/Info : Audio Coding 3
Mode extension : CM (complete main)
Format settings, Endianness : Big
Codec ID : A_AC3
Duration : 1h 34mn
Bit rate mode : Constant
Bit rate : 384 Kbps
Channel(s) : 6 channels
Channel positions : Front: L C R, Side: L R, LFE
Sampling rate : 48.0 KHz
Bit depth : 16 bits
Compression mode : Lossy
Stream size : 260 MiB (3%)
Title : Dub
Language : Ukrainian
Default : No
Forced : No
Audio #4
ID : 4
Format : DTS
Format/Info : Digital Theater Systems
Mode : 16
Format settings, Endianness : Big
Codec ID : A_DTS
Duration : 1h 34mn
Bit rate mode : Constant
Bit rate : 1 509 Kbps
Channel(s) : 6 channels
Channel positions : Front: L C R, Side: L R, LFE
Sampling rate : 48.0 KHz
Bit depth : 24 bits
Compression mode : Lossy
Stream size : 1 023 MiB (13%)
Language : English
Default : No
Forced : No
Audio #5
ID : 5
Format : AAC
Format/Info : Advanced Audio Codec
Format profile : HE-AAC / LC
Codec ID : A_AAC
Duration : 1h 34mn
Channel(s) : 2 channels
Channel positions : Front: L R
Sampling rate : 48.0 KHz / 24.0 KHz
Compression mode : Lossy
Title : Commentary
Language : English
Default : No
Forced : No
Text #6
ID : 6
Format : UTF-8
Codec ID : S_TEXT/UTF8
Codec ID/Info : UTF-8 Plain Text
Title : Forced
Language : Russian
Default : Yes
Forced : No
Text #7
ID : 7
Format : UTF-8
Codec ID : S_TEXT/UTF8
Codec ID/Info : UTF-8 Plain Text
Title : Full (voronine)
Language : Russian
Default : No
Forced : No
Text #8
ID : 8
Format : UTF-8
Codec ID : S_TEXT/UTF8
Codec ID/Info : UTF-8 Plain Text
Language : English
Default : No
Forced : No
Скриншоты



-- --Банан / Banana-- Год выпуска: 2010
Страна: США
Жанр: мультфильм, короткометражка
Продолжительность: 00:03:45
Перевод: Не требуется- Режиссер: Пьер Коффен, Крис Рено
В ролях: Стив Карелл, Джейсон Сигел, Расселл Брэнд, Джули Эндрюс, Уилл Арнетт, Кристен Уиг, Миранда Косгров, Дэна Гайер, Элси Фишер, Пьер Коффен- Описание:
Орда голодных миньонов пытается съесть маленький одинокий банан.-
- рекомендуется присутствие родителей!- Качество: BDRemux 1080p
Формат: MKV
Видео: AVC, 13.4 Mbps, 1920x1080p, 23.976 fps
Аудио: DTS, 5.1, 768 kbps, 6 ch, 48.0 KHz - English
Субтитры: Russian, English, Franch, Spanish-
MediaInfo

General
Unique ID : 195123463034474209049058986727459128316 (0x92CB697ADE246DAC8E0F10C62D6E03FC)
Format : Matroska
Format version : Version 2
File size : 390 MiB
Duration : 3mn 45s
Overall bit rate mode : Variable
Overall bit rate : 14.5 Mbps
Encoded date : UTC 2011-01-20 20:50:22
Writing application : mkvmerge v4.4.0 ('Die Wiederkehr') сборка от Oct 31 2010 21:52:48
Writing library : libebml v1.0.0 + libmatroska v1.0.0
Video #1
ID : 1
Format : AVC
Format/Info : Advanced Video Codec
Format profile : High@L4.1
Format settings, CABAC : Yes
Format settings, ReFrames : 4 frames
Muxing mode : Container profile=Unknown@0.0
Codec ID : V_MPEG4/ISO/AVC
Duration : 3mn 45s
Bit rate mode : Variable
Bit rate : 13.4 Mbps
Maximum bit rate : 35.0 Mbps
Width : 1 920 pixels
Height : 1 080 pixels
Display aspect ratio : 16:9
Frame rate mode : Constant
Frame rate : 23.976 fps
Color space : YUV
Chroma subsampling : 4:2:0
Bit depth : 8 bits
Scan type : Progressive
Bits/(Pixel*Frame) : 0.270
Stream size : 361 MiB (93%)
Title : Banana
Language : English
Default : Yes
Forced : No
Color primaries : BT.709
Transfer characteristics : BT.709
Matrix coefficients : BT.709
Audio #2
ID : 2
Format : DTS
Format/Info : Digital Theater Systems
Mode : 16
Format settings, Endianness : Big
Codec ID : A_DTS
Duration : 3mn 45s
Bit rate mode : Constant
Bit rate : 768 Kbps
Channel(s) : 6 channels
Channel positions : Front: L C R, Side: L R, LFE
Sampling rate : 48.0 KHz
Bit depth : 24 bits
Compression mode : Lossy
Delay relative to video : 11ms
Stream size : 20.6 MiB (5%)
Title : DTS 5.1ch 755 kbps
Language : English
Default : Yes
Forced : No
Text #3
ID : 3
Format : UTF-8
Codec ID : S_TEXT/UTF8
Codec ID/Info : UTF-8 Plain Text
Language : Russian
Default : No
Forced : No
Text #4
ID : 4
Format : UTF-8
Codec ID : S_TEXT/UTF8
Codec ID/Info : UTF-8 Plain Text
Language : English
Default : No
Forced : No
Text #5
ID : 5
Format : UTF-8
Codec ID : S_TEXT/UTF8
Codec ID/Info : UTF-8 Plain Text
Language : French
Default : No
Forced : No
Text #6
ID : 6
Format : UTF-8
Codec ID : S_TEXT/UTF8
Codec ID/Info : UTF-8 Plain Text
Language : Spanish
Default : No
Forced : No
Скриншоты



-- --Преображение дома / Home makeover-- Год выпуска: 2010
Страна: США
Жанр: мультфильм, короткометражка
Продолжительность: 00:04:22
Перевод: Профессиональный (двухголосый закадровый) [-Кубик в кубе-]- Режиссер: Пьер Коффен, Крис Рено
В ролях: Стив Карелл, Джейсон Сигел, Расселл Брэнд, Джули Эндрюс, Уилл Арнетт, Кристен Уиг, Миранда Косгров, Дэна Гайер, Элси Фишер, Пьер Коффен- Описание:
Социальный работник желает убедиться, что дом Грю подходит для проживания детей.-
- рекомендуется присутствие родителей!- Качество: BDRemux 1080p
Формат: MKV
Видео: AVC, 13.4 Mbps, 1920x1080p, 23.976 fps
Аудио №1: DTS, 5.1, 768 kbps, 6 ch, 48.0 KHz - Профессиональный (двухголосый закадровый) [-Кубик в кубе-]
Аудио №2: DTS, 5.1, 768 kbps, 6 ch, 48.0 KHz - English
Субтитры: Russian (full) [Voronine], Russian (full) [Blu-ray], English, Franch, Spanish-
MediaInfo

General
Unique ID : 183972418361981394153824779276750720055 (0x8A67CC87C175A55ABFC1CFAB2AD88C37)
Format : Matroska
Format version : Version 2
File size : 478 MiB
Duration : 4mn 22s
Overall bit rate mode : Variable
Overall bit rate : 15.3 Mbps
Encoded date : UTC 2011-01-20 20:57:49
Writing application : mkvmerge v4.4.0 ('Die Wiederkehr') сборка от Oct 31 2010 21:52:48
Writing library : libebml v1.0.0 + libmatroska v1.0.0
Video #1
ID : 1
Format : AVC
Format/Info : Advanced Video Codec
Format profile : High@L4.1
Format settings, CABAC : Yes
Format settings, ReFrames : 4 frames
Muxing mode : Container profile=Unknown@0.0
Codec ID : V_MPEG4/ISO/AVC
Duration : 4mn 22s
Bit rate mode : Variable
Bit rate : 13.4 Mbps
Maximum bit rate : 35.0 Mbps
Width : 1 920 pixels
Height : 1 080 pixels
Display aspect ratio : 16:9
Frame rate mode : Constant
Frame rate : 23.976 fps
Color space : YUV
Chroma subsampling : 4:2:0
Bit depth : 8 bits
Scan type : Progressive
Bits/(Pixel*Frame) : 0.270
Stream size : 420 MiB (88%)
Title : Home Makeover
Language : English
Default : Yes
Forced : No
Color primaries : BT.709
Transfer characteristics : BT.709
Matrix coefficients : BT.709
Audio #2
ID : 2
Format : DTS
Format/Info : Digital Theater Systems
Mode : 16
Format settings, Endianness : Big
Codec ID : A_DTS
Duration : 4mn 22s
Bit rate mode : Constant
Bit rate : 768 Kbps
Channel(s) : 6 channels
Channel positions : Front: L C R, Side: L R, LFE
Sampling rate : 48.0 KHz
Bit depth : 24 bits
Compression mode : Lossy
Stream size : 24.0 MiB (5%)
Title : DTS 5.1ch 755 kbps - Двухголосый, «Кубик в кубе»
Language : Russian
Default : Yes
Forced : No
Audio #3
ID : 3
Format : DTS
Format/Info : Digital Theater Systems
Mode : 16
Format settings, Endianness : Big
Codec ID : A_DTS
Duration : 4mn 22s
Bit rate mode : Constant
Bit rate : 768 Kbps
Channel(s) : 6 channels
Channel positions : Front: L C R, Side: L R, LFE
Sampling rate : 48.0 KHz
Bit depth : 24 bits
Compression mode : Lossy
Delay relative to video : 11ms
Stream size : 24.0 MiB (5%)
Title : DTS 5.1ch 755 kbps
Language : English
Default : No
Forced : No
Text #4
ID : 4
Format : UTF-8
Codec ID : S_TEXT/UTF8
Codec ID/Info : UTF-8 Plain Text
Title : full (voronine)
Language : Russian
Default : No
Forced : No
Text #5
ID : 5
Format : UTF-8
Codec ID : S_TEXT/UTF8
Codec ID/Info : UTF-8 Plain Text
Title : full (Blu-ray)
Language : Russian
Default : No
Forced : No
Text #6
ID : 6
Format : UTF-8
Codec ID : S_TEXT/UTF8
Codec ID/Info : UTF-8 Plain Text
Language : English
Default : No
Forced : No
Text #7
ID : 7
Format : UTF-8
Codec ID : S_TEXT/UTF8
Codec ID/Info : UTF-8 Plain Text
Language : French
Default : No
Forced : No
Text #8
ID : 8
Format : UTF-8
Codec ID : S_TEXT/UTF8
Codec ID/Info : UTF-8 Plain Text
Language : Spanish
Default : No
Forced : No
Скриншоты



-- --Ознакомительный день / Orientation Day-- Год выпуска: 2010
Страна: США
Жанр: мультфильм, короткометражка
Продолжительность: 00:04:00
Перевод: Профессиональный (двухголосый закадровый) [-Кубик в кубе-]- Режиссер: Пьер Коффен, Крис Рено
В ролях: Стив Карелл, Джейсон Сигел, Расселл Брэнд, Джули Эндрюс, Уилл Арнетт, Кристен Уиг, Миранда Косгров, Дэна Гайер, Элси Фишер, Пьер Коффен- Описание:
Миньоны-новички проходят подробный инструктаж по технике безопасности в лаборатории Грю.-
- рекомендуется присутствие родителей!- Качество: BDRemux 1080p
Формат: MKV
Видео: AVC, 13.5 Mbps, 1920x1080p, 23.976 fps
Аудио №1: DTS, 5.1, 768 kbps, 6 ch, 48.0 KHz - Профессиональный (двухголосый закадровый) [-Кубик в кубе-]
Аудио №2: DTS, 5.1, 768 kbps, 6 ch, 48.0 KHz - English
Субтитры: Russian (forced) [Voronine], Russian (full) [Voronine], Russian (full) [Blu-ray], English, Franch, Spanish-
MediaInfo

General
Unique ID : 233740290081096746623720636623054282128 (0xAFD8BE0D1EB3FC539B4B17362BE59D90)
Format : Matroska
Format version : Version 2
File size : 439 MiB
Duration : 4mn 0s
Overall bit rate mode : Variable
Overall bit rate : 15.3 Mbps
Encoded date : UTC 2011-01-20 21:01:59
Writing application : mkvmerge v4.4.0 ('Die Wiederkehr') сборка от Oct 31 2010 21:52:48
Writing library : libebml v1.0.0 + libmatroska v1.0.0
Video #1
ID : 1
Format : AVC
Format/Info : Advanced Video Codec
Format profile : High@L4.1
Format settings, CABAC : Yes
Format settings, ReFrames : 4 frames
Muxing mode : Container profile=Unknown@0.0
Codec ID : V_MPEG4/ISO/AVC
Duration : 4mn 0s
Bit rate mode : Variable
Bit rate : 13.5 Mbps
Maximum bit rate : 35.0 Mbps
Width : 1 920 pixels
Height : 1 080 pixels
Display aspect ratio : 16:9
Frame rate mode : Constant
Frame rate : 23.976 fps
Color space : YUV
Chroma subsampling : 4:2:0
Bit depth : 8 bits
Scan type : Progressive
Bits/(Pixel*Frame) : 0.271
Stream size : 386 MiB (88%)
Title : Orientation Day
Language : English
Default : Yes
Forced : No
Color primaries : BT.709
Transfer characteristics : BT.709
Matrix coefficients : BT.709
Audio #2
ID : 2
Format : DTS
Format/Info : Digital Theater Systems
Mode : 16
Format settings, Endianness : Big
Codec ID : A_DTS
Duration : 4mn 0s
Bit rate mode : Constant
Bit rate : 768 Kbps
Channel(s) : 6 channels
Channel positions : Front: L C R, Side: L R, LFE
Sampling rate : 48.0 KHz
Bit depth : 24 bits
Compression mode : Lossy
Stream size : 22.0 MiB (5%)
Title : DTS 5.1ch 755 kbps - Двухголосый, «Кубик в кубе»
Language : Russian
Default : Yes
Forced : No
Audio #3
ID : 3
Format : DTS
Format/Info : Digital Theater Systems
Mode : 16
Format settings, Endianness : Big
Codec ID : A_DTS
Duration : 4mn 0s
Bit rate mode : Constant
Bit rate : 768 Kbps
Channel(s) : 6 channels
Channel positions : Front: L C R, Side: L R, LFE
Sampling rate : 48.0 KHz
Bit depth : 24 bits
Compression mode : Lossy
Delay relative to video : 11ms
Stream size : 22.0 MiB (5%)
Title : DTS 5.1ch 755 kbps
Language : English
Default : No
Forced : No
Text #4
ID : 4
Format : UTF-8
Codec ID : S_TEXT/UTF8
Codec ID/Info : UTF-8 Plain Text
Title : full (voronine)
Language : Russian
Default : No
Forced : No
Text #5
ID : 5
Format : UTF-8
Codec ID : S_TEXT/UTF8
Codec ID/Info : UTF-8 Plain Text
Title : forced (voronine)
Language : Russian
Default : Yes
Forced : No
Text #6
ID : 6
Format : UTF-8
Codec ID : S_TEXT/UTF8
Codec ID/Info : UTF-8 Plain Text
Title : full (Blu-ray)
Language : Russian
Default : No
Forced : No
Text #7
ID : 7
Format : UTF-8
Codec ID : S_TEXT/UTF8
Codec ID/Info : UTF-8 Plain Text
Language : English
Default : No
Forced : No
Text #8
ID : 8
Format : UTF-8
Codec ID : S_TEXT/UTF8
Codec ID/Info : UTF-8 Plain Text
Language : French
Default : No
Forced : No
Text #9
ID : 9
Format : UTF-8
Codec ID : S_TEXT/UTF8
Codec ID/Info : UTF-8 Plain Text
Language : Spanish
Default : No
Forced : No
Скриншоты



--Гадкий Я 2/ Despicable Me 2-- Год выпуска: 2013
Страна: США
Жанр: Комедия, Приключения
Продолжительность: 01:37:59
Перевод: Профессиональный (полное дублирование) [Лицензия]- Режиссер: Пьер Соффин, Крис Рено
В ролях: Стив Карелл, Кристен Уиг, Бенджамин Брэтт, Миранда Косгров, Расселл Брэнд / Russell Brand (Dr. Nefario, озвучка), Кен Жонг / Ken Jeong (Floyd, озвучка), Стив Куган / Steve Coogan (Silas, озвучка), Элси Фишер- Описание:
В то время как Грю, бывший суперзлодей, приспосабливается к семейной жизни и пытается честным трудом зарабатывать в сфере бизнеса, тайные лаборатории Арктики оказываются украденными. Анти-Злодейская лига решает, что она нуждается в помощи Грю и его новобранцев в расследовании. -
- рекомендуется присутствие родителей!- Качество: BDRip 1080p
Формат: MKV
Видео: AVC, 9500 Kbps, 1920x1038p, 23.976 fps
Аудио №1: DTS, 5.1, 768 kbps, 6 ch, 48.0 KHz - Russian (полное дублирование) [-Лицензия-]
Аудио №2: DTS, 5.1, 1509 kbps, 6 ch, 48.0 KHz - English
Субтитры: Russian, Russian (Full), English-
Знаете ли вы,что...

*Это первый сиквел студии Illumination Entertainment.
*Первоначально Аль Пачино досталась роль Эдуардо, и он даже записал его фразы, но затем покинул проект из-за творческих разногласий. Вместо него роль получил Бенджамин Брэтт.
*В сцене, где Люси Уайлд дает Грю номер телефона, чтобы связаться с ней, отчетливо видно цифры: 626-584-5723. Если позвонить по этому номеру, то можно услышать голосовое сообщение от Кристен Уиг в образе агента Люси Уайлд.
*Все голоса миньонов в оригинальной озвучке принадлежат режиссерам картины — Пьеру Соффину и Крису Рено.
*Вместо Леонида Ярмольника, который озвучивал Грю в первой части мультфильма, голос в русском дубляже достался Сергею Бурунову.
*Когда Грю осматривает торговый центр, он видит мужчину, который надувает шарик, чтобы затем лопнуть его и заставить ребенка плакать. Плачущий ребенок — это тот же самый ребенок, которого Грю заставил плакать, лопнув шарик, в начале первого фильма.
*Когда Грю впервые посещает миньонов в подземной мастерской, можно заметить нескольких миньонов, кушающих на вершине поперечной балки. Эта сцена сделана в честь знаменитой фотографии «Обед на небоскрёбе» 1932-го года.
*В начале фильма показывают людей в желтых рубашках, которые разговаривают на иностранном языке. Это намек на оригинальный дизайн миньонов для фильма «Гадкий я» (2010) — их итоговый «укороченный» внешний вид появился из-за низкого бюджета первого фильма.
*Хавьер Бардем должен был озвучить злодея, но покинул проект.
*В начале фильма, когда появляется корабль-магнит, один из исследователей падает и кричит «криком Вильгельма».
*На рабочем месте доктора Нефарио приколото его фото на пляже. Точно такое же фото появлялось во время его звонка на мобильном телефоне Грю в первой части.
*В доме Грю лепестки цветка на картине складываются в символ биологически опасного вещества.
*Есть небольшая сцена в фильме, где Эдит играет в пинг-понг с миньоном, но используя нунчаку вместо ракетки. Это намек на известную китайскую рекламу Nokia, в которой человек, пародирующий Брюса Ли, играет в пинг-понг, используя пару нунчак.
*Есть, по крайней мере, два миньона по имени Кевин. В первом фильме Кевином зовут одноглазого миньона, а в сиквеле Кевин это более высокий миньон с двумя глазами.
*В моменте битвы Грю с курицей в ресторане Эль Мачо есть отсылка к фильму «Чужой», когда курица вырывается через свитер Грю через грудь.
*Финальная песня миньонов в российском прокате содержит слово «труселя», а в украинском — «у трусах».
*На свадьбе Грю и Люси миньоны в белых костюмах начинают петь песню «I swear» группы All-4-One. Участники этой группы также были в белых костюмах в клипе на эту песню.
MediaInfo

General
Unique ID : 239694553051713661924237156329958056010 (0xB4537DE18CFCB224B7FA36CCD472A04A)
Format : Matroska
Format version : Version 2
File size : 9.09 GiB
Duration : 1h 37mn
Overall bit rate : 13.3 Mbps
Movie name : Despicable Me 2 (2013) - fanatus
Encoded date : UTC 2013-10-22 09:34:56
Writing application : mkvmerge v3.4.0 ('Rapunzel') сборка от May 15 2010 09:38:20
Writing library : libebml v0.8.0 + libmatroska v0.9.0
Video #1
ID : 1
Format : AVC
Format/Info : Advanced Video Codec
Format profile : High@L4.1
Format settings, CABAC : Yes
Format settings, ReFrames : 4 frames
Codec ID : V_MPEG4/ISO/AVC
Duration : 1h 37mn
Bit rate : 11.0 Mbps
Width : 1 920 pixels
Height : 1 038 pixels
Display aspect ratio : 1.85:1
Frame rate mode : Constant
Frame rate : 23.976 fps
Color space : YUV
Chroma subsampling : 4:2:0
Bit depth : 8 bits
Scan type : Progressive
Bits/(Pixel*Frame) : 0.230
Stream size : 7.35 GiB (81%)
Title : Despicable Me 2 (2013) BDRip 1080p
Writing library : x264 core 138 r2358kMod 9e941d1
Encoding settings : cabac=1 / ref=4 / deblock=1:-2:-1 / analyse=0x3:0x113 / me=tesa / subme=11 / psy=1 / fade_compensate=0.00 / psy_rd=0.70:0.00 / mixed_ref=1 / me_range=32 / chroma_me=1 / trellis=2 / 8x8dct=1 / cqm=0 / deadzone=21,11 / fast_pskip=0 / chroma_qp_offset=-2 / threads=16 / lookahead_threads=2 / sliced_threads=0 / nr=0 / decimate=0 / interlaced=0 / bluray_compat=0 / constrained_intra=0 / bframes=8 / b_pyramid=2 / b_adapt=2 / b_bias=0 / direct=3 / weightb=1 / open_gop=0 / weightp=2 / keyint=240 / keyint_min=23 / scenecut=40 / intra_refresh=0 / rc_lookahead=240 / rc=2pass / mbtree=0 / bitrate=11000 / ratetol=1.0 / qcomp=0.70 / qpmin=0 / qpmax=69 / qpstep=4 / cplxblur=20.0 / qblur=0.5 / vbv_maxrate=50000 / vbv_bufsize=62500 / nal_hrd=none / ip_ratio=1.35 / pb_ratio=1.25 / aq=3:0.70
Language : English
Default : Yes
Forced : No
Audio #2
ID : 2
Format : DTS
Format/Info : Digital Theater Systems
Mode : 16
Format settings, Endianness : Big
Codec ID : A_DTS
Duration : 1h 37mn
Bit rate mode : Constant
Bit rate : 768 Kbps
Channel(s) : 6 channels
Channel positions : Front: L C R, Side: L R, LFE
Sampling rate : 48.0 KHz
Bit depth : 24 bits
Compression mode : Lossy
Stream size : 538 MiB (6%)
Title : Dub
Language : Russian
Default : Yes
Forced : No
Audio #3
ID : 3
Format : DTS
Format/Info : Digital Theater Systems
Mode : 16
Format settings, Endianness : Big
Codec ID : A_DTS
Duration : 1h 37mn
Bit rate mode : Constant
Bit rate : 1 509 Kbps
Channel(s) : 6 channels
Channel positions : Front: L C R, Side: L R, LFE
Sampling rate : 48.0 KHz
Bit depth : 24 bits
Compression mode : Lossy
Stream size : 1.03 GiB (11%)
Title : Original
Language : English
Default : No
Forced : No
Text #4
ID : 4
Format : UTF-8
Codec ID : S_TEXT/UTF8
Codec ID/Info : UTF-8 Plain Text
Title : Forced
Language : Russian
Default : Yes
Forced : Yes
Text #5
ID : 5
Format : UTF-8
Codec ID : S_TEXT/UTF8
Codec ID/Info : UTF-8 Plain Text
Title : Full
Language : Russian
Default : No
Forced : No
Text #6
ID : 6
Format : UTF-8
Codec ID : S_TEXT/UTF8
Codec ID/Info : UTF-8 Plain Text
Language : English
Default : No
Forced : No
Скриншоты



-- --Паника в почтовом отделении / Panic in the Mailroom-- Год выпуска: 2013
Страна: США
Жанр: мультфильм, короткометражка
Продолжительность: 00:04:14
Перевод: Не требуется- Режиссер: Пьер Коффен, Крис Рено
В ролях: - Описание:
В почтовом отделении на миньона попадает PX-41 и периодически он выходит из себя...-
- рекомендуется присутствие родителей!- Качество: BDRip 1080p
Формат: MKV
Видео: AVC, 27.2 Mbps, 1920x1080p, 23.976 fps
Аудио: AC3, 5.1, 384 kbps, 6 ch, 48.0 KHz - English
Субтитры: Отсутсвуют-
MediaInfo

General
Unique ID : 246752391444237332485120220983730610999 (0xB9A2C82E1518B3AD9942647A0AC3A337)
Format : Matroska
Format version : Version 4 / Version 2
File size : 853 MiB
Duration : 4mn 14s
Overall bit rate mode : Variable
Overall bit rate : 28.1 Mbps
Movie name : Panic.in.the.Mailroom.by.AKTEP
Encoded date : UTC 2013-10-20 14:36:00
Writing application : mkvmerge v6.2.0 ('Promised Land') built on Apr 28 2013 12:22:01
Writing library : libebml v1.3.0 + libmatroska v1.4.0
Video #1
ID : 1
Format : AVC
Format/Info : Advanced Video Codec
Format profile : High@L4.1
Format settings, CABAC : Yes
Format settings, ReFrames : 4 frames
Format settings, GOP : M=3, N=12
Codec ID : V_MPEG4/ISO/AVC
Duration : 4mn 14s
Bit rate mode : Variable
Bit rate : 27.2 Mbps
Maximum bit rate : 35.0 Mbps
Width : 1 920 pixels
Height : 1 080 pixels
Display aspect ratio : 16:9
Frame rate mode : Constant
Frame rate : 23.976 fps
Color space : YUV
Chroma subsampling : 4:2:0
Bit depth : 8 bits
Scan type : Progressive
Bits/(Pixel*Frame) : 0.547
Stream size : 824 MiB (97%)
Language : English
Default : Yes
Forced : No
Audio #2
ID : 2
Format : AC-3
Format/Info : Audio Coding 3
Mode extension : CM (complete main)
Format settings, Endianness : Big
Codec ID : A_AC3
Duration : 4mn 14s
Bit rate mode : Constant
Bit rate : 384 Kbps
Channel(s) : 6 channels
Channel positions : Front: L C R, Side: L R, LFE
Sampling rate : 48.0 KHz
Bit depth : 16 bits
Compression mode : Lossy
Stream size : 11.6 MiB (1%)
Language : English
Default : Yes
Forced : No
Скриншоты



-- --Щенок / Puppy-- Год выпуска: 2013
Страна: США
Жанр: мультфильм, короткометражка
Продолжительность: 00:04:34
Перевод: Отсутствует- Режиссер: Пьер Коффен, Крис Рено
В ролях: Стив Карелл, Джейсон Сигел, Расселл Брэнд, Джули Эндрюс, Уилл Арнетт, Кристен Уиг, Миранда Косгров, Дэна Гайер, Элси Фишер, Пьер Коффен- Описание:
Один из миньонов никак не может завести щенка, но всё таки его находит...-
- рекомендуется присутствие родителей!- Качество: BDRemux 1080p
Формат: MKV
Видео: AVC, 27.2 Mbps, 1920x1080p, 23.976 fps
Аудио: AC3, 5.1, 384 kbps, 6 ch, 48.0 KHz - English
Субтитры: Отсутствуют-
MediaInfo

General
Unique ID : 224412366792451483843795703729125366292 (0xA8D43FECF88EBEAB986D004E8A249A14)
Format : Matroska
Format version : Version 4 / Version 2
File size : 918 MiB
Duration : 4mn 33s
Overall bit rate mode : Variable
Overall bit rate : 28.1 Mbps
Movie name : Puppy.by.AKTEP
Encoded date : UTC 2013-10-20 14:29:58
Writing application : mkvmerge v6.2.0 ('Promised Land') built on Apr 28 2013 12:22:01
Writing library : libebml v1.3.0 + libmatroska v1.4.0
Video #1
ID : 1
Format : AVC
Format/Info : Advanced Video Codec
Format profile : High@L4.1
Format settings, CABAC : Yes
Format settings, ReFrames : 4 frames
Codec ID : V_MPEG4/ISO/AVC
Duration : 4mn 33s
Bit rate mode : Variable
Bit rate : 27.2 Mbps
Maximum bit rate : 35.0 Mbps
Width : 1 920 pixels
Height : 1 080 pixels
Display aspect ratio : 16:9
Frame rate mode : Constant
Frame rate : 23.976 fps
Color space : YUV
Chroma subsampling : 4:2:0
Bit depth : 8 bits
Scan type : Progressive
Bits/(Pixel*Frame) : 0.547
Stream size : 887 MiB (97%)
Language : English
Default : Yes
Forced : No
Audio #2
ID : 2
Format : AC-3
Format/Info : Audio Coding 3
Mode extension : CM (complete main)
Format settings, Endianness : Big
Codec ID : A_AC3
Duration : 4mn 33s
Bit rate mode : Constant
Bit rate : 384 Kbps
Channel(s) : 6 channels
Channel positions : Front: L C R, Side: L R, LFE
Sampling rate : 48.0 KHz
Bit depth : 16 bits
Compression mode : Lossy
Stream size : 12.5 MiB (1%)
Language : English
Default : Yes
Forced : No
Скриншоты



-- --Страховочные колеса / Training Wheels-- Год выпуска: 2013
Страна: США
Жанр: мультфильм, короткометражка
Продолжительность: 00:04:13
Перевод: Отсутствует [-Да и без него всё понятно-]- Режиссер: Пьер Коффен, Крис Рено
В ролях: Стив Карелл, Джейсон Сигел, Расселл Брэнд, Джули Эндрюс, Уилл Арнетт, Кристен Уиг, Миранда Косгров, Дэна Гайер, Элси Фишер, Пьер Коффен- Описание:
К детям приехал мороженщик, и Агнес не угнаться за остальными. Миньоны решают ей помочь...-
- рекомендуется присутствие родителей!- Качество: BDRemux 1080p
Формат: MKV
Видео: AVC, 27.1 Mbps, 1920x1080p, 23.976 fps
Аудио: AC3, 5.1, 384 kbps, 6 ch, 48.0 KHz - English
Субтитры: Russian, English-
MediaInfo

General
Unique ID : 235223508321623562305879142415468830539 (0xB0F6665B4300C7EE914370B255639F4B)
Format : Matroska
Format version : Version 4 / Version 2
File size : 846 MiB
Duration : 4mn 12s
Overall bit rate mode : Variable
Overall bit rate : 28.1 Mbps
Movie name : Training.Wheels.by.AKTEP
Encoded date : UTC 2013-10-25 23:33:11
Writing application : mkvmerge v6.2.0 ('Promised Land') built on Apr 28 2013 12:22:01
Writing library : libebml v1.3.0 + libmatroska v1.4.0
Video #1
ID : 1
Format : AVC
Format/Info : Advanced Video Codec
Format profile : High@L4.1
Format settings, CABAC : Yes
Format settings, ReFrames : 4 frames
Codec ID : V_MPEG4/ISO/AVC
Duration : 4mn 12s
Bit rate mode : Variable
Bit rate : 27.1 Mbps
Maximum bit rate : 35.0 Mbps
Width : 1 920 pixels
Height : 1 080 pixels
Display aspect ratio : 16:9
Frame rate mode : Constant
Frame rate : 23.976 fps
Color space : YUV
Chroma subsampling : 4:2:0
Bit depth : 8 bits
Scan type : Progressive
Bits/(Pixel*Frame) : 0.546
Stream size : 817 MiB (97%)
Language : English
Default : Yes
Forced : No
Audio #2
ID : 2
Format : AC-3
Format/Info : Audio Coding 3
Mode extension : CM (complete main)
Format settings, Endianness : Big
Codec ID : A_AC3
Duration : 4mn 12s
Bit rate mode : Constant
Bit rate : 384 Kbps
Channel(s) : 6 channels
Channel positions : Front: L C R, Side: L R, LFE
Sampling rate : 48.0 KHz
Bit depth : 16 bits
Compression mode : Lossy
Stream size : 11.6 MiB (1%)
Language : English
Default : Yes
Forced : No
Text #3
ID : 3
Format : UTF-8
Codec ID : S_TEXT/UTF8
Codec ID/Info : UTF-8 Plain Text
Language : Russian
Default : Yes
Forced : No
Text #4
ID : 4
Format : UTF-8
Codec ID : S_TEXT/UTF8
Codec ID/Info : UTF-8 Plain Text
Language : English
Default : No
Forced : No
Скриншоты





Последний раз редактировалось: fadaf9 (2015-06-19 08:55), всего редактировалось 3 раз(а)
[Профиль] [ЛС]

Создавать темы 11-Дек-2014 09:45 (спустя 1 год)

Топик был перенесен из форума Сборники и Сиквелы в форум Архив

Mithas204
 

Создавать темы 11-Янв-2015 12:25 (спустя 1 год 1 месяц)

Топик был перенесен из форума Архив в форум Сборники и Сиквелы

Paladin4eg
 
Показать сообщения:    
Ответить на тему

Текущее время: 19-Ноя 11:37

Часовой пояс: UTC + 3



Вы не можете начинать темы
Вы не можете отвечать на сообщения
Вы не можете редактировать свои сообщения
Вы не можете удалять свои сообщения
Вы не можете голосовать в опросах
Вы не можете прикреплять файлы к сообщениям
Вы не можете скачивать файлы