Гадкий я 2 / Despicable Me 2 (Пьер Соффин, Крис Рено) [2013, мультфильм, фантастика, комедия, криминал, приключения, семейный] BDRip 1080p от DHT-Movies | Dub Лицензия

Ответить на тему
 
Автор Сообщение

DJ-snake ®

Пол: Мужской

Стаж: 8 лет 3 месяца

Сообщений: 7880

Откуда: Душанбе

Создавать темы 22-Окт-2013 07:59

[Цитировать]

- Название ... : Гадкий я 2
Оригинальное название ... : Despicable Me 2
Страна ... : США
Жанр ............. : Мультфильм | Фантастика | Комедия-Режиссер ... : Пьер Соффин, Крис Рено-Перевод ... : Дубляж (Профессиональный[Лицензия]) + Оригинал (Английский)
Субтитры ... : Русские / Английские UTF-8 (full)
Навигация по главам...: есть-Роли озвучивали:
Стив Карелл .... Gru
Кристен Уиг .... Lucy
Бенджамин Брэтт .... Eduardo / El Macho
Миранда Косгров .... Margo
Расселл Брэнд .... Dr. Nefario-Описание:
В то время как Грю, бывший суперзлодей, приспосабливается к семейной жизни и пытается честным трудом зарабатывать в сфере бизнеса, тайные лаборатории Арктики оказываются украденными. Анти-Злодейская лига решает, что она нуждается в помощи Грю и его новобранцев в расследовании.- -Качество видео: BDRip 1080p (исходник: Гадкий я 2 / Despicable Me 2 (2013) Blu-ray Disc [EUR])
Формат: MKV
Видео кодек: MPEG-4 AVC
Аудио кодек: AC3
Видео: AVC, 1920x1034 (1.85:1) at 23.976 fps, AVC at 6 038 Kbps avg, 0.126 bit/pixel
Аудио #1: 48 kHz, AC3 Dolby Digital, 6 ch, 640 Kbps - Russian
Аудио #2: 48 kHz, AC3 Dolby Digital, 6 ch, 640 Kbps - English
MI
General
Unique ID                                : 182635206549702880475879077743539694051 (0x896642E5D30BF5F19E1BC3FC3C2EA9E3)
Complete name                            : F:\Д И Л Ь Ш О Д\Despicable_Me_2_BDRip1080p_DHT-Movies.mkv
Format                                   : Matroska
Format version                           : Version 2
File size                                : 5.09 GiB
Duration                                 : 1h 37mn
Overall bit rate                         : 7 441 Kbps
Movie name                               : avt83@DHT-Movies
Encoded date                             : UTC 2013-10-21 00:17:13
Writing application                      : mkvmerge v4.0.0 ('The Stars were mine') сборка от Jun  6 2010 16:18:42
Writing library                          : libebml v1.0.0 + libmatroska v1.0.0
Video
ID                                       : 1
Format                                   : AVC
Format/Info                              : Advanced Video Codec
Format profile                           : High@L4.1
Format settings, CABAC                   : Yes
Format settings, ReFrames                : 4 frames
Codec ID                                 : V_MPEG4/ISO/AVC
Duration                                 : 1h 37mn
Bit rate                                 : 6 013 Kbps
Width                                    : 1 920 pixels
Height                                   : 1 034 pixels
Display aspect ratio                     : 1.85:1
Frame rate mode                          : Constant
Frame rate                               : 23.976 fps
Color space                              : YUV
Chroma subsampling                       : 4:2:0
Bit depth                                : 8 bits
Scan type                                : Progressive
Bits/(Pixel*Frame)                       : 0.126
Stream size                              : 4.12 GiB (81%)
Writing library                          : x264 core 138 r2359+704+48 3f879a0 tMod [8-bit@all X86]
Encoding settings                        : cabac=1 / ref=4 / deblock=1:-1:-1 / analyse=0x3:0x113 / me=umh / subme=11 / psy=1 / fade_compensate=0.00 / psy_rd=0.80:0.05 / mixed_ref=1 / me_range=24 / chroma_me=1 / trellis=2 / 8x8dct=1 / cqm=0 / deadzone=21,11 / fast_pskip=0 / chroma_qp_offset=-3 / threads=12 / lookahead_threads=1 / sliced_threads=0 / nr=0 / decimate=1 / interlaced=0 / bluray_compat=0 / constrained_intra=0 / fgo=0 / bframes=6 / b_pyramid=2 / b_adapt=2 / b_bias=0 / direct=1 / weightb=1 / open_gop=0 / weightp=2 / keyint=240 / keyint_min=23 / scenecut=40 / intra_refresh=0 / rc_lookahead=40 / rc=crf / mbtree=0 / crf=19.0000 / qcomp=0.70 / qpmin=0:0:0 / qpmax=69:69:69 / qpstep=4 / vbv_maxrate=50000 / vbv_bufsize=62500 / crf_max=0.0 / nal_hrd=none / ip_ratio=1.40 / pb_ratio=1.30 / aq=2:0.80 / aq-sensitivity=10.00 / aq-factor=1.00:1.00:1.00 / aq2=0 / aq3=0
Language                                 : English
Default                                  : No
Forced                                   : No
Audio #1
ID                                       : 2
Format                                   : AC-3
Format/Info                              : Audio Coding 3
Mode extension                           : CM (complete main)
Format settings, Endianness              : Big
Codec ID                                 : A_AC3
Duration                                 : 1h 37mn
Bit rate mode                            : Constant
Bit rate                                 : 640 Kbps
Channel(s)                               : 6 channels
Channel positions                        : Front: L C R, Side: L R, LFE
Sampling rate                            : 48.0 KHz
Bit depth                                : 16 bits
Compression mode                         : Lossy
Stream size                              : 449 MiB (9%)
Title                                    : Дубляж
Language                                 : Russian
Default                                  : Yes
Forced                                   : No
Audio #2
ID                                       : 3
Format                                   : AC-3
Format/Info                              : Audio Coding 3
Mode extension                           : CM (complete main)
Format settings, Endianness              : Big
Codec ID                                 : A_AC3
Duration                                 : 1h 37mn
Bit rate mode                            : Constant
Bit rate                                 : 640 Kbps
Channel(s)                               : 6 channels
Channel positions                        : Front: L C R, Side: L R, LFE
Sampling rate                            : 48.0 KHz
Bit depth                                : 16 bits
Compression mode                         : Lossy
Stream size                              : 449 MiB (9%)
Title                                    : Оригинал
Language                                 : English
Default                                  : No
Forced                                   : No
Text #1
ID                                       : 4
Format                                   : UTF-8
Codec ID                                 : S_TEXT/UTF8
Codec ID/Info                            : UTF-8 Plain Text
Title                                    : full
Language                                 : Russian
Default                                  : No
Forced                                   : No
Text #2
ID                                       : 5
Format                                   : UTF-8
Codec ID                                 : S_TEXT/UTF8
Codec ID/Info                            : UTF-8 Plain Text
Title                                    : forsed
Language                                 : Russian
Default                                  : Yes
Forced                                   : No
Text #3
ID                                       : 6
Format                                   : UTF-8
Codec ID                                 : S_TEXT/UTF8
Codec ID/Info                            : UTF-8 Plain Text
Title                                    : full
Language                                 : English
Default                                  : No
Forced                                   : No
Menu
00:00:00.000                             : en:00:00:00.000
00:03:22.994                             : en:00:03:22.994
00:08:04.734                             : en:00:08:04.734
00:15:50.867                             : en:00:15:50.867
00:18:28.232                             : en:00:18:28.232
00:24:36.892                             : en:00:24:36.892
00:30:50.724                             : en:00:30:50.724
00:34:40.704                             : en:00:34:40.704
00:40:48.279                             : en:00:40:48.279
00:46:26.200                             : en:00:46:26.200
00:51:23.122                             : en:00:51:23.122
00:56:27.426                             : en:00:56:27.426
01:00:00.472                             : en:01:00:00.472
01:03:27.053                             : en:01:03:27.053
01:08:44.078                             : en:01:08:44.078
01:14:01.979                             : en:01:14:01.979
01:18:08.058                             : en:01:18:08.058
01:22:33.907                             : en:01:22:33.907
01:27:09.099                             : en:01:27:09.099
01:30:33.720                             : en:01:30:33.720
01:37:58.498                             : en:01:37:58.498
Скриншоты



[Профиль] [ЛС]

Dislike

Пол: Мужской

Стаж: 5 лет 8 месяцев

Сообщений: 1536

Создавать темы 15-Дек-2015 12:50 (спустя 2 года 1 месяц)

[Цитировать]

Качаю, раздайте плиз!
[Профиль] [ЛС]

Fast worker

Пол: Мужской

Стаж: 7 лет 7 месяцев

Сообщений: 143

Создавать темы 13-Авг-2017 15:57 (спустя 1 год 7 месяцев)

[Цитировать]

где можно скачать все три части? дайте ссылки плиз. спасибо
[Профиль] [ЛС]

sashalilya

Пол: Мужской

Стаж: 8 лет 11 месяцев

Сообщений: 24104

Откуда: Отсюда

Создавать темы 13-Авг-2017 16:05 (спустя 8 минут)

[Цитировать]

2340192все три части?
в таком качестве только в будущем...ищи машину времени
[Профиль] [ЛС]
Показать сообщения:    
Ответить на тему

Текущее время: 19-Ноя 11:34

Часовой пояс: UTC + 3



Вы не можете начинать темы
Вы не можете отвечать на сообщения
Вы не можете редактировать свои сообщения
Вы не можете удалять свои сообщения
Вы не можете голосовать в опросах
Вы не можете прикреплять файлы к сообщениям
Вы не можете скачивать файлы