BBC: Чудеса Вселенной / Wonders of the Universe (Стивен Кутэр, Крис Холт, Михаэль Лачман / Stephen Cooter, Chris Holt, Michael Lachmann) [2011 г., документальный, BDRip 720p] VO+Original

Ответить на тему
 
Автор Сообщение

Mithas204 ®

Пол: Мужской

Стаж: 8 лет 10 месяцев

Сообщений: 13765

Откуда: Душанбе, Курган-Тюбе

Создавать темы 12-Сен-2013 21:38

[Цитировать]

--Чудеса Вселенной / Wonders of the Universe-- Год выпуска: 2011
Страна: Великобритания
Жанр: документальный
Продолжительность: 4 серии по ~59:00
Перевод: Профессиональный (одноголосый) студия "Омикрон"
Русские субтитры: нет-Режиссер: Стивен Кутэр, Крис Холт, Михаэль Лачман-В ролях: Брайан Кокс--Описание: Кто мы? Почему мы здесь? Откуда мы пришли? Это самые фундаментальные и извечные вопросы которые мы можем задать. И это неотъемлемая часть человеческой природы, которая стремиться найти на них ответы.
Мы можем проследить нашу родословную на протяжении сотен тысяч лет до самой зари человечества. Но на самом деле наша история простирается гораздо дальше:
Она начинается с начала вселенной. Наша Вселенная зародилась примерно 13,7 миллиардов лет назад, и сегодня она наполнена более чем 100 миллиардами галактик. И каждая из них содержит сотни миллиардов звезд и захватывающие разнообразие чудес.
В этом новом революционном документальном цикле профессор Брайан Кокс рассказывает эпическую историю нашей Вселенной, тем самым показывая, что мы её неотъемлемая часть.--Список серий:
• Destiny / Cудьба.
• Stardust / Звездная пыль.
• Falling / Падение.
• Messengers / Посланники.
--Качество: BDRip
Формат: MKV
Видео кодек: H.264
Аудио кодек: AAC
Видео: 1280х720p / MPEG-4 AVC Video 5000 kbps / 25 fps / 16:9 / High@L4.1
Аудио 1: 48 kHz/16-bit, AC3 2/0 (L,R) ch, 448.00 kbps Russian
Аудио 2: 48 kHz/16-bit, AC3 2/0 (L,R) ch, 448.00 kbps English--
MI
Video
ID : 1
Format : AVC
Format/Info : Advanced Video Codec
Format profile : High@L4.1
Format settings, CABAC : Yes
Format settings, ReFrames : 9 frames
Format settings, GOP : M=1, N=25
Codec ID : V_MPEG4/ISO/AVC
Duration : 59mn 4s
Bit rate : 5 000 Kbps
Width : 1 280 pixels
Height : 720 pixels
Display aspect ratio : 16:9
Frame rate : 25.000 fps
Color space : YUV
Chroma subsampling : 4:2:0
Bit depth : 8 bits
Scan type : Progressive
Bits/(Pixel*Frame) : 0.217
Stream size : 2.01 GiB (83%)
Title : HDCLUB
Writing library : x264 core 114 r1924 08d04a4
Encoding settings : cabac=1 / ref=9 / deblock=1:-3:-3 / analyse=0x3:0x113 / me=tesa / subme=10 / psy=1 / psy_rd=1.10:0.00 / mixed_ref=1 / me_range=16 / chroma_me=1 / trellis=2 / 8x8dct=1 / cqm=0 / deadzone=21,11 / fast_pskip=0 / chroma_qp_offset=-2 / threads=12 / sliced_threads=0 / nr=0 / decimate=0 / interlaced=0 / constrained_intra=0 / bframes=7 / b_pyramid=2 / b_adapt=2 / b_bias=0 / direct=3 / weightb=1 / open_gop=0 / weightp=2 / keyint=250 / keyint_min=23 / scenecut=40 / intra_refresh=0 / rc=2pass / mbtree=0 / bitrate=5000 / ratetol=1.0 / qcomp=0.60 / qpmin=0 / qpmax=69 / qpstep=4 / cplxblur=20.0 / qblur=0.5 / ip_ratio=1.40 / pb_ratio=1.30 / aq=1:0.80
Language : English-Audio #1
ID : 2
Format : AC-3
Format/Info : Audio Coding 3
Mode extension : CM (complete main)
Codec ID : A_AC3
Duration : 59mn 4s
Bit rate mode : Constant
Bit rate : 448 Kbps
Channel(s) : 2 channels
Channel positions : Front: L R
Sampling rate : 48.0 KHz
Bit depth : 16 bits
Compression mode : Lossy
Stream size : 189 MiB (8%)
Title : Îäíîãîëîñûé çàêàäðîâûé,"Îìèêðîí"
Language : Russian-Audio #2
ID : 3
Format : AC-3
Format/Info : Audio Coding 3
Mode extension : CM (complete main)
Codec ID : A_AC3
Duration : 59mn 4s
Bit rate mode : Constant
Bit rate : 448 Kbps
Channel(s) : 2 channels
Channel positions : Front: L R
Sampling rate : 48.0 KHz
Bit depth : 16 bits
Compression mode : Lossy
Stream size : 189 MiB (8%)
Language : English
Скриншоты







Последний раз редактировалось: Mithas204 (2017-05-21 21:23), всего редактировалось 1 раз
[Профиль] [ЛС]

Mithas204 ®

Пол: Мужской

Стаж: 8 лет 10 месяцев

Сообщений: 13765

Откуда: Душанбе, Курган-Тюбе

Создавать темы 12-Сен-2013 21:39 (спустя 30 секунд)

[Цитировать]

Готово
[Профиль] [ЛС]

Mithas204 ®

Пол: Мужской

Стаж: 8 лет 10 месяцев

Сообщений: 13765

Откуда: Душанбе, Курган-Тюбе

Создавать темы 03-Ноя-2013 09:55 (спустя 1 месяц 20 дней)

[Цитировать]

вверх
[Профиль] [ЛС]

Sadriddin.

Пол: Мужской

Стаж: 9 лет 3 месяца

Сообщений: 12066

Создавать темы 11-Окт-2018 09:18 (спустя 4 года 11 месяцев)

[Цитировать]

*HI*
[Профиль] [ЛС]
Показать сообщения:    
Ответить на тему

Текущее время: 24-Окт 05:02

Часовой пояс: UTC + 3



Вы не можете начинать темы
Вы не можете отвечать на сообщения
Вы не можете редактировать свои сообщения
Вы не можете удалять свои сообщения
Вы не можете голосовать в опросах
Вы не можете прикреплять файлы к сообщениям
Вы не можете скачивать файлы