Кот в сапогах & Кот в Сапогах: Три дьяволёнка / Puss in Boots & Puss in Boots: The Three Diablos (Крис Миллер, Роман Хюи) [2011 г, мультфильм, комедия, BDRip 1080p, BDRemux 1080p]

Ответить на тему
 
Автор Сообщение

fadaf9 ®

Пол: Мужской

Стаж: 6 лет 9 месяцев

Сообщений: 2142

Откуда: Таджикистан

Создавать темы 21-Авг-2013 23:39

[Цитировать]

--Кот в сапогах / Puss in Boots-- Год выпуска: 2011
Страна: США
Жанр: мультфильм, фэнтези, комедия, приключения
Продолжительность: 01:30:15
Перевод: Профессиональный (полное дублирование) [Лицензия]- Режиссер: Крис Миллер
В ролях: Антонио Бандерас, Сальма Хайек, Зак Галифианакис, Билли Боб Торнтон, Эми Седарис, Констанс Мари, Гильермо дель Торо, Рич Дитль, Райан Крего, Том Вилер- Описание:
Мечи пересекутся и сердца будут разбиты в приключениях с одним из самых любимых персонажей из Шрэка — котом в сапогах. Это удалая поездка ранних лет кота в сапогах, когда он объединяется с умным Шалтай-Болтаем и сообразительной Китти, чтобы украсть знаменитого Гуся, несущего золотые яйца.-
- рекомендуется присутствие родителей!- Качество: BDRip 1080p
Формат: MKV
Видео: AVC, 11,2 Mbps, 1918x816p, 23.976 fps
Аудио №1: AC3, 5.1, 640 kbps, 6 ch, 48.0 KHz - Russian (полное дублирование) [Лицензия]
Аудио №2: AC3, 5.1, 640 kbps, 6 ch, 48.0 KHz - Ukrainian (полное дублирование) [Лицензия]
Аудио №3: DTS, 5.1, 1509 kbps, 6 ch, 48.0 KHz - Russian (Одноголосый закадровый) [-Гаврилов-]
Аудио №4: DTS, 5.1, 1509 kbps, 6 ch, 48.0 KHz - Russian (Одноголосый закадровый) [-Сербин-]
Аудио №5: DTS, 5.1, 1509 kbps, 6 ch, 48.0 KHz - English
Субтитры: Russian (Forced, Full, Воронин), English-
Знаете ли вы,что...

*Клятва Шалтая-Болтая и Кота: «Первое правило — не говорить о Бобовом клубе. Второе правило — никогда не говорить о Бобовом клубе» — является прямой отсылкой к фильму «Бойцовский клуб» Дэвида Финчера.
MediaInfo

General
Unique ID : 209300060257269359000624351825597309842 (0x9D75B9AFF531ABE785D636AEB2F82392)
Format : Matroska
Format version : Version 4 / Version 2
File size : 10.5 GiB
Duration : 1h 30mn
Overall bit rate : 16.7 Mbps
Encoded date : UTC 2014-10-29 19:15:59
Writing application : mkvmerge v7.3.0 ('Nouages') 64bit built on Oct 22 2014 18:53:34
Writing library : libebml v1.3.0 + libmatroska v1.4.1
DURATION : 01:20:53.103000000
NUMBER_OF_FRAMES : 1310
NUMBER_OF_BYTES : 36393
_STATISTICS_WRITING_APP : mkvmerge v7.3.0 ('Nouages') 64bit built on Oct 22 2014 18:53:34
_STATISTICS_WRITING_DATE_UTC : 2014-10-29 19:15:59
_STATISTICS_TAGS : BPS DURATION NUMBER_OF_FRAMES NUMBER_OF_BYTES
Video
ID : 1
Format : AVC
Format/Info : Advanced Video Codec
Format profile : High@L4.1
Format settings, CABAC : Yes
Format settings, ReFrames : 5 frames
Codec ID : V_MPEG4/ISO/AVC
Duration : 1h 30mn
Bit rate : 11.2 Mbps
Width : 1 918 pixels
Height : 816 pixels
Display aspect ratio : 2.35:1
Frame rate mode : Constant
Frame rate : 23.976 fps
Color space : YUV
Chroma subsampling : 4:2:0
Bit depth : 8 bits
Scan type : Progressive
Bits/(Pixel*Frame) : 0.299
Stream size : 7.07 GiB (67%)
Writing library : x264 core 120 r2146 bcd41db
Encoding settings : cabac=1 / ref=5 / deblock=1:-3:-3 / analyse=0x3:0x113 / me=tesa / subme=10 / psy=1 / psy_rd=0.90:0.00 / mixed_ref=1 / me_range=16 / chroma_me=1 / trellis=2 / 8x8dct=1 / cqm=0 / deadzone=21,11 / fast_pskip=0 / chroma_qp_offset=-2 / threads=12 / sliced_threads=0 / nr=0 / decimate=0 / interlaced=0 / bluray_compat=0 / constrained_intra=0 / bframes=6 / b_pyramid=2 / b_adapt=2 / b_bias=0 / direct=3 / weightb=1 / open_gop=0 / weightp=2 / keyint=250 / keyint_min=23 / scenecut=40 / intra_refresh=0 / rc=crf / mbtree=0 / crf=15.0 / qcomp=0.50 / qpmin=0 / qpmax=69 / qpstep=4 / ip_ratio=1.40 / pb_ratio=1.30 / aq=1:0.90
Language : English
Default : Yes
Forced : No
Matrix coefficients : BT.709
DURATION : 01:30:14.493000000
NUMBER_OF_FRAMES : 129818
NUMBER_OF_BYTES : 7809274786
_STATISTICS_WRITING_APP : mkvmerge v7.3.0 ('Nouages') 64bit built on Oct 22 2014 18:53:34
_STATISTICS_WRITING_DATE_UTC : 2014-10-29 19:15:59
_STATISTICS_TAGS : BPS DURATION NUMBER_OF_FRAMES NUMBER_OF_BYTES
Audio #1
ID : 2
Format : AC-3
Format/Info : Audio Coding 3
Mode extension : CM (complete main)
Format settings, Endianness : Big
Codec ID : A_AC3
Duration : 1h 30mn
Bit rate mode : Constant
Bit rate : 640 Kbps
Channel(s) : 6 channels
Channel positions : Front: L C R, Side: L R, LFE
Sampling rate : 48.0 KHz
Bit depth : 16 bits
Compression mode : Lossy
Stream size : 413 MiB (4%)
Title : DUB [BD CEE]
Language : Russian
Default : Yes
Forced : No
Audio #2
ID : 3
Format : DTS
Format/Info : Digital Theater Systems
Mode : 16
Format settings, Endianness : Big
Codec ID : A_DTS
Duration : 1h 30mn
Bit rate mode : Constant
Bit rate : 1 509 Kbps
Channel(s) : 6 channels
Channel positions : Front: L C R, Side: L R, LFE
Sampling rate : 48.0 KHz
Bit depth : 24 bits
Compression mode : Lossy
Stream size : 974 MiB (9%)
Title : AVO [-Gavrilov-]
Language : Russian
Default : No
Forced : No
Audio #3
ID : 4
Format : DTS
Format/Info : Digital Theater Systems
Mode : 16
Format settings, Endianness : Big
Codec ID : A_DTS
Duration : 1h 30mn
Bit rate mode : Constant
Bit rate : 1 509 Kbps
Channel(s) : 6 channels
Channel positions : Front: L C R, Side: L R, LFE
Sampling rate : 48.0 KHz
Bit depth : 24 bits
Compression mode : Lossy
Stream size : 974 MiB (9%)
Title : AVO [-Serbin-]
Language : Russian
Default : No
Forced : No
Audio #4
ID : 5
Format : DTS
Format/Info : Digital Theater Systems
Mode : 16
Format settings, Endianness : Big
Codec ID : A_DTS
Duration : 1h 30mn
Bit rate mode : Constant
Bit rate : 1 510 Kbps
Channel(s) : 6 channels
Channel positions : Front: L C R, Side: L R, LFE
Sampling rate : 48.0 KHz
Bit depth : 24 bits
Compression mode : Lossy
Stream size : 975 MiB (9%)
Title : Original
Language : English
Default : No
Forced : No
Text #1
ID : 6
Format : UTF-8
Codec ID : S_TEXT/UTF8
Codec ID/Info : UTF-8 Plain Text
Title : Forced
Language : Russian
Default : No
Forced : No
Text #2
ID : 7
Format : UTF-8
Codec ID : S_TEXT/UTF8
Codec ID/Info : UTF-8 Plain Text
Language : Russian
Default : No
Forced : No
Text #3
ID : 8
Format : UTF-8
Codec ID : S_TEXT/UTF8
Codec ID/Info : UTF-8 Plain Text
Title : Voronine
Language : Russian
Default : No
Forced : No
Text #4
ID : 9
Format : UTF-8
Codec ID : S_TEXT/UTF8
Codec ID/Info : UTF-8 Plain Text
Language : English
Default : No
Forced : No
Text #5
ID : 10
Format : UTF-8
Codec ID : S_TEXT/UTF8
Codec ID/Info : UTF-8 Plain Text
Title : SDH
Language : English
Default : No
Forced : No
Menu
00:00:00.000 : en:Opening Credits & Intro
00:03:25.246 : en:Puss in BAR
00:07:20.148 : en:Jack & Jill
00:11:46.831 : en:Dance Fight
00:15:53.369 : en:Kitty Softpaws Intro
00:19:23.537 : en:Story Behind Past
00:25:58.348 : en:Brothers Forever
00:29:22.427 : en:No Stealing Anymore
00:34:06.461 : en:Stealing "Magic Beans"
00:39:17.438 : en:Planting "Magic BEans"
00:44:12.107 : en:The Giant's Castle
00:49:34.054 : en:Goldern Goose
00:54:05.951 : en:Happy Movement
00:57:38.204 : en:Telling the Revenge
01:03:05.990 : en:Puss in Prison
01:08:14.715 : en:Saving "San Ricardo"
01:16:51.773 : en:He's no Outlaw...He's Hero
01:19:42.194 : en:Glitter Box & End Credits
01:30:14.283 : en:
Скриншоты



-- --Кот в Сапогах: Три дьяволёнка / Puss in Boots: The Three Diablos-- Год выпуска: 2010
Страна: США
Жанр: мультфильм, короткометражка
Продолжительность: 00:13:05
Перевод: Профессиональный (дублированный) [Студия "Пифагор"]- Режиссер: Роман Хюи
В ролях: Антонио Бандерас, Гийом Аретос, Майлз Кристофер Бакши, Нина Зои Бакши, Уолт Дорн, Жилль Марини, Брэт Марнелл, Крис Миллер, Шарлотта Ньюхаус- Описание:
Кот в сапогах отправляется на поиск рубина, украденного из короны принцессы пресловутым Французским вором Виспере. Его сопровождают три маленьких котенка, три Дьяволенка, Кот должен приручить их, прежде чем поставить под угрозу миссию.-
- рекомендуется присутствие родителей!- Качество: BDRemux 1080p
Формат: MKV
Видео: AVC, 37,8 Mbps, 1920x1080p, 23.976 fps
Аудио №1: AC3, 5.1, 640 kbps, 6 ch, 48.0 KHz - Russian (Дубляж) [Студия "Пифагор"]
Аудио №2: DTS, 5.1, 1510 kbps, 6 ch, 48.0 KHz - Russian (Многоголосый закадровый) [Студия "Омикрон"]
Аудио №3: DTS, 5.1, 1597 / 1510 kbps, 8 ch / 6 ch, 48.0 KHz - Russian (Одноголосый закадровый) [-Юрий Сербин-]
Аудио №4: DTS, 5.1, 1597 / 1510 kbps, 8 ch / 6 ch, 48.0 KHz - Russian (Одноголосый закадровый) [-Доцент-]
Аудио №5: DTS, 5.1, 1597 / 1510 kbps, 8 ch / 6 ch, 48.0 KHz - Russian (Многоголосый закадровый) [-SkyeFilmTV-]
Аудио №6: DTS, 5.1, 1597 / 1510 kbps, 8 ch / 6 ch, 48.0 KHz - English
Субтитры: Russian, Russian [-Доцент-], English-
MediaInfo

General
Unique ID : 208956679862893629606784527397201093786 (0x9D3397BA0ED34164AD708C9CA593A49A)
Format : Matroska
Format version : Version 4 / Version 2
File size : 4.32 GiB
Duration : 13mn 5s
Overall bit rate mode : Variable
Overall bit rate : 47.3 Mbps
Encoded date : UTC 2014-10-29 19:07:15
Writing application : mkvmerge v7.3.0 ('Nouages') 64bit built on Oct 22 2014 18:53:34
Writing library : libebml v1.3.0 + libmatroska v1.4.1
DURATION : 00:11:26.102000000
NUMBER_OF_FRAMES : 128
NUMBER_OF_BYTES : 4008
_STATISTICS_WRITING_APP : mkvmerge v7.3.0 ('Nouages') 64bit built on Oct 22 2014 18:53:34
_STATISTICS_WRITING_DATE_UTC : 2014-10-29 19:07:15
_STATISTICS_TAGS : BPS DURATION NUMBER_OF_FRAMES NUMBER_OF_BYTES
Video
ID : 1
Format : AVC
Format/Info : Advanced Video Codec
Format profile : High@L4.1
Format settings, CABAC : Yes
Format settings, ReFrames : 4 frames
Codec ID : V_MPEG4/ISO/AVC
Duration : 13mn 5s
Bit rate mode : Variable
Maximum bit rate : 35.0 Mbps
Width : 1 920 pixels
Height : 1 080 pixels
Display aspect ratio : 16:9
Frame rate mode : Constant
Frame rate : 23.976 fps
Color space : YUV
Chroma subsampling : 4:2:0
Bit depth : 8 bits
Scan type : Progressive
Language : English
Default : Yes
Forced : No
Audio #1
ID : 2
Format : AC-3
Format/Info : Audio Coding 3
Mode extension : CM (complete main)
Format settings, Endianness : Big
Codec ID : A_AC3
Duration : 13mn 5s
Bit rate mode : Constant
Bit rate : 640 Kbps
Channel(s) : 6 channels
Channel positions : Front: L C R, Side: L R, LFE
Sampling rate : 48.0 KHz
Bit depth : 16 bits
Compression mode : Lossy
Stream size : 59.9 MiB (1%)
Title : DUB
Language : Russian
Default : Yes
Forced : No
Audio #2
ID : 3
Format : DTS
Format/Info : Digital Theater Systems
Mode : 16
Format settings, Endianness : Big
Codec ID : A_DTS
Duration : 13mn 5s
Bit rate mode : Constant
Bit rate : 1 509 Kbps
Channel(s) : 6 channels
Channel positions : Front: L C R, Side: L R, LFE
Sampling rate : 48.0 KHz
Bit depth : 24 bits
Compression mode : Lossy
Stream size : 141 MiB (3%)
Title : MVO [-Студия "Омикрон"-]
Language : Russian
Default : No
Forced : No
Audio #3
ID : 4
Format : DTS
Format/Info : Digital Theater Systems
Format profile : MA / Core
Mode : 16
Format settings, Endianness : Big
Codec ID : A_DTS
Duration : 13mn 5s
Bit rate mode : Variable
Bit rate : Unknown / 1 509 Kbps
Channel(s) : 8 channels / 6 channels
Channel positions : Front: L C R, Side: L R, Back: L R, LFE / Front: L C R, Side: L R, LFE
Sampling rate : 48.0 KHz
Bit depth : 24 bits
Compression mode : Lossless / Lossy
Title : AVO [-Юрий Сербин-]
Language : Russian
Default : No
Forced : No
Audio #4
ID : 5
Format : DTS
Format/Info : Digital Theater Systems
Format profile : MA / Core
Mode : 16
Format settings, Endianness : Big
Codec ID : A_DTS
Duration : 13mn 5s
Bit rate mode : Variable
Bit rate : Unknown / 1 509 Kbps
Channel(s) : 8 channels / 6 channels
Channel positions : Front: L C R, Side: L R, Back: L R, LFE / Front: L C R, Side: L R, LFE
Sampling rate : 48.0 KHz
Bit depth : 24 bits
Compression mode : Lossless / Lossy
Title : AVO [-Доцент-]
Language : Russian
Default : No
Forced : No
Audio #5
ID : 6
Format : DTS
Format/Info : Digital Theater Systems
Format profile : MA / Core
Mode : 16
Format settings, Endianness : Big
Codec ID : A_DTS
Duration : 13mn 5s
Bit rate mode : Variable
Bit rate : Unknown / 1 509 Kbps
Channel(s) : 8 channels / 6 channels
Channel positions : Front: L C R, Side: L R, Back: L R, LFE / Front: L C R, Side: L R, LFE
Sampling rate : 48.0 KHz
Bit depth : 24 bits
Compression mode : Lossless / Lossy
Title : MVO [-SkyeFilmTV-]
Language : Russian
Default : No
Forced : No
Audio #6
ID : 7
Format : DTS
Format/Info : Digital Theater Systems
Format profile : MA / Core
Mode : 16
Format settings, Endianness : Big
Codec ID : A_DTS
Duration : 13mn 5s
Bit rate mode : Variable
Bit rate : Unknown / 1 509 Kbps
Channel(s) : 8 channels / 6 channels
Channel positions : Front: L C R, Side: L R, Back: L R, LFE / Front: L C R, Side: L R, LFE
Sampling rate : 48.0 KHz
Bit depth : 24 bits
Compression mode : Lossless / Lossy
Title : Original
Language : English
Default : No
Forced : No
Text #1
ID : 8
Format : UTF-8
Codec ID : S_TEXT/UTF8
Codec ID/Info : UTF-8 Plain Text
Language : Russian
Default : No
Forced : No
Text #2
ID : 9
Format : UTF-8
Codec ID : S_TEXT/UTF8
Codec ID/Info : UTF-8 Plain Text
Title : по переводу Доцента
Language : Russian
Default : No
Forced : No
Text #3
ID : 10
Format : UTF-8
Codec ID : S_TEXT/UTF8
Codec ID/Info : UTF-8 Plain Text
Language : English
Default : No
Forced : No
Menu
00:00:00.000 : en:Chapter 1
00:05:06.723 : en:Chapter 2
00:13:05.242 : en:Chapter 3
Скриншоты





Последний раз редактировалось: fadaf9 (2015-01-02 12:17), всего редактировалось 2 раз(а)
[Профиль] [ЛС]

deanstyle

Пол: Мужской

Стаж: 4 года 2 месяца

Сообщений: 1

Создавать темы 22-Авг-2013 07:05 (спустя 7 часов)

[Цитировать]

добавьте скорости пожалл))
[Профиль] [ЛС]

jesusiness

Пол: Мужской

Стаж: 4 года 2 месяца

Сообщений: 5

Создавать темы 30-Авг-2013 09:21 (спустя 8 дней)

[Цитировать]

кто нибудь встаньте на раздачу)))
добавлено спустя 4 минуты:
раздайте пожал )))
[Профиль] [ЛС]

fadaf9 ®

Пол: Мужской

Стаж: 6 лет 9 месяцев

Сообщений: 2142

Откуда: Таджикистан

Создавать темы 30-Авг-2013 10:02 (спустя 40 минут)

[Цитировать]

jesusiness
Круглосуточно на раздаче
[Профиль] [ЛС]

jesusiness

Пол: Мужской

Стаж: 4 года 2 месяца

Сообщений: 5

Создавать темы 30-Авг-2013 11:39 (спустя 1 час 36 минут)

[Цитировать]

благодарю))))))))))
добавлено спустя 2 часа 29 минут:
даже с место не сдвигается ((((((( не получается (((
добавлено спустя 11 часов 55 минут:
там наверное скорость +1 да ???
[Профиль] [ЛС]

shiving

Пол: Мужской

Стаж: 4 года 2 месяца

Сообщений: 5

Создавать темы 31-Авг-2013 12:49 (спустя 1 день 1 час)

[Цитировать]

братан тут вообще не получается его загружать ((( раздавай брат)) буду благодарен
[Профиль] [ЛС]

sibos

Пол: Мужской

Стаж: 4 года 2 месяца

Сообщений: 1

Создавать темы 01-Сен-2013 21:27 (спустя 1 день 8 часов)

[Цитировать]

действительно не получается скачивать, ну раздавай )))жалко что ли
[Профиль] [ЛС]

fadaf9 ®

Пол: Мужской

Стаж: 6 лет 9 месяцев

Сообщений: 2142

Откуда: Таджикистан

Создавать темы 06-Сен-2013 14:24 (спустя 4 дня)

[Цитировать]

Ребята, извините, несколько дней не было инета, теперь на раздаче.
[Профиль] [ЛС]

jurorpiks

Пол: Мужской

Стаж: 4 года 2 месяца

Сообщений: 14

Создавать темы 06-Сен-2013 19:00 (спустя 4 часа)

[Цитировать]

привет братка )) либо скорости не хватает либо тебя снова нет)) встань на раздачу пожал
добавлено спустя 23 минуты:
это то шутка ?? скорость 20((( прибавь ))
добавлено спустя 27 минут:
вот теперь большое человеческое спс тебе )))
добавлено спустя 57 минут:
размер 15 гг а скорость 20 что за ху...я
[Профиль] [ЛС]

~Ashraf-tjk~

Пол: Мужской

Стаж: 5 лет 3 месяца

Сообщений: 5530

Откуда: - Bit-Torrent country (2shanbe)

Создавать темы 07-Сен-2013 18:23 (спустя 23 часа)

[Цитировать]

там наверное скорость +1
что это?
размер 15 гг а скорость 20 что за ху...я
И это говорит халявщик.
не нравится не качай.
[Профиль] [ЛС]

Mithas204

Пол: Мужской

Стаж: 7 лет 11 месяцев

Сообщений: 13072

Откуда: Душанбе, Курган-Тюбе

Создавать темы 18-Апр-2014 14:45 (спустя 7 месяцев 10 дней)

[Цитировать]

fadaf9 раздавать будим?!
[Профиль] [ЛС]

fadaf9 ®

Пол: Мужской

Стаж: 6 лет 9 месяцев

Сообщений: 2142

Откуда: Таджикистан

Создавать темы 18-Апр-2014 15:22 (спустя 37 минут)

[Цитировать]

Mithas204
У меня вся скорость идет сейчас на эту и эту раздачи.
[Профиль] [ЛС]

Mithas204

Пол: Мужской

Стаж: 7 лет 11 месяцев

Сообщений: 13072

Откуда: Душанбе, Курган-Тюбе

Создавать темы 18-Апр-2014 15:33 (спустя 10 минут)

[Цитировать]

Mithas204
У меня вся скорость идет сейчас на эту и эту раздачи.
Ждемсь после них. Спасибо
[Профиль] [ЛС]

Mithas204

Пол: Мужской

Стаж: 7 лет 11 месяцев

Сообщений: 13072

Откуда: Душанбе, Курган-Тюбе

Создавать темы 04-Май-2014 06:35 (спустя 15 дней)

[Цитировать]

скорость
[Профиль] [ЛС]

fadaf9 ®

Пол: Мужской

Стаж: 6 лет 9 месяцев

Сообщений: 2142

Откуда: Таджикистан

Создавать темы 04-Май-2014 09:33 (спустя 2 часа 58 минут)

[Цитировать]

Mithas204
У меня небольшая проблема со скоростью, вот. Как только смогу найти решение, или мне его покажут, думаю, скорость нормализуется.
[Профиль] [ЛС]

Создавать темы 11-Дек-2014 09:46 (спустя 7 месяцев 7 дней)

Топик был перенесен из форума HDTV в форум Архив

Mithas204
 

Создавать темы 11-Янв-2015 12:27 (спустя 8 месяцев 7 дней)

Топик был перенесен из форума Архив в форум Сборники и Сиквелы

Paladin4eg
 
Показать сообщения:    
Ответить на тему

Текущее время: 18-Ноя 18:28

Часовой пояс: UTC + 3



Вы не можете начинать темы
Вы не можете отвечать на сообщения
Вы не можете редактировать свои сообщения
Вы не можете удалять свои сообщения
Вы не можете голосовать в опросах
Вы не можете прикреплять файлы к сообщениям
Вы не можете скачивать файлы