(Progressive Rock) Дискография Pink Floyd : Студийные пластинки 1967—1994 (14 альбомов, 32 издания), FLAC (image+.cue), lossless

Страницы :  1, 2  След.

Ответить на тему
 
Автор Сообщение

Mikekiller ®

Пол: Мужской

Стаж: 10 лет

Сообщений: 3435

Откуда: Душанбе, 65 мкр

Создавать темы 28-Авг-2009 21:40

[Цитировать]

-Pink Floyd-Жанр: Progressive Rock
Страна: United Kingdom
Аудио кодек: FLAC
Тип рипа: image + .cue + .log + artwork
Битрейт аудио: lossless-
The Piper at the Gates of Dawn / 1967
The Piper at the Gates of Dawn
Released : August 1967
Recorded : 1967
Label : Columbia / EMI ; Tower / Capitol
2007 / 3 x CD, Remastered, 40th Anniversary Deluxe Edition Box Set / EMI Records / 50999 5 03919 2 9 / Europe
Tracklist:
CD1:
01. Astronomy domine (4:15)
02. Lucifer sam (3:09)
03. Matilda mother (3:05)
04. Flaming (2:46)
05. Pow R. Toc H. (4:25)
06. Take up thy stethoscope and walk (3:08)
07. Interstellar overdrive (9:41)
08. The gnome (2:14)
09. Chapter 24 (3:53)
10. Scarecrow (2:11)
11. Bike (3:27)
CD2:
01. Astronomy Domine (4:12)
02. Lucifer Sam (3:07)
03. Matilda Mother (3:09)
04. Flaming (2:46)
05. Pow R. Toc H. (4:26)
06. Take Up Thy Stethoscope And Walk (3:06)
07. Interstellar Overdrive (9:40)
08. The Gnome (2:14)
09. Chapter 24 (3:42)
10. The Scarecrow (2:11)
11. Bike (3:24)
CD3:
01. Arnold Layne (2:56)
02. Candy And A Currant Bun (2:45)
03. See Emily Play (2:54)
04. Apples And Oranges (3:06)
05. Paintbox (3:46)
06. Interstellar Overdrive (French Edit) (5:16)
07. Apples And Oranges (Stereo Version) (3:11)
08. Matilda Mother (Alternative Version) (3:09)
09. Interstellar Overdrive (Take 6) (5:04)
EAC лог
EAC extraction logfile for CD
Pink Floyd / The Piper At The Gates Of Dawn (2007 Disc 1)
Used drive :
Read mode : Secure with NO C2, accurate stream, disable cache
Read offset correction : 48
Overread into Lead-In and Lead-Out : No
Used output format : Internal WAV Routines
44.100 Hz; 16 Bit; Stereo
Other options :
Fill up missing offset samples with silence : Yes
Delete leading and trailing silent blocks : No
Native Win32 interface for Win NT & 2000
Range status and errors
Selected range
Filename Pink Floyd - The Piper At The Gates Of Dawn (2007 Disc 1).wav
Peak level 100.0 %
Range quality 100.0 %
CRC 0DEBAFB3
Copy OK
No errors occured
End of status report
EAC лог
EAC extraction logfile for CD
Pink Floyd / The Piper At The Gates Of Dawn (2007 Disc 2)
Used drive :
Read mode : Secure with NO C2, accurate stream, disable cache
Read offset correction : 48
Overread into Lead-In and Lead-Out : No
Used output format : Internal WAV Routines
44.100 Hz; 16 Bit; Stereo
Other options :
Fill up missing offset samples with silence : Yes
Delete leading and trailing silent blocks : No
Native Win32 interface for Win NT & 2000
Range status and errors
Selected range
Filename Pink Floyd - The Piper At The Gates Of Dawn (2007 Disc 2).wav
Peak level 100.0 %
Range quality 100.0 %
CRC A0923B37
Copy OK
No errors occured
End of status report
EAC лог
EAC extraction logfile for CD
Pink Floyd / The Piper At The Gates Of Dawn (2007 Disc 3)
Used drive :
Read mode : Secure with NO C2, accurate stream, disable cache
Read offset correction : 48
Overread into Lead-In and Lead-Out : No
Used output format : Internal WAV Routines
44.100 Hz; 16 Bit; Stereo
Other options :
Fill up missing offset samples with silence : Yes
Delete leading and trailing silent blocks : No
Native Win32 interface for Win NT & 2000
Range status and errors
Selected range
Filename Pink Floyd - The Piper At The Gates Of Dawn (2007. Disc 3).wav
Peak level 100.0 %
Range quality 99.9 %
CRC 96EE0082
Copy OK
No errors occured
End of status report
1987 / EMI / CP32-5269(CDP 7 46384 2) / 1st Press / Japan
Tracklist:
01. Astronomy Domine (4:13)
02. Lucifer Sam (3:07)
03. Matilda Mother (3:08)
04. Flaming (2:46)
05. Pow R. Toc H. (4:26)
06. Take Up Thy Stethoscope And Walk (3:07)
07. Interstellar Overdrive (9:42)
08. The Gnome (2:13)
09. Chapter 24 (3:42)
10. Scarecrow (2:11)
11. Bike (3:22)
EAC лог
EAC extraction logfile from 17. February 2007, 11:08 for CD
Pink Floyd / The Piper At The Gates Of Dawn
Used drive : HL-DT-STDVD-RW GCA-4080N Adapter: 1 ID: 0
Read mode : Secure with NO C2, accurate stream, disable cache
Read offset correction : 667
Overread into Lead-In and Lead-Out : No
Used output format : E:\Program Files\REACT\Encoders\wavpack.exe (User Defined Encoder)
128 kBit/s
Additional command line options : -hme -w "Cuesheet=@*.cue" -w "Artist=%a" -w "Album=%g" -w "Year=%y" -w "Genre=%m" %s %d
Other options :
Fill up missing offset samples with silence : Yes
Delete leading and trailing silent blocks : No
Native Win32 interface for Win NT & 2000
Range status and errors
Selected range
Filename G:\Pink Floyd - The Piper At The Gates Of Dawn.wav.wav.wav
Peak level 100.0 %
Range quality 100.0 %
CRC E5A022E7
Copy OK
No errors occured
End of status report
A Saucerful of Secrets / 1968
A Saucerful of Secrets
Released : 29 June 1968
Recorded : 1968
Label : Columbia / EMI ; Tower / Capitol
1988 / EMI / CP32-5272(CDP 7 46383 2) / 1st Press / Japan
Tracklist:
01. Let There Be More Light (5:37)
02. Remember A Day (4:33)
03. Set The Controls For The Heart Of The Sun (5:28)
04. Corporal Clegg (4:12)
05. A Saucerful Of Secrets: Something Else (3:58)
06. A Saucerful Of Secrets: Syncopated Pandemonium (3:18)
07. A Saucerful Of Secrets: Storm Signal (2:58)
08. A Saucerful Of Secrets: Celestial Voices (1:43)
09. See Saw (4:36)
10. Jugband Blues (3:00)
EAC лог
EAC extraction logfile from 4. August 2007, 9:22 for CD
Pink Floyd / A Saucerful of Secrets
Used drive : HL-DT-STDVDRAM GSA-4160B Adapter: 1 ID: 0
Read mode : Secure with NO C2, accurate stream, disable cache
Read offset correction : 667
Overread into Lead-In and Lead-Out : No
Used output format : C:\Program Files\FLAC\flac.exe (User Defined Encoder)
128 kBit/s
Additional command line options : -8 -V -T "ARTIST=%a" -T "TITLE=%t" -T "ALBUM=%g" -T "DATE=%y" -T "TRACKNUMBER=%n" -T "GENRE=%m" -T "COMMENT=EAC Flac 1.1.4 -8" %s
Other options :
Fill up missing offset samples with silence : Yes
Delete leading and trailing silent blocks : No
Native Win32 interface for Win NT & 2000
Track 1
Filename C:\Pink Floyd - A Saucerful Of Secrets (1968) [FLAC] {Japan CP32-5272 EMI}\01 - Let there be More Light.wav
Pre-gap length 0:00:02.42
Peak level 70.8 %
Track quality 100.0 %
Test CRC 6429E240
Copy CRC 6429E240
Copy OK
Track 2
Filename C:\Pink Floyd - A Saucerful Of Secrets (1968) [FLAC] {Japan CP32-5272 EMI}\02 - Remember a Day.wav
Pre-gap length 0:00:03.06
Peak level 41.5 %
Track quality 99.9 %
Test CRC DE66F8D3
Copy CRC DE66F8D3
Copy OK
Track 3
Filename C:\Pink Floyd - A Saucerful Of Secrets (1968) [FLAC] {Japan CP32-5272 EMI}\03 - Set the Controls for the Heart of the Sun.wav
Pre-gap length 0:00:04.26
Peak level 62.3 %
Track quality 100.0 %
Test CRC AF52DDA5
Copy CRC AF52DDA5
Copy OK
Track 4
Filename C:\Pink Floyd - A Saucerful Of Secrets (1968) [FLAC] {Japan CP32-5272 EMI}\04 - Corporal Clegg.wav
Pre-gap length 0:00:03.86
Peak level 77.5 %
Track quality 100.0 %
Test CRC 3D34E273
Copy CRC 3D34E273
Copy OK
Track 5
Filename C:\Pink Floyd - A Saucerful Of Secrets (1968) [FLAC] {Japan CP32-5272 EMI}\05 - A Saucerful of Secrets.wav
Pre-gap length 0:00:03.10
Peak level 65.1 %
Track quality 100.0 %
Test CRC CB3C8D24
Copy CRC CB3C8D24
Copy OK
Track 6
Filename C:\Pink Floyd - A Saucerful Of Secrets (1968) [FLAC] {Japan CP32-5272 EMI}\06 - See Saw.wav
Pre-gap length 0:00:03.57
Peak level 66.6 %
Track quality 100.0 %
Test CRC 552F9D35
Copy CRC 552F9D35
Copy OK
Track 7
Filename C:\Pink Floyd - A Saucerful Of Secrets (1968) [FLAC] {Japan CP32-5272 EMI}\07 - Jugband Blues.wav
Pre-gap length 0:00:03.06
Peak level 37.9 %
Track quality 99.9 %
Test CRC 903DB93A
Copy CRC 903DB93A
Copy OK
No errors occured
End of status report
More / 1969
More
Released : 27 Jule 1969
Recorded : 1969
Label : Columbia ; Tower / Capitol ; Harvest
1987 / EMI / CP32-5273(CDP 7 46386 2) / 1st Press / Japan
Tracklist:
01. Cirrus Minor (5:15)
02. The Nile Song (3:26)
03. Crying Song (3:34)
04. Up The Khyber (2:13)
05. Green Is The Colour (2:59)
06. Cymbaline (4:50)
07. Party Sequenee (1:10)
08. Main Theme (5:32)
09. Ibiza Bar (3:17)
10. More Blues (2:13)
11. Quicksilver (7:10)
12. A Spanish Piece (1:05)
13. Dramatic Theme (2:17)
EAC лог
Отчёт EAC об извлечении, выполненном 20. июня 2006, 17:05 для диска:
Pink Floyd / More
Дисковод: PIONEER DVD-RW DVR-109 Adapter: 0 ID: 0
Режим чтения: Достоверный (C2: нет, Точный поток: да, Отключение кэша: да)
Коррекция смещения при чтении: 48
Способность читать области Lead-in и Lead-out : Нет
Выходной формат: Внутренние WAV-операции
44.100 Гц; 16 бит; стерео
Другие параметры:
Заполнение пропущенных сэмплов тишиной : Да
Удаление блоков с тишиной в начале и конце : Нет
Установленный внешний ASPI-интерфейс
Характеристики диапазона извлечения и сообщения об ошибках
Выбранный диапазон
Имя файла D:\New Folder (2)\Раздачи\Pink_Floyd_-_More_(OST)\Pink Floyd - More.wav
Пиковый уровень 100.0 %
Качество диапазона 100.0 %
CRC CE75BFFE
Копирование... OK
Ошибок не произошло
Конец отчёта
Ummagumma / 1969
Ummagumma
Released : 25 October 1969
Recorded : 1969
Label : Harvest ; EMI ; Capitol
April 1987 / EMI / CP28-5270-71(CDP 7 46404 2) / 1st Press / Japan
Tracklist:
CD1:
01. Astronomy Domine (8:31)
02. Careful With That Axe, Eugene (8:51)
03. Set The Controls For The Heart Of The Sun (9:27)
04. A Saucerful Of Secrets (12:50)
CD2:
01. Sysyphus (part 1) (1:08)
02. Sysyphus (part 2) (3:30)
03. Sysyphus (part 3) (1:49)
04. Sysyphus (part 4) (7:00)
05. Grantchester Meadows (7:28)
06. Several Species Of Small Furry Animals Gathered Together In A Cave And Grooving With A Pict (5:02)
07. The Narrow Way (part 1) (3:29)
08. The Narrow Way (part 2) (2:54)
09. The Narrow Way (part 3) (5:58)
10. The Grand Vizier's Garden Party (part 1): Entrance (1:00)
11. The Grand Vizier's Garden Party (part 2): Entertainment (7:06)
12. The Grand Vizier's Garden Party (part 3): Exit (0:41)
EAC лог
Exact Audio Copy V0.99 prebeta 4 from 23. January 2008
EAC extraction logfile from 28. May 2008, 20:05
Pink Floyd / Ummagumma - CD 1
Used drive : LITE-ON DVDRW LH-20A1S Adapter: 3 ID: 0
Read mode : Secure
Utilize accurate stream : Yes
Defeat audio cache : Yes
Make use of C2 pointers : No
Read offset correction : 6
Overread into Lead-In and Lead-Out : No
Fill up missing offset samples with silence : Yes
Delete leading and trailing silent blocks : No
Null samples used in CRC calculations : Yes
Used interface : Native Win32 interface for Win NT & 2000
Gap handling : Appended to previous track
Used output format : User Defined Encoder
Selected bitrate : 128 kBit/s
Quality : High
Add ID3 tag : No
Command line compressor : C:\Program Files\Exact Audio Copy\Flac\flac.exe
Additional command line options : -8 -V -T "ARTIST=%a" -T "TITLE=%t" -T "ALBUM=%g" -T "DATE=%y" -T "TRACKNUMBER=%n" -T "GENRE=%m" -T "COMMENT=EAC 0.99pb4 FLAC -8" %s
TOC of the extracted CD
Track | Start | Length | Start sector | End sector
---------------------------------------------------------
1 | 0:00.33 | 8:31.47 | 33 | 38404
2 | 8:32.05 | 8:50.60 | 38405 | 78214
3 | 17:22.65 | 9:26.60 | 78215 | 120724
4 | 26:49.50 | 12:49.48 | 120725 | 178447
Track 1
Filename C:\CD\Pink Floyd - Ummagumma (1969) [FLAC] {EMI CDP 7 46405 2}\Disc 1\01 - Astronomy Domine.wav
Pre-gap length 0:00:02.44
Peak level 90.5 %
Track quality 100.0 %
Test CRC DC7651B5
Copy CRC DC7651B5
Accurately ripped (confidence 9) [28241E43]
Copy OK
Track 2
Filename C:\CD\Pink Floyd - Ummagumma (1969) [FLAC] {EMI CDP 7 46405 2}\Disc 1\02 - Careful With That Axe, Eugene.wav
Pre-gap length 0:00:03.46
Peak level 100.0 %
Track quality 100.0 %
Test CRC B2B93462
Copy CRC B2B93462
Accurately ripped (confidence 9) [17438F91]
Copy OK
Track 3
Filename C:\CD\Pink Floyd - Ummagumma (1969) [FLAC] {EMI CDP 7 46405 2}\Disc 1\03 - Set The Controls For The Heart Of The Sun.wav
Pre-gap length 0:00:03.49
Peak level 86.1 %
Track quality 99.9 %
Test CRC E3089E9B
Copy CRC E3089E9B
Accurately ripped (confidence 9) [A36397FF]
Copy OK
Track 4
Filename C:\CD\Pink Floyd - Ummagumma (1969) [FLAC] {EMI CDP 7 46405 2}\Disc 1\04 - A Saucerful Of Secrets.wav
Pre-gap length 0:00:03.82
Peak level 83.9 %
Track quality 100.0 %
Test CRC EB5EBCDC
Copy CRC EB5EBCDC
Accurately ripped (confidence 9) [D39ED74F]
Copy OK
All tracks accurately ripped
No errors occurred
End of status report
EAC лог
Exact Audio Copy V0.99 prebeta 4 from 23. January 2008
EAC extraction logfile from 28. May 2008, 21:57
Pink Floyd / Ummagumma - CD 2
Used drive : LITE-ON DVDRW LH-20A1S Adapter: 3 ID: 0
Read mode : Secure
Utilize accurate stream : Yes
Defeat audio cache : Yes
Make use of C2 pointers : No
Read offset correction : 6
Overread into Lead-In and Lead-Out : No
Fill up missing offset samples with silence : Yes
Delete leading and trailing silent blocks : No
Null samples used in CRC calculations : Yes
Used interface : Native Win32 interface for Win NT & 2000
Gap handling : Appended to previous track
Used output format : User Defined Encoder
Selected bitrate : 128 kBit/s
Quality : High
Add ID3 tag : No
Command line compressor : C:\Program Files\Exact Audio Copy\Flac\flac.exe
Additional command line options : -8 -V -T "ARTIST=%a" -T "TITLE=%t" -T "ALBUM=%g" -T "DATE=%y" -T "TRACKNUMBER=%n" -T "GENRE=%m" -T "COMMENT=EAC 0.99pb4 FLAC -8" %s
TOC of the extracted CD
Track | Start | Length | Start sector | End sector
---------------------------------------------------------
1 | 0:00.33 | 1:08.40 | 33 | 5172
2 | 1:08.73 | 3:30.07 | 5173 | 20929
3 | 4:39.05 | 1:49.25 | 20930 | 29129
4 | 6:28.30 | 6:59.50 | 29130 | 60604
5 | 13:28.05 | 7:28.18 | 60605 | 94222
6 | 20:56.23 | 5:01.47 | 94223 | 116844
7 | 25:57.70 | 3:29.20 | 116845 | 132539
8 | 29:27.15 | 2:54.00 | 132540 | 145589
9 | 32:21.15 | 5:58.03 | 145590 | 172442
10 | 38:19.18 | 0:59.52 | 172443 | 176919
11 | 39:18.70 | 7:06.35 | 176920 | 208904
12 | 46:25.30 | 0:40.33 | 208905 | 211937
Track 1
Filename C:\CD\Pink Floyd - Ummagumma (1969) [FLAC] {EMI CDP 7 46405 2}\Disc 2\01 - Richard Wright - Sysyphus Part 1.wav
Pre-gap length 0:00:02.44
Peak level 98.8 %
Track quality 100.0 %
Test CRC C78D0F75
Copy CRC C78D0F75
Accurately ripped (confidence 8) [33D8C7A2]
Copy OK
Track 2
Filename C:\CD\Pink Floyd - Ummagumma (1969) [FLAC] {EMI CDP 7 46405 2}\Disc 2\02 - Richard Wright - Sysyphus Part 2.wav
Pre-gap length 0:00:00.04
Peak level 76.4 %
Track quality 100.0 %
Test CRC 32FCCF94
Copy CRC 32FCCF94
Accurately ripped (confidence 8) [FF922EE4]
Copy OK
Track 3
Filename C:\CD\Pink Floyd - Ummagumma (1969) [FLAC] {EMI CDP 7 46405 2}\Disc 2\03 - Richard Wright - Sysyphus Part 3.wav
Pre-gap length 0:00:04.62
Peak level 74.7 %
Track quality 100.0 %
Test CRC 19FEA774
Copy CRC 19FEA774
Accurately ripped (confidence 8) [329552BA]
Copy OK
Track 4
Filename C:\CD\Pink Floyd - Ummagumma (1969) [FLAC] {EMI CDP 7 46405 2}\Disc 2\04 - Richard Wright - Sysyphus Part 4.wav
Pre-gap length 0:00:01.22
Peak level 97.9 %
Track quality 100.0 %
Test CRC 09B62D7D
Copy CRC 09B62D7D
Accurately ripped (confidence 8) [F6616E63]
Copy OK
Track 5
Filename C:\CD\Pink Floyd - Ummagumma (1969) [FLAC] {EMI CDP 7 46405 2}\Disc 2\05 - Roger Waters - Grantchester Meadows.wav
Pre-gap length 0:00:03.46
Peak level 100.0 %
Track quality 100.0 %
Test CRC 569FE496
Copy CRC 569FE496
Accurately ripped (confidence 8) [67B29083]
Copy OK
Track 6
Filename C:\CD\Pink Floyd - Ummagumma (1969) [FLAC] {EMI CDP 7 46405 2}\Disc 2\06 - Several Species Of Small Furry Animals Gathered Together In A Cave And Grooving With A Pict.wav
Pre-gap length 0:00:00.04
Peak level 79.0 %
Track quality 100.0 %
Test CRC 70DFD02F
Copy CRC 70DFD02F
Accurately ripped (confidence 8) [3D2BA1C0]
Copy OK
Track 7
Filename C:\CD\Pink Floyd - Ummagumma (1969) [FLAC] {EMI CDP 7 46405 2}\Disc 2\07 - David Gilmour - The Narrow Way Part 1.wav
Pre-gap length 0:00:03.66
Peak level 75.9 %
Track quality 100.0 %
Test CRC 428288D5
Copy CRC 428288D5
Accurately ripped (confidence 8) [33981362]
Copy OK
Track 8
Filename C:\CD\Pink Floyd - Ummagumma (1969) [FLAC] {EMI CDP 7 46405 2}\Disc 2\08 - David Gilmour - The Narrow Way Part 2.wav
Pre-gap length 0:00:00.02
Peak level 99.5 %
Track quality 99.9 %
Test CRC C187A32E
Copy CRC C187A32E
Accurately ripped (confidence 8) [EF0703EA]
Copy OK
Track 9
Filename C:\CD\Pink Floyd - Ummagumma (1969) [FLAC] {EMI CDP 7 46405 2}\Disc 2\09 - David Gilmour - The Narrow Way Part 3.wav
Pre-gap length 0:00:00.02
Peak level 89.7 %
Track quality 100.0 %
Test CRC 0BAE31CE
Copy CRC 0BAE31CE
Accurately ripped (confidence 8) [3216BC08]
Copy OK
Track 10
Filename C:\CD\Pink Floyd - Ummagumma (1969) [FLAC] {EMI CDP 7 46405 2}\Disc 2\10 - Nick Mason - The Grand Visier's Garden Party- Part 1 - Entrance.wav
Pre-gap length 0:00:05.26
Peak level 71.5 %
Track quality 100.0 %
Test CRC FA8B85F9
Copy CRC FA8B85F9
Accurately ripped (confidence 8) [992F879E]
Copy OK
Track 11
Filename C:\CD\Pink Floyd - Ummagumma (1969) [FLAC] {EMI CDP 7 46405 2}\Disc 2\11 - Nick Mason - The Grand Visier's Garden Party- Part 2 - Entertainment.wav
Pre-gap length 0:00:00.02
Peak level 99.8 %
Track quality 100.0 %
Test CRC 124B1823
Copy CRC 124B1823
Accurately ripped (confidence 8) [F7BF34AE]
Copy OK
Track 12
Filename C:\CD\Pink Floyd - Ummagumma (1969) [FLAC] {EMI CDP 7 46405 2}\Disc 2\12 - Nick Mason - The Grand Visier's Garden Party- Part 3 - Exit.wav
Pre-gap length 0:00:00.02
Peak level 43.2 %
Track quality 100.0 %
Test CRC 5C5AE3B6
Copy CRC 5C5AE3B6
Accurately ripped (confidence 8) [1324508A]
Copy OK
All tracks accurately ripped
No errors occurred
End of status report
Atom Heart Mother / 1970
Atom Heart Mother
Released : 10 October 1970
Recorded : 1970
Label : Harvest ; EMI ; Capitol
1987 / EMI Records / CP32-5274(CDP 7 46381 2) / 1st Press / UK
Tracklist:
01. Atom Heart Mother (23:36)
02. If (4:31)
03. Summer '68 (5:29)
04. Fat Old Sun (5:24)
05. Alan`s Psychedelic Breakfast (12:59)
EAC лог
Exact Audio Copy V0.99 prebeta 4 from 23. January 2008
EAC extraction logfile from 4. August 2008, 22:47
Pink Floyd / Atom Heart Mother
Used drive : Optiarc DVD RW AD-7173A Adapter: 3 ID: 1
Read mode : Secure
Utilize accurate stream : Yes
Defeat audio cache : Yes
Make use of C2 pointers : No
Read offset correction : 48
Overread into Lead-In and Lead-Out : No
Fill up missing offset samples with silence : Yes
Delete leading and trailing silent blocks : No
Null samples used in CRC calculations : Yes
Used interface : Installed external ASPI interface
Used output format : Internal WAV Routines
Sample format : 44.100 Hz; 16 Bit; Stereo
TOC of the extracted CD
Track | Start | Length | Start sector | End sector
---------------------------------------------------------
1 | 0:00.00 | 23:36.24 | 0 | 106223
2 | 23:36.24 | 4:31.09 | 106224 | 126557
3 | 28:07.33 | 5:28.59 | 126558 | 151216
4 | 33:36.17 | 5:23.47 | 151217 | 175488
5 | 38:59.64 | 12:59.05 | 175489 | 233918
Range status and errors
Selected range
Filename D:\Works\CD-Rips\Pink Floyd - 1970 - Atom Heart Mother\Pink Floyd - 1970 - Atom Heart Mother.wav
Peak level 91.5 %
Range quality 99.9 %
Test CRC 8C69007B
Copy CRC FD99E1EF
Copy OK
No errors occurred
AccurateRip summary
Track 1 not present in database
Track 2 not present in database
Track 3 not present in database
Track 4 not present in database
Track 5 not present in database
None of the tracks are present in the AccurateRip database
End of status report
1994 / Mobile Fidelity Sound Lab / UDCD 595 / USA
Tracklist:
01. Atom Heart Mother Suite (23:46)
02. If (4:31)
03. Summer '68 (5:28)
04. Fat Old Sun (5:23)
05. Alan's Psychedelic Breakfast (13:43)
EAC лог
EAC extraction logfile from 9. January 2006, 10:04 for CD
Pink Floyd / Atom Heart Mother
Used drive : _NEC DVD_RW ND-3550A Adapter: 1 ID: 0
Read mode : Secure with NO C2, accurate stream, disable cache
Read offset correction : 48
Overread into Lead-In and Lead-Out : No
Used output format : Internal WAV Routines
44.100 Hz; 16 Bit; Stereo
Other options :
Fill up missing offset samples with silence : Yes
Delete leading and trailing silent blocks : No
Native Win32 interface for Win NT & 2000
Track 1
Filename C:\Documents and Settings\Owner\My Documents\My Music\eac to wave\01 - Atom Heart Mother Suite.wav
Pre-gap length 0:00:02.00
Peak level 91.2 %
Track quality 100.0 %
Test CRC ED1BA200
Copy CRC ED1BA200
Copy OK
Track 2
Filename C:\Documents and Settings\Owner\My Documents\My Music\eac to wave\02 - If.wav
Pre-gap length 0:00:03.66
Peak level 58.4 %
Track quality 100.0 %
Test CRC 7AC496DF
Copy CRC 7AC496DF
Copy OK
Track 3
Filename C:\Documents and Settings\Owner\My Documents\My Music\eac to wave\03 - Summer '68.wav
Pre-gap length 0:00:03.13
Peak level 94.6 %
Track quality 100.0 %
Test CRC 5794A7AB
Copy CRC 5794A7AB
Copy OK
Track 4
Filename C:\Documents and Settings\Owner\My Documents\My Music\eac to wave\04 - Fat Old Sun.wav
Peak level 77.5 %
Track quality 100.0 %
Test CRC AC92F73D
Copy CRC AC92F73D
Copy OK
Track 5
Filename C:\Documents and Settings\Owner\My Documents\My Music\eac to wave\05 - Alan's Psychedelic Breakfast.wav
Peak level 82.5 %
Track quality 100.0 %
Test CRC 67F6C67A
Copy CRC 67F6C67A
Copy OK
No errors occured
End of status report
Meddle / 1971
Meddle
Released : 30 October 1971
Recorded : 1971
Label : Harvest ; EMI ; Capitol
1988 / Mobile Fidelity Sound Lab / UDCD 518 / Japan
Tracklist:
01. One Of These Days (5:42)
02. A Pillow Of Winds (5:30)
03. Fearless (6:08)
04. San Tropez (3:43)
05. Seamus (2:14)
06. Echoes (23:31)
EAC лог
EAC extraction logfile for CD
Pink Floyd / Meddle (MFSL GOLD UDCD518)
Used drive :
Read mode : Secure with NO C2, accurate stream, disable cache
Read offset correction : 48
Overread into Lead-In and Lead-Out : No
Used output format : Internal WAV Routines
44.100 Hz; 16 Bit; Stereo
Other options :
Fill up missing offset samples with silence : Yes
Delete leading and trailing silent blocks : No
Installed external ASPI interface
Range status and errors
Selected range
Filename _CDImage.wav
Peak level 100.0 %
Range quality 100.0 %
CRC ED94E6FB
Copy OK
No errors occured
End of status report
1994 / EMI / 7243 8 29749 2 5 / Europe
Tracklist:
01. One Of These Days (5:59)
02. A Pillow Of Winds (5:11)
03. Fearless (6:09)
04. San Tropez (3:44)
05. Seamus (2:17)
06. Echoes (23:31)
EAC лог
EAC extraction logfile from 21. October 2007, 15:36 for CD
Pink Floyd / Meddle (Remastered 1992)
Used drive : HL-DT-STRW/DVD GCC-4480B Adapter: 1 ID: 0
Read mode : Secure with NO C2, accurate stream, disable cache
Read offset correction : 6
Overread into Lead-In and Lead-Out : No
Used output format : C:\Program Files\FLAC\flac.exe (User Defined Encoder)
320 kBit/s
Additional command line options : -8 -V -T "ARTIST=%a" -T "TITLE=%t" -T "ALBUM=%g" -T "DATE=%y" -T "TRACKNUMBER=%n" -T "GENRE=%m" -T "COMMENT=EAC Flac 1.1.4 -8" %s
Other options :
Fill up missing offset samples with silence : Yes
Delete leading and trailing silent blocks : No
Installed external ASPI interface
Track 1
Filename D:\BitTorrent Downloads\Pink Floyd - Meddle (1971) [FLAC EAC CUE] (1992 Remaster)\01 - One Of These Days .wav
Pre-gap length 0:00:02.44
Peak level 82.2 %
Track quality 100.0 %
Test CRC 5117DB1C
Copy CRC 5117DB1C
Copy OK
Track 2
Filename D:\BitTorrent Downloads\Pink Floyd - Meddle (1971) [FLAC EAC CUE] (1992 Remaster)\02 - A Pillow Of Winds .wav
Pre-gap length 0:00:00.04
Peak level 56.5 %
Track quality 100.0 %
Test CRC F2112F83
Copy CRC F2112F83
Copy OK
Track 3
Filename D:\BitTorrent Downloads\Pink Floyd - Meddle (1971) [FLAC EAC CUE] (1992 Remaster)\03 - Fearless .wav
Pre-gap length 0:00:03.76
Peak level 97.7 %
Track quality 100.0 %
Test CRC C4264484
Copy CRC C4264484
Copy OK
Track 4
Filename D:\BitTorrent Downloads\Pink Floyd - Meddle (1971) [FLAC EAC CUE] (1992 Remaster)\04 - San Tropez .wav
Pre-gap length 0:00:04.56
Peak level 96.8 %
Track quality 100.0 %
Test CRC BE9DB891
Copy CRC BE9DB891
Copy OK
Track 5
Filename D:\BitTorrent Downloads\Pink Floyd - Meddle (1971) [FLAC EAC CUE] (1992 Remaster)\05 - Seamus .wav
Pre-gap length 0:00:04.06
Peak level 42.8 %
Track quality 100.0 %
Test CRC 51005D6A
Copy CRC 51005D6A
Copy OK
Track 6
Filename D:\BitTorrent Downloads\Pink Floyd - Meddle (1971) [FLAC EAC CUE] (1992 Remaster)\06 - Echoes .wav
Pre-gap length 0:00:03.73
Peak level 97.7 %
Track quality 100.0 %
Test CRC 79665C37
Copy CRC 79665C37
Copy OK
No errors occured
End of status report
1984 / Harvest / CDP 7 46034 2 / Holland
Tracklist:
01. One Of These Days (5:59)
02. A Pillow Of Winds (5:11)
03. Fearless (6:09)
04. San Tropez (3:44)
05. Seamus (2:17)
06. Echoes (23:31)
EAC лог
EAC extraction logfile from 26. January 2008, 11:07 for CD
Pink Floyd / Meddle
Used drive : HL-DT-STDVDRAM GSA-4160B Adapter: 4 ID: 2
Read mode : Secure with NO C2, accurate stream, disable cache
Read offset correction : 667
Overread into Lead-In and Lead-Out : No
Used output format : C:\Program Files\FLAC\flac.exe (User Defined Encoder)
192 kBit/s
Additional command line options : -8 -V -T "ARTIST=%a" -T "TITLE=%t" -T "ALBUM=%g" -T "DATE=%y" -T "TRACKNUMBER=%n" -T "GENRE=%m" -T "COMMENT=EAC FLAC -8" %s
Other options :
Fill up missing offset samples with silence : Yes
Delete leading and trailing silent blocks : No
Native Win32 interface for Win NT & 2000
Track 1
Filename C:\CD\Pink Floyd - Meddle (1971) [FLAC] {Harvest CDP 7 46034 2}\01 - One Of These Days.wav
Pre-gap length 0:00:02.44
Peak level 84.1 %
Track quality 100.0 %
Test CRC 8BCEE5E0
Copy CRC 8BCEE5E0
Copy OK
Track 2
Filename C:\CD\Pink Floyd - Meddle (1971) [FLAC] {Harvest CDP 7 46034 2}\02 - A Pillow Of Winds.wav
Pre-gap length 0:00:00.04
Peak level 57.8 %
Track quality 100.0 %
Test CRC 5C07A865
Copy CRC 5C07A865
Copy OK
Track 3
Filename C:\CD\Pink Floyd - Meddle (1971) [FLAC] {Harvest CDP 7 46034 2}\03 - Fearless.wav
Pre-gap length 0:00:03.76
Peak level 100.0 %
Track quality 100.0 %
Test CRC D79E1765
Copy CRC D79E1765
Copy OK
Track 4
Filename C:\CD\Pink Floyd - Meddle (1971) [FLAC] {Harvest CDP 7 46034 2}\04 - San Tropez.wav
Pre-gap length 0:00:04.56
Peak level 99.0 %
Track quality 100.0 %
Test CRC 817D3A17
Copy CRC 817D3A17
Copy OK
Track 5
Filename C:\CD\Pink Floyd - Meddle (1971) [FLAC] {Harvest CDP 7 46034 2}\05 - Seamus.wav
Pre-gap length 0:00:04.06
Peak level 43.8 %
Track quality 100.0 %
Test CRC A52470E3
Copy CRC A52470E3
Copy OK
Track 6
Filename C:\CD\Pink Floyd - Meddle (1971) [FLAC] {Harvest CDP 7 46034 2}\06 - Echoes.wav
Pre-gap length 0:00:03.73
Peak level 100.0 %
Track quality 100.0 %
Test CRC D784B43A
Copy CRC D784B43A
Copy OK
No errors occured
End of status report
Obscured by Clouds / 1972
Obscured by Clouds
Released : 3 June 1972 (UK) / 15 June 1972 (USA)
Recorded : 1972
Label : Harvest ; EMI ; Capitol
1987 / EMI / CP32-5275(CDP 7 46385 2) / 1st Press / Japan
Tracklist:
01. Obscured By Clouds (3:05)
02. When You're In (2:28)
03. Burning Bridges (3:29)
04. The Gold It's In The... (3:07)
05. Wot's... Uh The Deal (5:09)
06. Mudmen (4:20)
07. Childhood's End (4:35)
08. Free Four (4:16)
09. Stay (4:07)
10. Absolutely Curtains (5:52)
EAC лог
EAC extraction logfile from 15. February 2008, 18:50 for CD
Pink Floyd / Obscured By Clouds (CP32-5275)
Used drive : HL-DT-STDVD-RW GCA-4080N Adapter: 1 ID: 0
Read mode : Secure with NO C2, accurate stream, disable cache
Read offset correction : 667
Overread into Lead-In and Lead-Out : No
Used output format : E:\PortableApps\eac-0.95b4\Encoders\wavpack.exe (User Defined Encoder)
128 kBit/s
Additional command line options : -hme -w "Cuesheet=@*.cue" -w "Artist=%a" -w "Album=%g" -w "Year=%y" -w "Genre=%m" %s %d
Other options :
Fill up missing offset samples with silence : Yes
Delete leading and trailing silent blocks : No
Installed external ASPI interface
Range status and errors
Selected range
Filename G:\Pink Floyd - Obscured By Clouds (CP32-5275).wav.wav.wav
Peak level 100.0 %
Range quality 100.0 %
CRC 9F80F9E6
Copy OK
No errors occured
End of status report
1987 / Capitol Records / CDP 7 46385 2 / US
Tracklist:
01. Obscured By Clouds (3:05)
02. When You're In (2:28)
03. Burning Bridges (3:29)
04. Gold It's In The..., The (3:07)
05. Wot's... Uh The Deal (5:09)
06. Mudmen (4:20)
07. Childhood's End (4:35)
08. Free Four (4:16)
09. Stay (4:07)
10. Absolutely Curtains (5:52)
EAC лог
Exact Audio Copy V0.99 prebeta 4 from 23. January 2008
EAC extraction logfile from 5. August 2008, 15:18
Pink Floyd / Obscured By Clouds
Used drive : Optiarc DVD RW AD-7173A Adapter: 3 ID: 1
Read mode : Secure
Utilize accurate stream : Yes
Defeat audio cache : Yes
Make use of C2 pointers : No
Read offset correction : 48
Overread into Lead-In and Lead-Out : No
Fill up missing offset samples with silence : Yes
Delete leading and trailing silent blocks : No
Null samples used in CRC calculations : Yes
Used interface : Installed external ASPI interface
Used output format : Internal WAV Routines
Sample format : 44.100 Hz; 16 Bit; Stereo
TOC of the extracted CD
Track | Start | Length | Start sector | End sector
---------------------------------------------------------
1 | 0:00.00 | 3:07.07 | 0 | 14031
2 | 3:07.07 | 2:29.39 | 14032 | 25245
3 | 5:36.46 | 3:31.02 | 25246 | 41072
4 | 9:07.48 | 3:09.05 | 41073 | 55252
5 | 12:16.53 | 5:11.02 | 55253 | 78579
6 | 17:27.55 | 4:22.32 | 78580 | 98261
7 | 21:50.12 | 4:36.49 | 98262 | 119010
8 | 26:26.61 | 4:18.00 | 119011 | 138360
9 | 30:44.61 | 4:08.74 | 138361 | 157034
10 | 34:53.60 | 5:52.02 | 157035 | 183436
Range status and errors
Selected range
Filename D:\Works\CD-Rips\Pink Floyd - 1972 - Obscured by Clouds\Pink Floyd - 1972 - Obscured By Clouds.wav
Peak level 97.7 %
Range quality 99.9 %
Test CRC 1B460BAA
Copy CRC 1B460BAA
Copy OK
No errors occurred
AccurateRip summary
Track 1 not present in database
Track 2 not present in database
Track 3 not present in database
Track 4 not present in database
Track 5 not present in database
Track 6 not present in database
Track 7 not present in database
Track 8 not present in database
Track 9 not present in database
Track 10 not present in database
None of the tracks are present in the AccurateRip database
End of status report
The Dark Side of the Moon / 1973
The Dark Side of the Moon
Released : 17 Marth 1973 (USA) / 24 марта 1973 (UK)
Recorded : 1973
Label : Harvest ; EMI ; Capitol
1986 / EMI / CP35-3017 / Black Triangle / Japan
Tracklist:
01. Speak To Me / Breathe In The Air (3:57)
02. On The Run (3:32)
03. Time (7:05)
04. The Great Gig In The Sky (4:47)
05. Money (6:24)
06. Us And Them (7:49)
07. Any Colour You Like (3:26)
08. Brain Damage (3:50)
09. Eclipse (2:07)
EAC лог
EAC extraction logfile from 29. January 2007, 11:36 for CD
Pink Floyd / The Dark Side Of The Moon [BlackTriangle 1A1 Sony Japan]
Used drive : PLEXTOR DVDR PX-712A Adapter: 0 ID: 2
Read mode : Secure with NO C2, accurate stream, disable cache
Read offset correction : 30
Overread into Lead-In and Lead-Out : No
Used output format : D:\Program Files\Exact Audio Copy\flac-1.1.2-win\bin\flac.exe (User Defined Encoder)
224 kBit/s
Additional command line options : -V -8 -T "artist=%a" -T "title=%t" -T "album=%g" -T "date=%y" -T "tracknumber=%n" -T "genre=%m" %s
Other options :
Fill up missing offset samples with silence : Yes
Delete leading and trailing silent blocks : No
Installed external ASPI interface
Track 1
Filename H:\New\EAC FLAC FILES\01 - Speak To Me , Breathe In The Air.wav
Pre-gap length 0:00:02.00
Peak level 39.9 %
Track quality 100.0 %
Test CRC 162A6335
Copy CRC 162A6335
Copy OK
Track 2
Filename H:\New\EAC FLAC FILES\02 - On The Run.wav
Peak level 43.3 %
Track quality 100.0 %
Test CRC D7E3B43F
Copy CRC D7E3B43F
Copy OK
Track 3
Filename H:\New\EAC FLAC FILES\03 - Time.wav
Peak level 70.1 %
Track quality 100.0 %
Test CRC 36001D42
Copy CRC 36001D42
Copy OK
Track 4
Filename H:\New\EAC FLAC FILES\04 - The Great Gig In The Sky.wav
Peak level 55.2 %
Track quality 100.0 %
Test CRC 2E0791BE
Copy CRC 2E0791BE
Copy OK
Track 5
Filename H:\New\EAC FLAC FILES\05 - Money.wav
Peak level 72.3 %
Track quality 99.9 %
Test CRC A2055868
Copy CRC A2055868
Copy OK
Track 6
Filename H:\New\EAC FLAC FILES\06 - Us And Them.wav
Peak level 44.5 %
Track quality 99.9 %
Test CRC 4787D1B6
Copy CRC 4787D1B6
Copy OK
Track 7
Filename H:\New\EAC FLAC FILES\07 - Any Colour You Like.wav
Peak level 53.9 %
Track quality 100.0 %
Test CRC C29E911E
Copy CRC C29E911E
Copy OK
Track 8
Filename H:\New\EAC FLAC FILES\08 - Brain Damage.wav
Peak level 54.6 %
Track quality 99.9 %
Test CRC 6B827006
Copy CRC 6B827006
Copy OK
Track 9
Filename H:\New\EAC FLAC FILES\09 - Eclipse.wav
Peak level 61.2 %
Track quality 100.0 %
Test CRC 33EA8C43
Copy CRC 33EA8C43
Copy OK
No errors occured
End of status report
1988 / Mobile Fidelity Sound Lab / UDCD 517 / US
Tracklist:
01. Speak to Me (1:13)
02. Breathe (2:46)
03. On the Run (3:35)
04. Time (7:04)
05. The Great Gig in the Sky (4:48)
06. Money (6:23)
07. Us and Them (7:50)
08. Any Colour You Like (3:25)
09. Brain Damage (3:50)
10. Eclipse (2:04)
EAC лог
EAC extraction logfile from 20. October 2007, 3:14 for CD
Various / Pink Floyd - Dark Side of the Moon
Used drive : BENQ DVD DC DQ60 Adapter: 1 ID: 3
Read mode : Secure with NO C2, accurate stream, disable cache
Read offset correction : 102
Overread into Lead-In and Lead-Out : No
Used output format : Internal WAV Routines
44.100 Hz; 16 Bit; Stereo
Other options :
Fill up missing offset samples with silence : Yes
Delete leading and trailing silent blocks : No
Installed external ASPI interface
Track 1
Filename C:\Documents and Settings\JP\Desktop\Pink Floyd - Dark Side of the Moon- FLAC[Origonal Master Recording Ripped from Gold Disk]\01 - Track01 - Track01.wav
Pre-gap length 0:00:02.00
Peak level 29.3 %
Track quality 100.0 %
Test CRC A9FBDCB2
Copy CRC A9FBDCB2
Copy OK
Track 2
Filename C:\Documents and Settings\JP\Desktop\Pink Floyd - Dark Side of the Moon- FLAC[Origonal Master Recording Ripped from Gold Disk]\02 - Track02 - Track02.wav
Peak level 34.1 %
Track quality 100.0 %
Test CRC 556FDA65
Copy CRC 556FDA65
Copy OK
Track 3
Filename C:\Documents and Settings\JP\Desktop\Pink Floyd - Dark Side of the Moon- FLAC[Origonal Master Recording Ripped from Gold Disk]\03 - Track03 - Track03.wav
Peak level 39.2 %
Track quality 100.0 %
Test CRC AE6B683A
Copy CRC AE6B683A
Copy OK
Track 4
Filename C:\Documents and Settings\JP\Desktop\Pink Floyd - Dark Side of the Moon- FLAC[Origonal Master Recording Ripped from Gold Disk]\04 - Track04 - Track04.wav
Peak level 40.3 %
Track quality 100.0 %
Test CRC C233A787
Copy CRC C233A787
Copy OK
Track 5
Filename C:\Documents and Settings\JP\Desktop\Pink Floyd - Dark Side of the Moon- FLAC[Origonal Master Recording Ripped from Gold Disk]\05 - Track05 - Track05.wav
Peak level 41.5 %
Track quality 100.0 %
Test CRC 0E1AB343
Copy CRC 0E1AB343
Copy OK
Track 6
Filename C:\Documents and Settings\JP\Desktop\Pink Floyd - Dark Side of the Moon- FLAC[Origonal Master Recording Ripped from Gold Disk]\06 - Track06 - Track06.wav
Peak level 56.3 %
Track quality 99.9 %
Test CRC 13AA3DF8
Copy CRC 13AA3DF8
Copy OK
Track 7
Filename C:\Documents and Settings\JP\Desktop\Pink Floyd - Dark Side of the Moon- FLAC[Origonal Master Recording Ripped from Gold Disk]\07 - Track07 - Track07.wav
Peak level 49.2 %
Track quality 100.0 %
Test CRC 89408B6D
Copy CRC 89408B6D
Copy OK
Track 8
Filename C:\Documents and Settings\JP\Desktop\Pink Floyd - Dark Side of the Moon- FLAC[Origonal Master Recording Ripped from Gold Disk]\08 - Track08 - Track08.wav
Peak level 57.8 %
Track quality 100.0 %
Test CRC AF492ECC
Copy CRC AF492ECC
Copy OK
Track 9
Filename C:\Documents and Settings\JP\Desktop\Pink Floyd - Dark Side of the Moon- FLAC[Origonal Master Recording Ripped from Gold Disk]\09 - Track09 - Track09.wav
Peak level 52.9 %
Track quality 100.0 %
Test CRC 6B35E6AB
Copy CRC 6B35E6AB
Copy OK
Track 10
Filename C:\Documents and Settings\JP\Desktop\Pink Floyd - Dark Side of the Moon- FLAC[Origonal Master Recording Ripped from Gold Disk]\10 - Track10 - Track10.wav
Peak level 60.0 %
Track quality 100.0 %
Test CRC 20CE8CBE
Copy CRC 20CE8CBE
Copy OK
No errors occured
End of status report
Mar 2003 / EMI Records / 7243 5 82136 2 1 / SACD / Europe
Tracklist:
01. Speak To Me (1:08)
02. Breathe (2:48)
03. On The Run (3:50)
04. Time (6:49)
05. The Great Gig In The Sky (4:47)
06. Money (6:23)
07. Us And Them (7:48)
08. Any Colour You Like (3:25)
09. Brain Damage (3:47)
10. Eclipse (2:11)
EAC лог
Отчёт EAC об извлечении, выполненном 29. декабря 2007, 19:34 для диска:
Pink Floyd / Dark Side of the Moon
Дисковод: SONY DVD RW DW-Q58A Adapter: 1 ID: 1
Режим чтения: Точный (C2: нет, Точный поток: да, Отключение кэша: да)
Коррекция смещения при чтении: 6
Экстрачтение областей Lead-in и Lead-out : Нет
Выходной формат: Внутренние WAV-операции
44.100 Гц; 16 бит; стерео
Другие параметры:
Заполнение пропущенных сэмплов тишиной : Да
Удаление блоков с тишиной в начале и конце : Нет
Установленный внешний ASPI-интерфейс
Статус диапазона и ошибки
Выбранный диапазон
Имя файла G:\CDImage.wav
Пиковый уровень 100.0 %
Качество диапазона 100.0 %
CRC 37CA3316
Копирование... OK
Ошибок не произошло
Конец отчёта
Wish You Were Here / 1975
Wish You Were Here
Released : 15 Senteber 1975
Recorded : 1975
Label : Harvest ; EMI ; Capitol
1982 / CBS/Sony / 35DP-4 / Japan
Tracklist:
01. Shine on You Crazy Diamond (Parts 1-5) - Welcome to the Machine (21:03)
02. Have a Cigar - Wish You Were Here - Shine on You Crazy Diamond (Parts 6-9) (23:10)
EAC лог
EAC extraction logfile from 4. October 2006, 13:56 for CD
Pink Floyd / Wish You Were Here
Used drive : PIONEER DVD-RW DVR-109 Adapter: 1 ID: 1
Read mode : Secure with NO C2, accurate stream, disable cache
Read offset correction : 48
Overread into Lead-In and Lead-Out : No
Used output format : C:\Program Files\FLAC\flac.exe (User Defined Encoder)
192 kBit/s
Additional command line options : -V -8 -T "artist=%a" -T "title=%t" -T "album=%g" -T "date=%y" -T "tracknumber=%n" -T "genre=%m" %s
Other options :
Fill up missing offset samples with silence : Yes
Delete leading and trailing silent blocks : No
Native Win32 interface for Win NT & 2000
Track 1
Filename C:\Documents and Settings\Papablo\Desktop\Pink Floyd - Wish You Were Here (1975) - [FLAC] {OOP 35DP-4 Upgrade}\01 - Shine on You Crazy Diamond (Parts 1-5) - Welcome to the Machine.wav
Pre-gap length 0:00:02.00
Peak level 69.5 %
Track quality 99.9 %
Test CRC 052FDD9C
Copy CRC 052FDD9C
Copy OK
Track 2
Filename C:\Documents and Settings\Papablo\Desktop\Pink Floyd - Wish You Were Here (1975) - [FLAC] {OOP 35DP-4 Upgrade}\02 - Have a Cigar - Wish You Were Here - Shine on You Crazy Diamond (Parts 6-9).wav
Pre-gap length 0:00:02.28
Peak level 83.6 %
Track quality 100.0 %
Test CRC 914B717F
Copy CRC 914B717F
Copy OK
No errors occured
End of status report
1994 / Columbia / CK53753 / Gold Mastersound Edition / Japan
Tracklist:
01. Shine On You Crazy Diamond - Part 1-5 (13:36)
02. Welcome To The Machine (7:25)
03. Have A Cigar (5:24)
04. Wish You Were Here (5:19)
05. Shine On You Crazy Diamond - Part 6-9 (12:26)
EAC лог
EAC extraction logfile from 21. December 2005, 16:18 for CD
Pink Floyd / Wish You Were Here [Mastersound]
Used drive : PLEXTOR CD-R PX-W4012A Adapter: 1 ID: 1
Read mode : Secure with NO C2, accurate stream, disable cache
Read offset correction : 98
Overread into Lead-In and Lead-Out : Yes
Used output format : C:\flac-1.1.2-win\bin\flac.exe (User Defined Encoder)
128 kBit/s
Additional command line options : -5 -V -T "ARTIST=%a" -T "TITLE=%t" -T "ALBUM=%g" -T "DATE=%y" -T "TRACKNUMBER=%n" -T "GENRE=%m" -T "COMMENT=EAC Flac 1.1.2 -5" %s
Other options :
Fill up missing offset samples with silence : Yes
Delete leading and trailing silent blocks : No
Installed external ASPI interface
Track 1
Filename C:\Documents and Settings\Joe\My Documents\My Music\New Folder (2)\01 - Shine On You Crazy Diamond - Part 1-5.wav
Pre-gap length 0:00:02.00
Peak level 100.0 %
Track quality 99.9 %
Test CRC FD9F347C
Copy CRC FD9F347C
Copy OK
Track 2
Filename C:\Documents and Settings\Joe\My Documents\My Music\New Folder (2)\02 - Welcome To The Machine.wav
Peak level 100.0 %
Track quality 100.0 %
Test CRC FFFEEBA6
Copy CRC FFFEEBA6
Copy OK
Track 3
Filename C:\Documents and Settings\Joe\My Documents\My Music\New Folder (2)\03 - Have A Cigar.wav
Peak level 100.0 %
Track quality 99.9 %
Test CRC 73A51DC0
Copy CRC 73A51DC0
Copy OK
Track 4
Filename C:\Documents and Settings\Joe\My Documents\My Music\New Folder (2)\04 - Wish You Were Here.wav
Peak level 98.5 %
Track quality 100.0 %
Test CRC 67EBDE08
Copy CRC 67EBDE08
Copy OK
Track 5
Filename C:\Documents and Settings\Joe\My Documents\My Music\New Folder (2)\05 - Shine On You Crazy Diamond - Part 6-9.wav
Peak level 100.0 %
Track quality 100.0 %
Test CRC 63E53083
Copy CRC 63E53083
Copy OK
No errors occured
End of status report
1984 / Harvest / CDP 7 46035 2 / UK
Tracklist:
01. Shine On You Crazy Diamond (Part One) (13:31)
02. Welcome To The Machine (7:27)
03. Have A Cigar (5:08)
04. Wish You Were Here (5:40)
05. Shine On You Crazy Diamond (Part Two) (12:23)
EAC лог
EAC extraction logfile from 12. October 2008, 1:08 for CD
Pink Floyd / Wish You Were Here
Used drive : HL-DT-STRW/DVD GCC-4480B Adapter: 1 ID: 0
Read mode : Secure with NO C2, accurate stream, disable cache
Read offset correction : 6
Overread into Lead-In and Lead-Out : No
Used output format : C:\Program Files\FLAC\flac.exe (User Defined Encoder)
320 kBit/s
Additional command line options : -8 -V -T "ARTIST=%a" -T "TITLE=%t" -T "ALBUM=%g" -T "DATE=%y" -T "TRACKNUMBER=%n" -T "GENRE=%m" -T "COMMENT=EAC FLAC -8" %s
Other options :
Fill up missing offset samples with silence : Yes
Delete leading and trailing silent blocks : No
Installed external ASPI interface
Track 1
Filename C:\Documents and Settings\Steve & Emma\My Documents\My Music\Pink Floyd\Pink Floyd - Wish You Were Here (1975)\01 - Shine On You Crazy Diamond (Part One) .wav
Pre-gap length 0:00:02.44
Peak level 100.0 %
Track quality 100.0 %
Test CRC 5CFA62E4
Copy CRC 5CFA62E4
Copy OK
Track 2
Filename C:\Documents and Settings\Steve & Emma\My Documents\My Music\Pink Floyd\Pink Floyd - Wish You Were Here (1975)\02 - Welcome To The Machine .wav
Peak level 100.0 %
Track quality 100.0 %
Test CRC FF587B6A
Copy CRC FF587B6A
Copy OK
Track 3
Filename C:\Documents and Settings\Steve & Emma\My Documents\My Music\Pink Floyd\Pink Floyd - Wish You Were Here (1975)\03 - Have A Cigar .wav
Peak level 100.0 %
Track quality 100.0 %
Test CRC 858F809B
Copy CRC 858F809B
Copy OK
Track 4
Filename C:\Documents and Settings\Steve & Emma\My Documents\My Music\Pink Floyd\Pink Floyd - Wish You Were Here (1975)\04 - Wish You Were Here .wav
Peak level 100.0 %
Track quality 99.9 %
Test CRC D26B34DB
Copy CRC D26B34DB
Copy OK
Track 5
Filename C:\Documents and Settings\Steve & Emma\My Documents\My Music\Pink Floyd\Pink Floyd - Wish You Were Here (1975)\05 - Shine On You Crazy Diamond (Part Two) .wav
Peak level 100.0 %
Track quality 100.0 %
Test CRC AEABB78E
Copy CRC AEABB78E
Copy OK
No errors occured
End of status report
2001 / Toshiba EMI / TOCP-65560 / Japan
Tracklist:
01. Shine On You Crazy Diamond - Part 1-5 (13:36)
02. Welcome To The Machine (7:25)
03. Have A Cigar (5:24)
04. Wish You Were Here (5:19)
05. Shine On You Crazy Diamond - Part 6-9 (12:26)
EAC лог
Отчёт EAC об извлечении, выполненном 30. декабря 2007, 23:11 для диска:
Pink Floyd / Wish You Were Here
Дисковод: SONY DVD RW DW-Q58A Adapter: 1 ID: 1
Режим чтения: Точный (C2: нет, Точный поток: да, Отключение кэша: да)
Коррекция смещения при чтении: 6
Экстрачтение областей Lead-in и Lead-out : Нет
Выходной формат: Внутренние WAV-операции
44.100 Гц; 16 бит; стерео
Другие параметры:
Заполнение пропущенных сэмплов тишиной : Да
Удаление блоков с тишиной в начале и конце : Нет
Установленный внешний ASPI-интерфейс
Статус диапазона и ошибки
Выбранный диапазон
Имя файла G:\CDImage.wav
Пиковый уровень 100.0 %
Качество диапазона 100.0 %
CRC A6FA520F
Копирование... OK
Ошибок не произошло
Конец отчёта
Animals / 1977
Animals
Released : 23 January 1977 (UK) / 2 February 1977 (USA)
Recorded : 1977
Label : Harvest ; EMI ; Capitol
1985 / CBS/Sony / 32DP 360 / Japan
Tracklist:
01. Pigs On The Wing (Part One) (1:25)
02. Dogs (17:07)
03. Pigs (Three Different Ones) (11:31)
04. Sheep (10:19)
05. Pigs On The Wing (Part Two) (1:28)
EAC лог
EAC Auslese-Logdatei vom 1. November 2007, 13:00 fьr CD
Pink Floyd / Animals [CBS/SONY 32DP 360]
Benutztes Laufwerk : PLEXTOR CD-R PX-W5224A Adapter: 1 ID: 1
Lesemodus : Sicher mit KEINEM C2, Accurate Stream, Puffer abgeschaltet
Leseoffset Korrektur : 30
Ьberlesen in das Lead-In und Lead-Out : Nein
Benutztes Ausgabeformat : Interne WAV Routinen
44.100 Hz; 16 Bit; Stereo
Andere Einstellungen :
Fьlle fehlende Offsetsample mit Stille auf : Ja
Lцsche fьhrende und nachfolgende stille Blцcke : Nein
Natьrliche Win32 Schnittstelle fьr Win NT/2000/XP
Bereichsstatus und Fehler
Gewдhlter Bereich
Dateiname H:\Pink Floyd - Animals (Japanese 1st pressing)[CBS_Sony 32DP 360]\CDImage.wav
Spitzenpegel 80.4 %
Bereichsqualitдt 100.0 %
CRC E0AFB7C3
Kopie OK
Keine Fehler aufgetreten
Ende des Statusreports
1992 / Harvest / CDP 7 46128 2 / UK
Tracklist:
01. Pigs on the Wing 1 (1:25)
02. Dogs (17:04)
03. Pigs (Three Different Ones) (11:22)
04. Sheep (10:24)
05. Pigs on the Wing 2 (1:25)
EAC лог
Exact Audio Copy V0.99 prebeta 4 from 23. January 2008
EAC extraction logfile from 11. April 2008, 21:26
Pink Floyd / Animals
Used drive : HL-DT-STDVD-RW GCA-4080N Adapter: 1 ID: 0
Read mode : Secure
Utilize accurate stream : Yes
Defeat audio cache : Yes
Make use of C2 pointers : No
Read offset correction : 667
Overread into Lead-In and Lead-Out : No
Fill up missing offset samples with silence : Yes
Delete leading and trailing silent blocks : No
Null samples used in CRC calculations : Yes
Used interface : Native Win32 interface for Win NT & 2000
Gap handling : Appended to previous track
Used output format : User Defined Encoder
Selected bitrate : 128 kBit/s
Quality : High
Add ID3 tag : No
Command line compressor : C:\Program Files\Exact Audio Copy\Flac\flac.exe
Additional command line options : -8 -V -T "ARTIST=%a" -T "TITLE=%t" -T "ALBUM=%g" -T "DATE=%y" -T "TRACKNUMBER=%n" -T "GENRE=%m" -T "COMMENT=EAC FLAC -8" %s
TOC of the extracted CD
Track | Start | Length | Start sector | End sector
---------------------------------------------------------
1 | 0:00.33 | 1:25.02 | 33 | 6409
2 | 1:25.35 | 17:04.10 | 6410 | 83219
3 | 18:29.45 | 11:21.60 | 83220 | 134354
4 | 29:51.30 | 10:23.68 | 134355 | 181147
5 | 40:15.23 | 1:24.57 | 181148 | 187504
Track 1
Filename C:\Temp\Pink Floyd - Animals (1977) [FLAC] {Harvest CDP 7 46128 2}\01 - Pigs on the Wing 1.wav
Pre-gap length 0:00:02.44
Peak level 48.3 %
Track quality 100.0 %
Test CRC 1FECF68E
Copy CRC 1FECF68E
Accurately ripped (confidence 44) [DCD8DA22]
Copy OK
Track 2
Filename C:\Temp\Pink Floyd - Animals (1977) [FLAC] {Harvest CDP 7 46128 2}\02 - Dogs.wav
Pre-gap length 0:00:00.02
Peak level 82.7 %
Track quality 100.0 %
Test CRC 0AC52585
Copy CRC 0AC52585
Accurately ripped (confidence 38) [F7F36F20]
Copy OK
Track 3
Filename C:\Temp\Pink Floyd - Animals (1977) [FLAC] {Harvest CDP 7 46128 2}\03 - Pigs (Three Different Ones).wav
Pre-gap length 0:00:00.02
Peak level 64.8 %
Track quality 100.0 %
Test CRC 51D60D2A
Copy CRC 51D60D2A
Accurately ripped (confidence 41) [A5DB5007]
Copy OK
Track 4
Filename C:\Temp\Pink Floyd - Animals (1977) [FLAC] {Harvest CDP 7 46128 2}\04 - Sheep.wav
Pre-gap length 0:00:00.02
Peak level 75.7 %
Track quality 100.0 %
Test CRC E284675E
Copy CRC E284675E
Accurately ripped (confidence 41) [31A528DE]
Copy OK
Track 5
Filename C:\Temp\Pink Floyd - Animals (1977) [FLAC] {Harvest CDP 7 46128 2}\05 - Pigs on the Wing 2.wav
Pre-gap length 0:00:00.04
Peak level 32.4 %
Track quality 100.0 %
Test CRC DB5606D9
Copy CRC DB5606D9
Accurately ripped (confidence 44) [0EC131E6]
Copy OK
All tracks accurately ripped
No errors occurred
End of status report
1985 / Columbia / CK 34474 / US
Tracklist:
01. Pigs On The Wing (Part One) (1:27)
02. Dogs (17:04)
03. Pigs (Three Different Ones) (11:31)
04. Sheep (10:21)
05. Pigs On The Wing (Part Two) (1:32)
EAC лог
Exact Audio Copy V0.99 prebeta 4 from 23. January 2008
EAC extraction logfile from 4. August 2008, 21:29
Pink Floyd / Animals
Used drive : Optiarc DVD RW AD-7173A Adapter: 3 ID: 1
Read mode : Secure
Utilize accurate stream : Yes
Defeat audio cache : Yes
Make use of C2 pointers : No
Read offset correction : 48
Overread into Lead-In and Lead-Out : No
Fill up missing offset samples with silence : Yes
Delete leading and trailing silent blocks : No
Null samples used in CRC calculations : Yes
Used interface : Installed external ASPI interface
Used output format : Internal WAV Routines
Sample format : 44.100 Hz; 16 Bit; Stereo
TOC of the extracted CD
Track | Start | Length | Start sector | End sector
---------------------------------------------------------
1 | 0:00.30 | 1:26.55 | 30 | 6534
2 | 1:27.10 | 17:04.08 | 6535 | 83342
3 | 18:31.18 | 11:30.41 | 83343 | 135133
4 | 30:01.59 | 10:20.72 | 135134 | 181705
5 | 40:22.56 | 1:32.22 | 181706 | 188627
Range status and errors
Selected range
Filename D:\Works\CD-Rips\Pink FLoyd - 1977 - Animals\Pink Floyd - 1977 - Animals.wav
Peak level 99.7 %
Range quality 99.9 %
Test CRC 5D9D58AE
Copy CRC 9C49BCCB
Copy OK
No errors occurred
AccurateRip summary
Track 1 accurately ripped (confidence 3) [953A335D]
Track 2 cannot be verified as accurate (confidence 3) [BE23CA07], AccurateRip returned [4BAE0535]
Track 3 accurately ripped (confidence 3) [8DAC1E23]
Track 4 accurately ripped (confidence 3) [4534D4A3]
Track 5 accurately ripped (confidence 3) [393FC1FF]
4 track(s) accurately ripped
1 track(s) could not be verified as accurate
Some tracks could not be verified as accurate
End of status report
The Wall / 1979
The Wall
Released : 30 November 1979 (UK) / 8 December 1979 (USA)
Recorded : 1979
Label : Harvest ; EMI ; Capitol
1984 / Columbia / C2K 36183 / US
Tracklist:
CD1:
01. In The Flesh? (3:20)
02. The Thin Ice (2:30)
03. Another Brick In The Wall (Part I) (3:11)
04. The Happiest Days Of Our Lives (1:51)
05. Another Brick In The Wall (Part II) (4:01)
06. Mother (5:34)
07. Goodbye Blue Sky (2:50)
08. Empty Spaces (2:07)
09. Young Lust (3:33)
10. One Of My Turns (3:35)
11. Don't Leave Me Now (4:17)
12. Another Brick In The Wall (Part III) (1:18)
13. Goodbye Cruel World (1:15)
CD2:
01. Hey You (4:41)
02. Is There Anybody Out There? (2:58)
03. Nobody Home (3:12)
04. Vera (1:30)
05. Bring The Boys Back Home (1:26)
06. Comfortably Numb (6:24)
07. The Show Must Go On (1:37)
08. In The Flesh (4:15)
09. Run Like Hell (4:21)
10. Waiting For The Worms (4:02)
11. Stop (0:31)
12. The Trial (5:19)
13. Outside The Wall (1:45)
EAC лог
EAC extraction logfile from 19. July 2007, 20:16 for CD
Pink Floyd / The Wall (CD1)
Used drive : LITE-ON LTR-32123S Adapter: 1 ID: 0
Read mode : Secure with NO C2, accurate stream, disable cache
Read offset correction : 12
Overread into Lead-In and Lead-Out : No
Used output format : Internal WAV Routines
44.100 Hz; 16 Bit; Stereo
Other options :
Fill up missing offset samples with silence : Yes
Delete leading and trailing silent blocks : No
Native Win32 interface for Win NT & 2000
Range status and errors
Selected range
Filename C:\My Music\Pink Floyd-The Wall (C2K 36183)\CDImage.wav
Peak level 100.0 %
Range quality 100.0 %
CRC 631DB50C
Copy OK
No errors occured
End of status report
EAC лог
EAC extraction logfile from 19. July 2007, 20:46 for CD
Pink Floyd / The Wall (Disc 2)
Used drive : LITE-ON LTR-32123S Adapter: 1 ID: 0
Read mode : Secure with NO C2, accurate stream, disable cache
Read offset correction : 12
Overread into Lead-In and Lead-Out : No
Used output format : Internal WAV Routines
44.100 Hz; 16 Bit; Stereo
Other options :
Fill up missing offset samples with silence : Yes
Delete leading and trailing silent blocks : No
Native Win32 interface for Win NT & 2000
Range status and errors
Selected range
Filename C:\My Music\Pink Floyd-The Wall (C2K 36183)\CD Two\CDImage.wav
Peak level 100.0 %
Range quality 100.0 %
CRC C62740ED
Copy OK
No errors occured
End of status report
1989 / Mobile Fidelity Sound Lab / UDCD 2-537 / US
Tracklist:
CD1:
01. In the Flesh? (3:22)
02. The Thin Ice (2:25)
03. Another Brick in the Wall, Pt. 1 (3:45)
04. The Happiest Days of Our Lives (1:21)
05. Another Brick in the Wall, Pt. 2 (4:00)
06. Mother (5:30)
07. Goodbye Blue Sky (2:53)
08. Empty Spaces (2:04)
09. Young Lust (3:29)
10. One of My Turns (3:37)
11. Don't Leave Me Now (4:16)
12. Another Brick in the Wall, Pt. 3 (1:43)
13. Goodbye Cruel World (0:45)
CD2:
01. Hey You (4:44)
02. Is There Anybody Out There? (2:48)
03. Nobody Home (3:37)
04. Vera (1:22)
05. Bring the Boys Back Home (1:17)
06. Comfortably Numb (6:24)
07. The Show Must Go On (1:37)
08. In the Flesh (4:15)
09. Run Like Hell (4:23)
10. Waiting for the Worms (3:56)
11. Stop (0:33)
12. The Trial (5:18)
13. Outside the Wall (1:43)
EAC лог
EAC extraction logfile from 19. August 2006, 15:01 for CD
Pink Floyd / The Wall [MFSL Gold Ultradisc] (Disc 1)
Used drive : _NEC DVD_RW ND-3550A Adapter: 0 ID: 1
Read mode : Secure with NO C2, accurate stream, disable cache
Read offset correction : 48
Overread into Lead-In and Lead-Out : No
Used output format : C:\Program Files\Exact Audio Copy\bin\flac.exe (User Defined Encoder)
192 kBit/s
Additional command line options : -V -8 -T "artist=%a" -T "title=%t" -T "album=%g" -T "date=%y" -T "tracknumber=%n" -T "genre=%m" %s
Other options :
Fill up missing offset samples with silence : Yes
Delete leading and trailing silent blocks : No
Native Win32 interface for Win NT & 2000
Track 1
Filename E:\EAC Ripped CD\01. In the Flesh .wav
Peak level 81.9 %
Track quality 100.0 %
Test CRC 4C12CF70
Copy CRC 4C12CF70
Copy OK
Track 2
Filename E:\EAC Ripped CD\02. The Thin Ice.wav
Peak level 75.4 %
Track quality 99.9 %
Test CRC D7B62C66
Copy CRC D7B62C66
Copy OK
Track 3
Filename E:\EAC Ripped CD\03. Another Brick in the Wall, Pt. 1.wav
Peak level 90.4 %
Track quality 100.0 %
Test CRC CB8BB9FE
Copy CRC CB8BB9FE
Copy OK
Track 4
Filename E:\EAC Ripped CD\04. The Happiest Days of Our Lives.wav
Peak level 91.0 %
Track quality 100.0 %
Test CRC 8543474B
Copy CRC 8543474B
Copy OK
Track 5
Filename E:\EAC Ripped CD\05. Another Brick in the Wall, Pt. 2.wav
Peak level 81.3 %
Track quality 99.9 %
Test CRC 8272F09B
Copy CRC 8272F09B
Copy OK
Track 6
Filename E:\EAC Ripped CD\06. Mother.wav
Peak level 82.9 %
Track quality 100.0 %
Test CRC 80941DC1
Copy CRC 80941DC1
Copy OK
Track 7
Filename E:\EAC Ripped CD\07. Goodbye Blue Sky.wav
Peak level 32.2 %
Track quality 99.8 %
Test CRC 441919A4
Copy CRC 441919A4
Copy OK
Track 8
Filename E:\EAC Ripped CD\08. Empty Spaces.wav
Peak level 68.4 %
Track quality 100.0 %
Test CRC B27A64A1
Copy CRC B27A64A1
Copy OK
Track 9
Filename E:\EAC Ripped CD\09. Young Lust.wav
Peak level 86.5 %
Track quality 99.9 %
Test CRC C7C86B32
Copy CRC C7C86B32
Copy OK
Track 10
Filename E:\EAC Ripped CD\10. One of My Turns.wav
Peak level 78.7 %
Track quality 100.0 %
Test CRC C2843E73
Copy CRC C2843E73
Copy OK
Track 11
Filename E:\EAC Ripped CD\11. Don't Leave Me Now.wav
Peak level 56.7 %
Track quality 100.0 %
Test CRC 10D040FD
Copy CRC 10D040FD
Copy OK
Track 12
Filename E:\EAC Ripped CD\12. Another Brick in the Wall, Pt. 3.wav
Peak level 81.6 %
Track quality 99.8 %
Test CRC 81D306AB
Copy CRC 81D306AB
Copy OK
Track 13
Filename E:\EAC Ripped CD\13. Goodbye Cruel World.wav
Peak level 17.2 %
Track quality 100.0 %
Test CRC C10C5282
Copy CRC C10C5282
Copy OK
No errors occured
End of status report
EAC лог
EAC extraction logfile from 19. August 2006, 18:48 for CD
Pink Floyd / The Wall [MFSL Gold Ultradisc] (Disc 2)
Used drive : _NEC DVD_RW ND-3550A Adapter: 0 ID: 1
Read mode : Secure with NO C2, accurate stream, disable cache
Read offset correction : 48
Overread into Lead-In and Lead-Out : No
Used output format : C:\Program Files\Exact Audio Copy\bin\flac.exe (User Defined Encoder)
192 kBit/s
Additional command line options : -V -8 -T "artist=%a" -T "title=%t" -T "album=%g" -T "date=%y" -T "tracknumber=%n" -T "genre=%m" %s
Other options :
Fill up missing offset samples with silence : Yes
Delete leading and trailing silent blocks : No
Native Win32 interface for Win NT & 2000
Track 1
Filename E:\EAC Ripped CD\01. Hey You.wav
Peak level 70.9 %
Track quality 99.9 %
Test CRC 125423D7
Copy CRC 125423D7
Copy OK
Track 2
Filename E:\EAC Ripped CD\02. Is There Anybody Out There .wav
Peak level 55.3 %
Track quality 100.0 %
Test CRC 2BC5D03C
Copy CRC 2BC5D03C
Copy OK
Track 3
Filename E:\EAC Ripped CD\03. Nobody Home.wav
Peak level 44.8 %
Track quality 100.0 %
Test CRC 794F8621
Copy CRC 794F8621
Copy OK
Track 4
Filename E:\EAC Ripped CD\04. Vera.wav
Peak level 47.4 %
Track quality 100.0 %
Test CRC B27314AD
Copy CRC B27314AD
Copy OK
Track 5
Filename E:\EAC Ripped CD\05. Bring the Boys Back Home.wav
Peak level 51.2 %
Track quality 100.0 %
Test CRC C0FD99FD
Copy CRC C0FD99FD
Copy OK
Track 6
Filename E:\EAC Ripped CD\06. Comfortably Numb.wav
Peak level 81.8 %
Track quality 99.9 %
Test CRC 833EF3DC
Copy CRC 833EF3DC
Copy OK
Track 7
Filename E:\EAC Ripped CD\07. The Show Must Go On.wav
Peak level 58.9 %
Track quality 100.0 %
Test CRC FC4774C3
Copy CRC FC4774C3
Copy OK
Track 8
Filename E:\EAC Ripped CD\08. In the Flesh.wav
Peak level 75.3 %
Track quality 100.0 %
Test CRC E79FD74C
Copy CRC E79FD74C
Copy OK
Track 9
Filename E:\EAC Ripped CD\09. Run Like Hell.wav
Peak level 77.8 %
Track quality 99.9 %
Test CRC 128C86F0
Copy CRC 128C86F0
Copy OK
Track 10
Filename E:\EAC Ripped CD\10. Waiting for the Worms.wav
Peak level 91.6 %
Track quality 99.9 %
Test CRC 603E747F
Copy CRC 603E747F
Copy OK
Track 11
Filename E:\EAC Ripped CD\11. Stop.wav
Peak level 100.0 %
Track quality 100.0 %
Test CRC 052FDC07
Copy CRC 052FDC07
Copy OK
Track 12
Filename E:\EAC Ripped CD\12. The Trial.wav
Peak level 72.9 %
Track quality 100.0 %
Test CRC B68D126A
Copy CRC B68D126A
Copy OK
Track 13
Filename E:\EAC Ripped CD\13. Outside the Wall.wav
Peak level 10.1 %
Track quality 100.0 %
Test CRC A239C5E5
Copy CRC A239C5E5
Copy OK
No errors occured
End of status report
1984 / Harvest / CDP 7 46036 2 / Germany
Tracklist:
CD1:
01. In The Flesh? (3:18)
02. The Thin Ice (2:29)
03. Another Brick In The Wall (Part 1) (3:41)
04. The Happiest Days Of Our Lives (1:21)
05. Another Brick In The Wall (Part 2) (3:56)
06. Mother (5:33)
07. Goodbye Blue Sky (2:48)
08. Empty Spaces (5:37)
09. Young Lust (2:03)
10. One of My Turns (1:34)
11. Don't Leave Me Now (4:23)
12. Another Brick In The Wall (Part 3) (1:17)
13. Goodbye Cruel World (1:06)
CD2:
01. Hey You (4:41)
02. Is There Anybody Out There? (2:46)
03. Nobody Home (3:22)
04. Vera (1:35)
05. Bring The Boys Back Home (0:58)
06. Comfortably Numb (6:42)
07. The Show Must Go On (1:37)
08. In The Flesh (4:17)
09. Run Like Hell (4:23)
10. Waiting For The Worms (3:57)
11. Stop (0:34)
12. The Trial (5:17)
13. Outside The Wall (1:44)
EAC лог
Exact Audio Copy V0.99 prebeta 4 from 23. January 2008
EAC extraction logfile from 2. October 2008, 14:51
Pink Floyd / The Wall (CD 1)
Used drive : MATSHITADVD-R UJ-85J Adapter: 0 ID: 0
Read mode : Secure
Utilize accurate stream : Yes
Defeat audio cache : Yes
Make use of C2 pointers : No
Read offset correction : 102
Overread into Lead-In and Lead-Out : No
Fill up missing offset samples with silence : Yes
Delete leading and trailing silent blocks : No
Null samples used in CRC calculations : Yes
Used interface : Native Win32 interface for Win NT & 2000
Gap handling : Appended to previous track
Used output format : User Defined Encoder
Selected bitrate : 1024 kBit/s
Quality : High
Add ID3 tag : No
Command line compressor : C:\Program Files\Exact Audio Copy\flac.exe
Additional command line options : -8 -T "artist=%a" -T "title=%t" -T "album=%g" -T "date=%y" -T "tracknumber=%n" -T "genre=%m" %s
TOC of the extracted CD
Track | Start | Length | Start sector | End sector
---------------------------------------------------------
1 | 0:00.00 | 3:18.12 | 0 | 14861
2 | 3:18.12 | 2:29.05 | 14862 | 26041
3 | 5:47.17 | 3:41.28 | 26042 | 42644
4 | 9:28.45 | 1:20.65 | 42645 | 48709
5 | 10:49.35 | 3:56.20 | 48710 | 66429
6 | 14:45.55 | 5:32.47 | 66430 | 91376
7 | 20:18.27 | 2:48.30 | 91377 | 104006
8 | 23:06.57 | 5:36.40 | 104007 | 129246
9 | 28:43.22 | 2:03.23 | 129247 | 138494
10 | 30:46.45 | 1:33.62 | 138495 | 145531
11 | 32:20.32 | 4:22.50 | 145532 | 165231
12 | 36:43.07 | 1:17.20 | 165232 | 171026
13 | 38:00.27 | 1:06.08 | 171027 | 175984
Track 1
Filename C:\Downloads\Psychedelic Rock\Pink Floyd\The Wall (CD 1)\01-In The Flesh .wav
Pre-gap length 0:00:02.00
Peak level 53.0 %
Track quality 100.0 %
Test CRC 3C9A47E6
Copy CRC 3C9A47E6
Accurately ripped (confidence 6) [8A74AC23]
Copy OK
Track 2
Filename C:\Downloads\Psychedelic Rock\Pink Floyd\The Wall (CD 1)\02-The Thin Ice.wav
Peak level 39.0 %
Track quality 99.9 %
Test CRC 236B3781
Copy CRC 236B3781
Accurately ripped (confidence 6) [CDCF2233]
Copy OK
Track 3
Filename C:\Downloads\Psychedelic Rock\Pink Floyd\The Wall (CD 1)\03-Another Brick In The Wall (Part 1).wav
Peak level 53.5 %
Track quality 100.0 %
Test CRC 3DDFC6D3
Copy CRC 3DDFC6D3
Accurately ripped (confidence 6) [73800926]
Copy OK
Track 4
Filename C:\Downloads\Psychedelic Rock\Pink Floyd\The Wall (CD 1)\04-The Happiest Days Of Our Lives.wav
Peak level 57.2 %
Track quality 100.0 %
Test CRC 8E2FD84A
Copy CRC 8E2FD84A
Accurately ripped (confidence 6) [D8ECA07F]
Copy OK
Track 5
Filename C:\Downloads\Psychedelic Rock\Pink Floyd\The Wall (CD 1)\05-Another Brick In The Wall (Part 2).wav
Peak level 47.0 %
Track quality 100.0 %
Test CRC A9934850
Copy CRC A9934850
Accurately ripped (confidence 6) [3EC1AC41]
Copy OK
Track 6
Filename C:\Downloads\Psychedelic Rock\Pink Floyd\The Wall (CD 1)\06-Mother.wav
Peak level 60.9 %
Track quality 100.0 %
Test CRC E9B947DE
Copy CRC E9B947DE
Accurately ripped (confidence 7) [5CB57B26]
Copy OK
Track 7
Filename C:\Downloads\Psychedelic Rock\Pink Floyd\The Wall (CD 1)\07-Goodbye Blue Sky.wav
Peak level 23.8 %
Track quality 100.0 %
Test CRC 723DC965
Copy CRC 723DC965
Accurately ripped (confidence 6) [E050BBEE]
Copy OK
Track 8
Filename C:\Downloads\Psychedelic Rock\Pink Floyd\The Wall (CD 1)\08-Empty Spaces.wav
Peak level 49.4 %
Track quality 100.0 %
Test CRC 5F707265
Copy CRC 5F707265
Accurately ripped (confidence 6) [E967AA67]
Copy OK
Track 9
Filename C:\Downloads\Psychedelic Rock\Pink Floyd\The Wall (CD 1)\09-Young Lust.wav
Peak level 27.7 %
Track quality 100.0 %
Test CRC 0D755FAC
Copy CRC 0D755FAC
Accurately ripped (confidence 6) [DFF17610]
Copy OK
Track 10
Filename C:\Downloads\Psychedelic Rock\Pink Floyd\The Wall (CD 1)\10-One of My Turns.wav
Peak level 55.9 %
Track quality 100.0 %
Test CRC 071EA3BD
Copy CRC 071EA3BD
Accurately ripped (confidence 6) [23610C50]
Copy OK
Track 11
Filename C:\Downloads\Psychedelic Rock\Pink Floyd\The Wall (CD 1)\11-Don't Leave Me Now.wav
Peak level 58.2 %
Track quality 99.9 %
Test CRC 17908D44
Copy CRC 17908D44
Accurately ripped (confidence 6) [39CC72B3]
Copy OK
Track 12
Filename C:\Downloads\Psychedelic Rock\Pink Floyd\The Wall (CD 1)\12-Another Brick In The Wall (Part 3).wav
Peak level 57.6 %
Track quality 100.0 %
Test CRC DE24D827
Copy CRC DE24D827
Accurately ripped (confidence 6) [643527F7]
Copy OK
Track 13
Filename C:\Downloads\Psychedelic Rock\Pink Floyd\The Wall (CD 1)\13-Goodbye Cruel World.wav
Peak level 12.0 %
Track quality 99.8 %
Test CRC CECC1AB7
Copy CRC CECC1AB7
Accurately ripped (confidence 6) [BD5C9054]
Copy OK
All tracks accurately ripped
No errors occurred
End of status report
EAC лог
Exact Audio Copy V0.99 prebeta 4 from 23. January 2008
EAC extraction logfile from 2. October 2008, 18:20
Pink Floyd / The Wall [Disc 2]
Used drive : MATSHITADVD-R UJ-85J Adapter: 0 ID: 0
Read mode : Secure
Utilize accurate stream : Yes
Defeat audio cache : Yes
Make use of C2 pointers : No
Read offset correction : 102
Overread into Lead-In and Lead-Out : No
Fill up missing offset samples with silence : Yes
Delete leading and trailing silent blocks : No
Null samples used in CRC calculations : Yes
Used interface : Native Win32 interface for Win NT & 2000
Gap handling : Appended to previous track
Used output format : User Defined Encoder
Selected bitrate : 1024 kBit/s
Quality : High
Add ID3 tag : No
Command line compressor : C:\Program Files\Exact Audio Copy\flac.exe
Additional command line options : -8 -T "artist=%a" -T "title=%t" -T "album=%g" -T "date=%y" -T "tracknumber=%n" -T "genre=%m" %s
TOC of the extracted CD
Track | Start | Length | Start sector | End sector
---------------------------------------------------------
1 | 0:00.00 | 4:40.55 | 0 | 21054
2 | 4:40.55 | 2:46.37 | 21055 | 33541
3 | 7:27.17 | 3:22.20 | 33542 | 48711
4 | 10:49.37 | 1:35.23 | 48712 | 55859
5 | 12:24.60 | 0:58.37 | 55860 | 60246
6 | 13:23.22 | 6:41.45 | 60247 | 90366
7 | 20:04.67 | 1:37.13 | 90367 | 97654
8 | 21:42.05 | 4:16.52 | 97655 | 116906
9 | 25:58.57 | 4:22.58 | 116907 | 136614
10 | 30:21.40 | 3:56.50 | 136615 | 154364
11 | 34:18.15 | 0:33.67 | 154365 | 156906
12 | 34:52.07 | 5:17.20 | 156907 | 180701
13 | 40:09.27 | 1:43.48 | 180702 | 188474
Track 1
Filename C:\Downloads\\Pink Floyd\The Wall [Disc 2]\01-Hey You.wav
Pre-gap length 0:00:02.00
Peak level 42.4 %
Track quality 100.0 %
Test CRC 6C044FD9
Copy CRC 6C044FD9
Accurately ripped (confidence 6) [F0239AED]
Copy OK
Track 2
Filename C:\Downloads\\Pink Floyd\The Wall [Disc 2]\02-Is There Anybody Out There .wav
Peak level 36.5 %
Track quality 100.0 %
Test CRC 9DB3B62E
Copy CRC 9DB3B62E
Accurately ripped (confidence 7) [E3FEE925]
Copy OK
Track 3
Filename C:\Downloads\\Pink Floyd\The Wall [Disc 2]\03-Nobody Home.wav
Peak level 23.2 %
Track quality 100.0 %
Test CRC 044897BD
Copy CRC 044897BD
Accurately ripped (confidence 7) [BF04599F]
Copy OK
Track 4
Filename C:\Downloads\\Pink Floyd\The Wall [Disc 2]\04-Vera.wav
Peak level 20.3 %
Track quality 99.8 %
Test CRC 5B993D97
Copy CRC 5B993D97
Accurately ripped (confidence 7) [0D19488B]
Copy OK
Track 5
Filename C:\Downloads\\Pink Floyd\The Wall [Disc 2]\05-Bring The Boys Back Home.wav
Peak level 66.4 %
Track quality 100.0 %
Test CRC 9FEB2380
Copy CRC 9FEB2380
Accurately ripped (confidence 7) [B33730F6]
Copy OK
Track 6
Filename C:\Downloads\\Pink Floyd\The Wall [Disc 2]\06-Comfortably Numb.wav
Peak level 44.6 %
Track quality 100.0 %
Test CRC 7BBC5722
Copy CRC 7BBC5722
Accurately ripped (confidence 7) [1D663344]
Copy OK
Track 7
Filename C:\Downloads\\Pink Floyd\The Wall [Disc 2]\07-The Show Must Go On.wav
Peak level 35.2 %
Track quality 100.0 %
Test CRC 56F57D6E
Copy CRC 56F57D6E
Accurately ripped (confidence 7) [9B99EE1E]
Copy OK
Track 8
Filename C:\Downloads\\Pink Floyd\The Wall [Disc 2]\08-In The Flesh.wav
Peak level 45.4 %
Track quality 99.9 %
Test CRC 666A4A8A
Copy CRC 666A4A8A
Accurately ripped (confidence 7) [4D39C2AA]
Copy OK
Track 9
Filename C:\Downloads\\Pink Floyd\The Wall [Disc 2]\09-Run Like Hell.wav
Peak level 55.0 %
Track quality 100.0 %
Test CRC 0A2C9E54
Copy CRC 0A2C9E54
Accurately ripped (confidence 7) [13468041]
Copy OK
Track 10
Filename C:\Downloads\\Pink Floyd\The Wall [Disc 2]\10-Waiting For The Worms.wav
Peak level 43.5 %
Track quality 100.0 %
Test CRC 4AA4A5CE
Copy CRC 4AA4A5CE
Accurately ripped (confidence 7) [A464A921]
Copy OK
Track 11
Filename C:\Downloads\\Pink Floyd\The Wall [Disc 2]\11-Stop.wav
Peak level 47.9 %
Track quality 99.6 %
Test CRC 5D8D36C2
Copy CRC 5D8D36C2
Accurately ripped (confidence 7) [43FE0073]
Copy OK
Track 12
Filename C:\Downloads\\Pink Floyd\The Wall [Disc 2]\12-The Trial.wav
Peak level 35.6 %
Track quality 100.0 %
Test CRC 1E6A8899
Copy CRC 1E6A8899
Accurately ripped (confidence 7) [7F2C8B61]
Copy OK
Track 13
Filename C:\Downloads\\Pink Floyd\The Wall [Disc 2]\13-Outside The Wall.wav
Peak level 7.0 %
Track quality 99.8 %
Test CRC 0E71B387
Copy CRC 0E71B387
Accurately ripped (confidence 7) [F03D8EC0]
Copy OK
All tracks accurately ripped
No errors occurred
End of status report
The Final Cut / 1983
The Final Cut
Released : 21 March 1983 (UK) / 2 April 1983 (USA)
Recorded : 1983
Label : Harvest ; EMI ; Capitol
2004 / Toshiba EMI / TOCP-67407 / 13 tracks release / Japan
Tracklist:
01. The Post War Dream (3:00)
02. Your Possible Pasts (4:26)
03. One Of The Few (1:12)
04. When The Tigers Broke Free (3:17)
05. The Hero's Return (2:43)
06. The Gunner's Dream (5:18)
07. Paranoid Eyes (3:41)
08. Get Your Filthy Hands Off My Desert (1:17)
09. The Fletcher Memorial Home (4:12)
10. Southampton Dock (2:11)
11. The Final Cut (4:46)
12. Not Now John (4:56)
13. Two Suns In The Sunset (5:21)
EAC лог
Отчёт EAC об извлечении, выполненном 19. ноября 2006, 14:21 для диска:
Pink Floyd / The Final Cut
Дисковод: _NEC DVD_RW ND-2510A Adapter: 1 ID: 0
Режим чтения: Достоверный (C2: нет, Точный поток: да, Отключение кэша: да)
Коррекция смещения при чтении: 48
Способность читать области Lead-in и Lead-out : Нет
Выходной формат: Внутренние WAV-операции
44.100 Гц; 16 бит; стерео
Другие параметры:
Заполнение пропущенных сэмплов тишиной : Да
Удаление блоков с тишиной в начале и конце : Нет
Встроенный Win32-интерфейс для Win NT/2000
Характеристики диапазона извлечения и сообщения об ошибках
Выбранный диапазон
Имя файла F:\Pink Floyd - The Final Cut\Pink Floyd - The Final Cut.wav
Пиковый уровень 100.0 %
Качество диапазона 100.0 %
CRC CC69CE0D
Копирование... OK
Ошибок не произошло
Конец отчёта
1983 / Columbia / CK 38243 / US
Tracklist:
01. The Post War Dream (2:54)
02. Your Possible Pasts (4:38)
03. One Of The Few (1:14)
04. The Hero's Return (2:35)
05. The Gunners Dream (5:29)
06. Paranoid Eyes (3:35)
07. Get Your Filthy Hands Off My Desert (1:19)
08. The Fletcher Memorial Home (4:11)
09. Southampton Dock (2:14)
10. The Final Cut (4:43)
11. Not Now John (5:01)
12. Two Suns In The Sunset (5:16)
EAC лог
Exact Audio Copy V0.99 prebeta 4 from 23. January 2008
EAC extraction logfile from 4. August 2008, 2:48
Pink Floyd / The Final Cut
Used drive : Optiarc DVD RW AD-7173A Adapter: 3 ID: 1
Read mode : Secure
Utilize accurate stream : Yes
Defeat audio cache : Yes
Make use of C2 pointers : No
Read offset correction : 48
Overread into Lead-In and Lead-Out : No
Fill up missing offset samples with silence : Yes
Delete leading and trailing silent blocks : No
Null samples used in CRC calculations : Yes
Used interface : Installed external ASPI interface
Used output format : Internal WAV Routines
Sample format : 44.100 Hz; 16 Bit; Stereo
TOC of the extracted CD
Track | Start | Length | Start sector | End sector
---------------------------------------------------------
1 | 0:00.00 | 2:54.20 | 0 | 13069
2 | 2:54.20 | 4:37.69 | 13070 | 33913
3 | 7:32.14 | 1:14.20 | 33914 | 39483
4 | 8:46.34 | 2:35.19 | 39484 | 51127
5 | 11:21.53 | 5:29.07 | 51128 | 75809
6 | 16:50.60 | 3:35.20 | 75810 | 91954
7 | 20:26.05 | 1:18.69 | 91955 | 97873
8 | 21:44.74 | 4:10.45 | 97874 | 116668
9 | 25:55.44 | 2:13.52 | 116669 | 126695
10 | 28:09.21 | 4:42.52 | 126696 | 147897
11 | 32:51.73 | 5:01.27 | 147898 | 170499
12 | 37:53.25 | 5:15.52 | 170500 | 194176
Range status and errors
Selected range
Filename D:\Works\CD-Rips\Pink Floyd - 1983 - The Final Cut\Pink Floyd - 1983 - The Final Cut.wav
Peak level 89.0 %
Range quality 100.0 %
Test CRC 10BD50D2
Copy CRC 10BD50D2
Copy OK
No errors occurred
AccurateRip summary
Track 1 cannot be verified as accurate (confidence 1) [CA5507B0], AccurateRip returned [6ECD50A3]
Track 2 accurately ripped (confidence 1) [0A763576]
Track 3 accurately ripped (confidence 1) [66C67A79]
Track 4 cannot be verified as accurate (confidence 1) [7D388DA9], AccurateRip returned [8C5CD504]
Track 5 cannot be verified as accurate (confidence 1) [80AA9389], AccurateRip returned [7D9938D8]
Track 6 accurately ripped (confidence 1) [96D71235]
Track 7 accurately ripped (confidence 1) [42F181E5]
Track 8 cannot be verified as accurate (confidence 1) [8D8303DE], AccurateRip returned [FE9C01AF]
Track 9 accurately ripped (confidence 1) [2EF8FAB2]
Track 10 accurately ripped (confidence 1) [CA397C51]
Track 11 cannot be verified as accurate (confidence 1) [8BFE8980], AccurateRip returned [F92C81B2]
Track 12 accurately ripped (confidence 1) [E4DDAFF9]
7 track(s) accurately ripped
5 track(s) could not be verified as accurate
Some tracks could not be verified as accurate
End of status report
A Momentary Lapse of Reason / 1987
A Momentary Lapse of Reason
Released : 8 Sentember 1987 (UK) / 9 Sentember 1987 (USA)
Recorded : 1987
Label : EMI ; Columbia
May 2005 / Sony Music Direct / MHCP 685 / Japan
Tracklist:
01. Signs Of Life (4:26)
02. Learning To Fly (4:53)
03. The Dogs Of War (6:08)
04. One Slip (5:08)
05. On The Turning Away (5:39)
06. Yet Another Movie/Round And Around (7:28)
07. A New Machine (Part 1) (1:47)
08. Terminal Frost (6:17)
09. A New Machine (Part 2) (0:39)
10. Sorrow (8:49)
EAC лог
EAC extraction logfile from 12. October 2006, 14:35 for CD
Pink Floyd / A Momentary Lapse of Reason
Used drive : SAMSUNG CD-R/RW SW-252B Adapter: 1 ID: 0
Read mode : Secure with NO C2, accurate stream, disable cache
Read offset correction : 97
Overread into Lead-In and Lead-Out : No
Used output format : C:\Program Files\FLAC\flac.exe (User Defined Encoder)
320 kBit/s
Additional command line options : -5 -V -T "ARTIST=%a" -T "TITLE=%t" -T "ALBUM=%g" -T "DATE=%y" -T "TRACKNUMBER=%n" -T "GENRE=%m" -T "COMMENT=EAC Flac 1.1.2 -5" %s
Other options :
Fill up missing offset samples with silence : Yes
Delete leading and trailing silent blocks : No
Installed external ASPI interface
Track 1
Filename C:\EAC Wav's\Pink Floyd - A Momentay Lapse Of Reason (1987) [FLAC] (Japan Mini LP 2005 Remaster)\01 - Signs Of Life.wav
Pre-gap length 0:00:02.00
Peak level 72.7 %
Track quality 100.0 %
Test CRC 3786B73D
Copy CRC 3786B73D
Copy OK
Track 2
Filename C:\EAC Wav's\Pink Floyd - A Momentay Lapse Of Reason (1987) [FLAC] (Japan Mini LP 2005 Remaster)\02 - Learning To Fly.wav
Peak level 100.0 %
Track quality 99.9 %
Test CRC 0E3E159C
Copy CRC 0E3E159C
Copy OK
Track 3
Filename C:\EAC Wav's\Pink Floyd - A Momentay Lapse Of Reason (1987) [FLAC] (Japan Mini LP 2005 Remaster)\03 - The Dogs Of War.wav
Peak level 100.0 %
Track quality 100.0 %
Test CRC F4883267
Copy CRC F4883267
Copy OK
Track 4
Filename C:\EAC Wav's\Pink Floyd - A Momentay Lapse Of Reason (1987) [FLAC] (Japan Mini LP 2005 Remaster)\04 - One Slip.wav
Peak level 100.0 %
Track quality 100.0 %
Test CRC 6CC862F5
Copy CRC 6CC862F5
Copy OK
Track 5
Filename C:\EAC Wav's\Pink Floyd - A Momentay Lapse Of Reason (1987) [FLAC] (Japan Mini LP 2005 Remaster)\05 - On The Turning Away.wav
Pre-gap length 0:00:01.17
Peak level 100.0 %
Track quality 100.0 %
Test CRC 2BE44571
Copy CRC 2BE44571
Copy OK
Track 6
Filename C:\EAC Wav's\Pink Floyd - A Momentay Lapse Of Reason (1987) [FLAC] (Japan Mini LP 2005 Remaster)\06 - Yet Another Movie (Round And Around).wav
Peak level 100.0 %
Track quality 100.0 %
Test CRC 4F15392E
Copy CRC 4F15392E
Copy OK
Track 7
Filename C:\EAC Wav's\Pink Floyd - A Momentay Lapse Of Reason (1987) [FLAC] (Japan Mini LP 2005 Remaster)\07 - A New Machine (Part 1).wav
Peak level 62.7 %
Track quality 100.0 %
Test CRC CE910AE5
Copy CRC CE910AE5
Copy OK
Track 8
Filename C:\EAC Wav's\Pink Floyd - A Momentay Lapse Of Reason (1987) [FLAC] (Japan Mini LP 2005 Remaster)\08 - Terminal Frost.wav
Peak level 100.0 %
Track quality 100.0 %
Test CRC 4D87B07F
Copy CRC 4D87B07F
Copy OK
Track 9
Filename C:\EAC Wav's\Pink Floyd - A Momentay Lapse Of Reason (1987) [FLAC] (Japan Mini LP 2005 Remaster)\09 - A New Machine (Part 2).wav
Peak level 55.9 %
Track quality 99.7 %
Test CRC D132A4EC
Copy CRC D132A4EC
Copy OK
Track 10
Filename C:\EAC Wav's\Pink Floyd - A Momentay Lapse Of Reason (1987) [FLAC] (Japan Mini LP 2005 Remaster)\10 - Sorrow.wav
Peak level 100.0 %
Track quality 100.0 %
Test CRC 2AC102D6
Copy CRC 2AC102D6
Copy OK
No errors occured
End of status report
1987 / CBS/Sony / 32DP - 820 / Japan
Tracklist:
01. Signs Of Life (4:23)
02. Learning To Fly (4:53)
03. The Dogs Of War (6:11)
04. One Slip (5:04)
05. On The Turning Away (5:42)
06. Yet Another Movie - Round And Round (7:28)
07. A New Machine (Part 1) (1:47)
08. Terminal Frost (6:17)
09. A New Machine (Part 2) (0:39)
10. Sorrow (8:49)
EAC лог
EAC extraction logfile from 2. August 2007, 13:31 for CD
Pink Floyd / A Momentary Lapse Of Reason
Used drive : HL-DT-STDVDRAM GSA-4160B Adapter: 1 ID: 0
Read mode : Secure with NO C2, accurate stream, disable cache
Read offset correction : 667
Overread into Lead-In and Lead-Out : No
Used output format : C:\Program Files\FLAC\flac.exe (User Defined Encoder)
128 kBit/s
Additional command line options : -8 -V -T "ARTIST=%a" -T "TITLE=%t" -T "ALBUM=%g" -T "DATE=%y" -T "TRACKNUMBER=%n" -T "GENRE=%m" -T "COMMENT=EAC Flac 1.1.4 -8" %s
Other options :
Fill up missing offset samples with silence : Yes
Delete leading and trailing silent blocks : No
Native Win32 interface for Win NT & 2000
Track 1
Filename C:\Pink Floyd - A Momentary Lapse Of Reason (1987) [FLAC] {Japan 32DP 820 CBS SONY}\01 - Signs Of Life.wav
Pre-gap length 0:00:02.00
Peak level 64.1 %
Track quality 100.0 %
Test CRC 40C6E0A5
Copy CRC 40C6E0A5
Copy OK
Track 2
Filename C:\Pink Floyd - A Momentary Lapse Of Reason (1987) [FLAC] {Japan 32DP 820 CBS SONY}\02 - Learning To Fly.wav
Peak level 100.0 %
Track quality 100.0 %
Test CRC 8CA2CF26
Copy CRC 8CA2CF26
Copy OK
Track 3
Filename C:\Pink Floyd - A Momentary Lapse Of Reason (1987) [FLAC] {Japan 32DP 820 CBS SONY}\03 - The Dogs Of War.wav
Peak level 93.0 %
Track quality 100.0 %
Test CRC DE2D9854
Copy CRC DE2D9854
Copy OK
Track 4
Filename C:\Pink Floyd - A Momentary Lapse Of Reason (1987) [FLAC] {Japan 32DP 820 CBS SONY}\04 - One Slip.wav
Peak level 89.2 %
Track quality 100.0 %
Test CRC F23DDE51
Copy CRC F23DDE51
Copy OK
Track 5
Filename C:\Pink Floyd - A Momentary Lapse Of Reason (1987) [FLAC] {Japan 32DP 820 CBS SONY}\05 - On The Turning Away.wav
Pre-gap length 0:00:01.53
Peak level 85.1 %
Track quality 100.0 %
Test CRC 3C6204F2
Copy CRC 3C6204F2
Copy OK
Track 6
Filename C:\Pink Floyd - A Momentary Lapse Of Reason (1987) [FLAC] {Japan 32DP 820 CBS SONY}\06 - Yet Another Movie - Round And Round.wav
Pre-gap length 0:00:01.70
Peak level 99.9 %
Track quality 99.9 %
Test CRC 12B7ABF3
Copy CRC 12B7ABF3
Copy OK
Track 7
Filename C:\Pink Floyd - A Momentary Lapse Of Reason (1987) [FLAC] {Japan 32DP 820 CBS SONY}\07 - A New Machine (Part 1).wav
Pre-gap length 0:00:01.50
Peak level 40.8 %
Track quality 100.0 %
Test CRC 29A17D5D
Copy CRC 29A17D5D
Copy OK
Track 8
Filename C:\Pink Floyd - A Momentary Lapse Of Reason (1987) [FLAC] {Japan 32DP 820 CBS SONY}\08 - Terminal Frost.wav
Peak level 99.8 %
Track quality 100.0 %
Test CRC 92C4ABD3
Copy CRC 92C4ABD3
Copy OK
Track 9
Filename C:\Pink Floyd - A Momentary Lapse Of Reason (1987) [FLAC] {Japan 32DP 820 CBS SONY}\09 - A New Machine (Part 2).wav
Peak level 39.7 %
Track quality 100.0 %
Test CRC 19A21429
Copy CRC 19A21429
Copy OK
Track 10
Filename C:\Pink Floyd - A Momentary Lapse Of Reason (1987) [FLAC] {Japan 32DP 820 CBS SONY}\10 - Sorrow.wav
Peak level 93.1 %
Track quality 99.9 %
Test CRC D624C5B5
Copy CRC D624C5B5
Copy OK
No errors occured
End of status report
1987 / EMI / CDP 7 48068 2 / UK
Tracklist:
00. Signs Of Life (4:24)
01. Learning To Fly (4:53)
02. The Dogs Of War (6:06)
03. One Slip (5:10)
04. On The Turning Away (5:42)
05. Yet Another Movie - Round And Around (7:28)
06. A New Machine Part 1 (1:47)
07. Terminal Frost (6:17)
08. A New Machine Part 2 (0:39)
09. Sorrow (8:47)
EAC лог
Exact Audio Copy V0.99 prebeta 3 from 28. July 2007
EAC extraction logfile from 20. October 2007, 18:00
Pink Floyd / A Momentary Lapse Of Reason
Used drive : ASUS DRW-1608P2 Adapter: 0 ID: 0
Read mode : Secure
Utilize accurate stream : Yes
Defeat audio cache : Yes
Make use of C2 pointers : No
Read offset correction : 48
Overread into Lead-In and Lead-Out : No
Fill up missing offset samples with silence : Yes
Delete leading and trailing silent blocks : No
Null samples used in CRC calculations : Yes
Used interface : Installed external ASPI interface
Used output format : User Defined Encoder
Selected bitrate : 768 kBit/s
Quality : High
Add ID3 tag : Yes
Command line compressor : D:\Program Files\Exact Audio Copy\FLAC\FLAC.EXE
Additional command line options : -6 -V -T "ARTIST=%a" -T "TITLE=%t" -T "ALBUM=%g" -T "DATE=%y" -T "TRACKNUMBER=%n" -T "GENRE=%m" -T "COMMENT=%e" %s -o %d
TOC of the extracted CD
Track | Start | Length | Start sector | End sector
---------------------------------------------------------
1 | 0:00.30 | 4:24.30 | 30 | 19859
2 | 4:24.60 | 4:53.20 | 19860 | 41854
3 | 9:18.05 | 6:05.40 | 41855 | 69269
4 | 15:23.45 | 5:10.35 | 69270 | 92554
5 | 20:34.05 | 5:42.30 | 92555 | 118234
6 | 26:16.35 | 7:28.00 | 118235 | 151834
7 | 33:44.35 | 1:46.45 | 151835 | 159829
8 | 35:31.05 | 6:17.05 | 159830 | 188109
9 | 41:48.10 | 0:38.55 | 188110 | 191014
10 | 42:26.65 | 8:46.65 | 191015 | 230529
Range status and errors
Selected range
Filename D:\Images\Pink Floyd\Pink Floyd - A Momentary Lapse Of Reason.wav
Peak level 100.0 %
Range quality 99.9 %
Test CRC BE45D26C
Copy CRC 252BEFF6
Copy OK
No errors occurred
End of status report
The Division Bell / 1994
The Division Bell
Released : 30 March 1994 (UK) / 5 April 1994 (USA)
Recorded : 1987
Label : EMI ; Columbia
18 May 2005 / Sony Music Direct / MHCP 688 / Japan
Tracklist:
01. Cluster One (5:58)
02. What Do You Want From Me (4:22)
03. Poles Apart (7:04)
04. Marooned (5:28)
05. A Great Day For Freedom (4:19)
06. Wearing The Inside Out (6:50)
07. Take It Back (6:12)
08. Coming Back To Life (6:20)
09. Keep Talking (6:11)
10. Lost For Words (5:15)
11. High Hopes (8:33)
EAC лог
EAC extraction logfile from 5. November 2006, 9:54 for CD
Pink Floyd / The Division Bell
Used drive : BENQ DVD DD DW1640 Adapter: 0 ID: 1
Read mode : Secure with NO C2, accurate stream, disable cache
Read offset correction : 618
Overread into Lead-In and Lead-Out : No
Used output format : Internal WAV Routines
44.100 Hz; 16 Bit; Stereo
Other options :
Fill up missing offset samples with silence : Yes
Delete leading and trailing silent blocks : No
Installed external ASPI interface
Range status and errors
-
Selected range
Filename D:\Program Files\Pink.Floyd.1994.The.Division.Bell.JP.2005.EAC-APE-Covers\CDImage.wav
Peak level 100.0 %
Range quality 100.0 %
CRC 04051CCA
Copy OK
No errors occured
End of status report
1994 / EMI / 7243 8 28984 2 9 / Europe
Tracklist:
01. Cluster One (5:54)
02. What Do You Want From Me (4:22)
03. Poles Apart (7:04)
04. Marooned (5:28)
05. A Great Day For Freedom (4:12)
06. Wearing The Inside Out (6:46)
07. Take It Back (6:13)
08. Coming Back To Life (6:20)
09. Keep Talking (6:07)
10. Lost For Words (5:15)
11. High Hopes (8:33)
EAC лог
Exact Audio Copy V0.99 prebeta 4 from 23. January 2008
EAC extraction logfile from 4. August 2008, 23:45
Pink Floyd / The Division Bell
Used drive : Optiarc DVD RW AD-7173A Adapter: 3 ID: 1
Read mode : Secure
Utilize accurate stream : Yes
Defeat audio cache : Yes
Make use of C2 pointers : No
Read offset correction : 48
Overread into Lead-In and Lead-Out : No
Fill up missing offset samples with silence : Yes
Delete leading and trailing silent blocks : No
Null samples used in CRC calculations : Yes
Used interface : Installed external ASPI interface
Used output format : Internal WAV Routines
Sample format : 44.100 Hz; 16 Bit; Stereo
TOC of the extracted CD
Track | Start | Length | Start sector | End sector
---------------------------------------------------------
1 | 0:00.00 | 5:54.14 | 0 | 26563
2 | 5:54.14 | 4:22.02 | 26564 | 46215
3 | 10:16.16 | 7:04.37 | 46216 | 78052
4 | 17:20.53 | 5:28.12 | 78053 | 102664
5 | 22:48.65 | 4:11.59 | 102665 | 121548
6 | 27:00.49 | 6:46.32 | 121549 | 152030
7 | 33:47.06 | 6:12.62 | 152031 | 179992
8 | 39:59.68 | 6:19.74 | 179993 | 208491
9 | 46:19.67 | 6:07.29 | 208492 | 236045
10 | 52:27.21 | 5:15.14 | 236046 | 259684
11 | 57:42.35 | 8:32.40 | 259685 | 298124
Range status and errors
Selected range
Filename D:\Works\CD-Rips\Pink Floyd - 1994 - The Division Bell\Pink Floyd - 1994 - The Division Bell.wav
Peak level 92.7 %
Range quality 99.9 %
Test CRC 11C6DFCB
Copy CRC 11C6DFCB
Copy OK
No errors occurred
AccurateRip summary
Track 1 not present in database
Track 2 not present in database
Track 3 not present in database
Track 4 not present in database
Track 5 not present in database
Track 6 not present in database
Track 7 not present in database
Track 8 not present in database
Track 9 not present in database
Track 10 not present in database
Track 11 not present in database
None of the tracks are present in the AccurateRip database
End of status report
Внимание!
Следующие диски содержат pre-emph:
1. The Dark Side Of The Moon - Black Triange CP35-3017-7-1A1
2. Wish You Were Here - 35DP 4 Japan 1st Press
3. The Wall - Columbia C2K 36183


Последний раз редактировалось: Mikekiller (2009-09-05 22:18), всего редактировалось 7 раз(а)
[Профиль] [ЛС]

Sadriddin.

Пол: Мужской

Стаж: 9 лет 6 месяцев

Сообщений: 12085

Создавать темы 29-Авг-2009 01:00 (спустя 3 часа)

[Цитировать]

ЖДу, скачаю отец будет Рад!
[Профиль] [ЛС]

Payne

Пол: Мужской

Стаж: 10 лет

Сообщений: 2124

Создавать темы 29-Авг-2009 01:14 (спустя 14 минут)

[Цитировать]

Ждемс у меня его пластинка есть
он фантастический играет на гитаре :ay:
[Профиль] [ЛС]

Sadriddin.

Пол: Мужской

Стаж: 9 лет 6 месяцев

Сообщений: 12085

Создавать темы 29-Авг-2009 01:19 (спустя 4 минуты)

[Цитировать]

ЖДемс! хааха
[Профиль] [ЛС]

Mikekiller ®

Пол: Мужской

Стаж: 10 лет

Сообщений: 3435

Откуда: Душанбе, 65 мкр

Создавать темы 30-Авг-2009 20:18 (спустя 1 день 18 часов)

[Цитировать]

На несколько прессов не хватает обложек, у кого-нибудь есть мысли, где их искать?
[Профиль] [ЛС]

Sadriddin.

Пол: Мужской

Стаж: 9 лет 6 месяцев

Сообщений: 12085

Создавать темы 30-Авг-2009 20:22 (спустя 4 минуты)

[Цитировать]

Mikekiller
на какие альбомы? может я найду!
[Профиль] [ЛС]

Mikekiller ®

Пол: Мужской

Стаж: 10 лет

Сообщений: 3435

Откуда: Душанбе, 65 мкр

Создавать темы 30-Авг-2009 21:22 (спустя 59 минут)

[Цитировать]

sadriddin919
Открой спойлеры, увидишь.
[Профиль] [ЛС]

Andronix

Пол: Мужской

Стаж: 10 лет

Сообщений: 1938

Откуда: из капусты

Создавать темы 30-Авг-2009 21:43 (спустя 20 минут)

[Цитировать]

Mikekiller
Огромное спасибо, добрый человек!!
по обложкам, в порядке пользования (на некоторых нужна регистрация):
[Профиль] [ЛС]

Mikekiller ®

Пол: Мужской

Стаж: 10 лет

Сообщений: 3435

Откуда: Душанбе, 65 мкр

Создавать темы 30-Авг-2009 21:57 (спустя 13 минут)

[Цитировать]

Andronix
Спс. Буду искать.
[Профиль] [ЛС]

Sadriddin.

Пол: Мужской

Стаж: 9 лет 6 месяцев

Сообщений: 12085

Создавать темы 30-Авг-2009 22:16 (спустя 18 минут)

[Цитировать]

Mikekiller
Советую из предложенных сайтов вот этот http://covers.mrcat.org/search.php
[Профиль] [ЛС]

Andronix

Пол: Мужской

Стаж: 10 лет

Сообщений: 1938

Откуда: из капусты

Создавать темы 31-Авг-2009 19:48 (спустя 21 час)

[Цитировать]

уточни плиз что это такое?
Следующие диски содержат pre-emph:
[Профиль] [ЛС]

Mikekiller ®

Пол: Мужской

Стаж: 10 лет

Сообщений: 3435

Откуда: Душанбе, 65 мкр

Создавать темы 31-Авг-2009 20:38 (спустя 50 минут)

[Цитировать]

Andronix
Самому было интересно, нашел в википедии на англ. языке и в одной дискуссии на торрентс.ру. Pre-emphasis - насколько я понял, усиление частот по какому-то определенному алгоритму. Но суть не в том, при записи на диски, такие образы нужно как-то обрабатывать, как именно я не вникал ...
P.S. В музыкальных делах не силен, я - слушатель.
[Профиль] [ЛС]

Sadriddin.

Пол: Мужской

Стаж: 9 лет 6 месяцев

Сообщений: 12085

Создавать темы 03-Сен-2009 17:28 (спустя 2 дня 20 часов)

[Цитировать]

Mikekiller
ЖДу когда будет???
[Профиль] [ЛС]

Mikekiller ®

Пол: Мужской

Стаж: 10 лет

Сообщений: 3435

Откуда: Душанбе, 65 мкр

Создавать темы 03-Сен-2009 20:54 (спустя 3 часа)

[Цитировать]

sadriddin919
Сегодня - завтра ...
[Профиль] [ЛС]

Mikekiller ®

Пол: Мужской

Стаж: 10 лет

Сообщений: 3435

Откуда: Душанбе, 65 мкр

Создавать темы 05-Сен-2009 22:26 (спустя 2 дня 1 час)

[Цитировать]

Поехали!
[Профиль] [ЛС]

Andronix

Пол: Мужской

Стаж: 10 лет

Сообщений: 1938

Откуда: из капусты

Создавать темы 06-Сен-2009 20:19 (спустя 21 час)

[Цитировать]

Andronix
Самому было интересно, нашел в википедии на англ. языке и в одной дискуссии на торрентс.ру. Pre-emphasis - насколько я понял, усиление частот по какому-то определенному алгоритму. Но суть не в том, при записи на диски, такие образы нужно как-то обрабатывать, как именно я не вникал ...
P.S. В музыкальных делах не силен, я - слушатель.
в принципе и в общем - да, это так называемые предискажения, которые служат для улучшения сигнала в верхней части звукового диапазона. Используется в основном при FM вещании, но чтоб при мастеринге дисков :al: не знал. Самое противное, что без обратного действия (De-emphasis) звук будет сильно искажён.... кста вот источник на torrents.ru
[Профиль] [ЛС]

Mikekiller ®

Пол: Мужской

Стаж: 10 лет

Сообщений: 3435

Откуда: Душанбе, 65 мкр

Создавать темы 06-Сен-2009 20:56 (спустя 37 минут)

[Цитировать]

Andronix
И че теперь делать?
[Профиль] [ЛС]

Phantom Of Death

Пол: Мужской

Стаж: 10 лет

Сообщений: 2574

Откуда: From Hell...

Создавать темы 06-Сен-2009 21:47 (спустя 50 минут)

[Цитировать]

Mikekiller
Скачать :
Convolver 0.1.8 (foo_convolve) По эффекту работает как эквалайзер, но гораздо быстрее. Но для него необходимы специальные импульсы. Импульсы записываются специальным образом в тех местах, для каких хочется создать имитацию. Таких импульсов можно достаточно много найти в интерне, вот отсюда
И импульсы вот отсюда
[Профиль] [ЛС]

Andronix

Пол: Мужской

Стаж: 10 лет

Сообщений: 1938

Откуда: из капусты

Создавать темы 07-Сен-2009 06:19 (спустя 8 часов)

[Цитировать]

сам плагин не ставил, но у него должно быть несколько режимов работы (если только он всё автоматом не определяет) 75 и 50 us по идее для штатов =75, но нужно пробывать...
[Профиль] [ЛС]

Bahodur

Пол: Мужской

Стаж: 10 лет

Сообщений: 11592

Откуда: Ватанам СССР

Создавать темы 07-Сен-2009 08:40 (спустя 2 часа 21 минута)

[Цитировать]

Mikekiller спасибо!
[Профиль] [ЛС]
Показать сообщения:    
Ответить на тему

Текущее время: 23-Янв 09:22

Часовой пояс: UTC + 3



Вы не можете начинать темы
Вы не можете отвечать на сообщения
Вы не можете редактировать свои сообщения
Вы не можете удалять свои сообщения
Вы не можете голосовать в опросах
Вы не можете прикреплять файлы к сообщениям
Вы не можете скачивать файлы