Лоракс - Коллекция / Dr. Seuss' The Lorax (Крис Рено, Кайл Балда) [2012, мультфильм, фэнтези, семейный, полнометражный, короткометражки, BDRip 1080p, BDRemux 1080p]

Ответить на тему
 
Автор Сообщение

fadaf9 ®

Пол: Мужской

Стаж: 6 лет 9 месяцев

Сообщений: 2142

Откуда: Таджикистан

Создавать темы 31-Июл-2012 10:45

[Цитировать]

--Лоракс / Dr. Seuss' The Lorax-- Год выпуска: 2012
Страна: США
Жанр: мультфильм, фэнтези, семейный
Продолжительность: 01:26:18
Перевод: Профессиональный (полное дублирование) [Лицензия]- Режиссер: Крис Рено, Кайл Балда
В ролях: Дэнни ДеВито, Эд Хелмс, Зак Эфрон, Тейлор Свифт, Бетти Уайт, Роб Риггл, Дженни Слейт, Назим Пэдрад, Джоэл Светов, Майкл Битти- Описание:
Недалекое будущее. Стоит нажать на кнопку — и мир изменится по твоему желанию: прямо под окном вырастут горы, во дворе зашумит океан. Единственная неприятность — все вокруг сделано из пластика. Но для влюбленного нет преград. Одно желание прекрасной девушки — увидеть последнее живое дерево — и он пускается в путь. На помощь ему приходит могущественный, но слегка приставучий Лоракс.-
- рекомендуется присутствие родителей!- Качество: BDRip 1080p
Формат: MKV
Видео: AVC, 7553 kbps, 1920x1040p, 23.976 fps
Аудио№1: DTS, 5.1, 755 kbps, 6 ch, 48.0 KHz - Russian (полное дублирование) [Лицензия]
Аудио№2: DTS, 5.1, 1510 kbps, 6 ch, 48.0 KHz - English
Субтитры: English-
Знаете ли вы,что...

*Дэнни ДеВито принял участие в русской, испанской и немецкой версиях озвучивания, в которой также как и в иностранных версиях, озвучивал Лоракса.
*Герои Тед и Одри были названы в честь Доктора Сюсса (чье настоящее имя Теодор Сюсс Гейзель) и его второй жены Одри Гейзель.
*Премьера мультфильма состоялась 2 марта 2012 — в 108 день рождения Доктора Сюсса.
MediaInfo

General
Unique ID : 207573632931009271418342554125746411430 (0x9C293A3F95619105BF4B9471F31D97A6)
Format : Matroska
Format version : Version 2
File size : 5.92 GiB
Duration : 1h 26mn
Overall bit rate : 9 826 Kbps
Encoded date : UTC 2012-08-19 19:24:06
Writing application : mkvmerge v5.7.0 ('The Whirlwind') built on Jul 8 2012 20:08:51
Writing library : libebml v1.2.3 + libmatroska v1.3.0
Video #1
ID : 1
Format : AVC
Format/Info : Advanced Video Codec
Format profile : High@L4.1
Format settings, CABAC : Yes
Format settings, ReFrames : 4 frames
Muxing mode : Header stripping
Codec ID : V_MPEG4/ISO/AVC
Duration : 1h 26mn
Bit rate : 7 553 Kbps
Width : 1 920 pixels
Height : 1 040 pixels
Display aspect ratio : 1.85:1
Frame rate : 23.976 fps
Color space : YUV
Chroma subsampling : 4:2:0
Bit depth : 8 bits
Scan type : Progressive
Bits/(Pixel*Frame) : 0.158
Stream size : 4.44 GiB (75%)
Writing library : x264 core 125 r2208 d9d2288
Encoding settings : cabac=1 / ref=4 / deblock=1:0:0 / analyse=0x3:0x113 / me=umh / subme=7 / psy=1 / psy_rd=1.00:0.00 / mixed_ref=1 / me_range=16 / chroma_me=1 / trellis=1 / 8x8dct=1 / cqm=0 / deadzone=21,11 / fast_pskip=0 / chroma_qp_offset=-2 / threads=18 / lookahead_threads=3 / sliced_threads=0 / nr=0 / decimate=1 / interlaced=0 / bluray_compat=0 / constrained_intra=0 / bframes=3 / b_pyramid=2 / b_adapt=1 / b_bias=0 / direct=1 / weightb=1 / open_gop=0 / weightp=2 / keyint=250 / keyint_min=23 / scenecut=40 / intra_refresh=0 / rc_lookahead=40 / rc=2pass / mbtree=1 / bitrate=7553 / ratetol=1.0 / qcomp=0.60 / qpmin=0 / qpmax=69 / qpstep=4 / cplxblur=20.0 / qblur=0.5 / ip_ratio=1.40 / aq=1:1.00
Language : English
Default : Yes
Forced : No
Audio #2
ID : 2
Format : DTS
Format/Info : Digital Theater Systems
Muxing mode : Header stripping
Codec ID : A_DTS
Duration : 1h 26mn
Bit rate mode : Constant
Bit rate : 755 Kbps
Channel(s) : 6 channels
Channel positions : Front: L C R, Side: L R, LFE
Sampling rate : 48.0 KHz
Bit depth : 24 bits
Compression mode : Lossy
Stream size : 466 MiB (8%)
Title : RUS(DUB)
Language : Russian
Default : Yes
Forced : No
Audio #3
ID : 3
Format : DTS
Format/Info : Digital Theater Systems
Muxing mode : Header stripping
Codec ID : A_DTS
Duration : 1h 26mn
Bit rate mode : Constant
Bit rate : 1 510 Kbps
Channel(s) : 6 channels
Channel positions : Front: L C R, Side: L R, LFE
Sampling rate : 48.0 KHz
Bit depth : 24 bits
Compression mode : Lossy
Delay relative to video : 11ms
Stream size : 932 MiB (15%)
Language : English
Default : No
Forced : No
Text #4
ID : 4
Format : UTF-8
Codec ID : S_TEXT/UTF8
Codec ID/Info : UTF-8 Plain Text
Language : English
Default : No
Forced : No
Скриншоты






-- --Лоракс: Силы природы / Dr. Seuss' The Lorax: Forces of Nature-- Год выпуска: 2012
Страна: США
Жанр: мультфильм, фэнтези, семейный, короткометражка
Продолжительность: 00:02:14
Перевод: Одноголосый закадровый [-Доцент-]- Режиссер: Кайл Балда- Описание:
Мультфильм о том как Лоракс хотел сделать маленького медвежонка "Почетным Лораксом"...-
- рекомендуется присутствие родителей!- Качество: BDRemux 1080p
Формат: MKV
Видео: AVC, 14.4 Mbps, 1920x1080p, 23.976 fps
Аудио№1: AC3, 5.1, 448 kbps, 6 ch, 48.0 KHz - Russian Одноголосый закадровый [-Доцент-]
Аудио№2: AC3, 5.1, 448 kbps, 6 ch, 48.0 KHz - English
Субтитры: (Subs - Eng, Fre, Spa) английские (полные, для слабослышащих), французские (полные), испанские (полные) - (по умолчанию - выключены)-
MediaInfo

General
Unique ID : 244855802194402035077510450393416869897 (0xB835831C4878740C812A2ED592062809)
Format : Matroska
Format version : Version 2
File size : 251 MiB
Duration : 2mn 14s
Overall bit rate mode : Variable
Overall bit rate : 15.6 Mbps
Encoded date : UTC 2012-08-13 05:52:44
Writing application : mkvmerge v4.0.0 ('The Stars were mine') built on Jun 6 2010 16:18:42
Writing library : libebml v1.0.0 + libmatroska v1.0.0
Video #1
ID : 1
Format : AVC
Format/Info : Advanced Video Codec
Format profile : High@L4.1
Format settings, CABAC : Yes
Format settings, ReFrames : 4 frames
Codec ID : V_MPEG4/ISO/AVC
Duration : 2mn 14s
Bit rate mode : Variable
Bit rate : 14.4 Mbps
Maximum bit rate : 35.0 Mbps
Width : 1 920 pixels
Height : 1 080 pixels
Display aspect ratio : 16:9
Frame rate : 23.976 fps
Color space : YUV
Chroma subsampling : 4:2:0
Bit depth : 8 bits
Scan type : Progressive
Bits/(Pixel*Frame) : 0.290
Stream size : 232 MiB (92%)
Title : NTSC, 1920x1080 (16/9), BDRemux - tRuAVC & Мультфильмы [DFCbit]
Language : English
Default : Yes
Forced : No
Audio #2
ID : 2
Format : AC-3
Format/Info : Audio Coding 3
Mode extension : CM (complete main)
Format settings, Endianness : Big
Codec ID : A_AC3
Duration : 2mn 14s
Bit rate mode : Constant
Bit rate : 448 Kbps
Channel(s) : 6 channels
Channel positions : Front: L C R, Side: L R, LFE
Sampling rate : 48.0 KHz
Bit depth : 16 bits
Compression mode : Lossy
Stream size : 7.20 MiB (3%)
Title : AC3, 6 ch, 48 kHz, 448 kbps, VO [Доцент]
Language : Russian
Default : Yes
Forced : No
Audio #3
ID : 3
Format : AC-3
Format/Info : Audio Coding 3
Mode extension : CM (complete main)
Format settings, Endianness : Big
Codec ID : A_AC3
Duration : 2mn 14s
Bit rate mode : Constant
Bit rate : 448 Kbps
Channel(s) : 6 channels
Channel positions : Front: L C R, Side: L R, LFE
Sampling rate : 48.0 KHz
Bit depth : 16 bits
Compression mode : Lossy
Stream size : 7.20 MiB (3%)
Title : AC3, 6 ch, 48 kHz, 448 kbps, Original
Language : English
Default : No
Forced : No
Text #4
ID : 4
Format : UTF-8
Codec ID : S_TEXT/UTF8
Codec ID/Info : UTF-8 Plain Text
Title : SRT, Full
Language : English
Default : No
Forced : No
Text #5
ID : 5
Format : UTF-8
Codec ID : S_TEXT/UTF8
Codec ID/Info : UTF-8 Plain Text
Title : SRT, (SDH)
Language : English
Default : No
Forced : No
Text #6
ID : 6
Format : UTF-8
Codec ID : S_TEXT/UTF8
Codec ID/Info : UTF-8 Plain Text
Title : SRT, Full
Language : French
Default : No
Forced : No
Text #7
ID : 7
Format : UTF-8
Codec ID : S_TEXT/UTF8
Codec ID/Info : UTF-8 Plain Text
Title : SRT, Full
Language : Spanish
Default : No
Forced : No
Скриншоты



-- --Лоракс: Повозка Хоу! / Dr. Seuss' The Lorax: Wagon Ho!-- Год выпуска: 2012
Страна: США
Жанр: мультфильм, фэнтези, семейный, короткометражка
Продолжительность: 00:03:10
Перевод: Одноголосый закадровый [-Доцент-]- Режиссер: Кайл Балда- Описание:
Мультфильм о том как два медвежонка угнали повозку...-
- рекомендуется присутствие родителей!- Качество: BDRemux 1080p
Формат: MKV
Видео: AVC, 15.1 Mbps, 1920x1080p, 23.976 fps
Аудио№1: AC3, 5.1, 448 kbps, 6 ch, 48.0 KHz - Russian Одноголосый закадровый [-Доцент-]
Аудио№2: AC3, 5.1, 448 kbps, 6 ch, 48.0 KHz - English
Субтитры: (Subs - Eng, Fre, Spa) английские (полные, для слабослышащих), французские (полные), испанские (полные) - (по умолчанию - выключены)-
MediaInfo

General
Unique ID : 237146811605843658767523791692088679569 (0xB268D087941F35D3AD5AB1ABBE1B1C91)
Format : Matroska
Format version : Version 2
File size : 371 MiB
Duration : 3mn 10s
Overall bit rate mode : Variable
Overall bit rate : 16.3 Mbps
Encoded date : UTC 2012-08-13 06:10:14
Writing application : mkvmerge v4.0.0 ('The Stars were mine') built on Jun 6 2010 16:18:42
Writing library : libebml v1.0.0 + libmatroska v1.0.0
Video #1
ID : 1
Format : AVC
Format/Info : Advanced Video Codec
Format profile : High@L4.1
Format settings, CABAC : Yes
Format settings, ReFrames : 4 frames
Codec ID : V_MPEG4/ISO/AVC
Duration : 3mn 10s
Bit rate mode : Variable
Bit rate : 15.1 Mbps
Maximum bit rate : 35.0 Mbps
Width : 1 920 pixels
Height : 1 080 pixels
Display aspect ratio : 16:9
Frame rate : 23.976 fps
Color space : YUV
Chroma subsampling : 4:2:0
Bit depth : 8 bits
Scan type : Progressive
Bits/(Pixel*Frame) : 0.304
Stream size : 343 MiB (93%)
Title : NTSC, 1920x1080 (16/9), BDRemux - tRuAVC & Мультфильмы [DFCbit]
Language : English
Default : Yes
Forced : No
Audio #2
ID : 2
Format : AC-3
Format/Info : Audio Coding 3
Mode extension : CM (complete main)
Format settings, Endianness : Big
Codec ID : A_AC3
Duration : 3mn 10s
Bit rate mode : Constant
Bit rate : 448 Kbps
Channel(s) : 6 channels
Channel positions : Front: L C R, Side: L R, LFE
Sampling rate : 48.0 KHz
Bit depth : 16 bits
Compression mode : Lossy
Stream size : 10.2 MiB (3%)
Title : AC3, 6 ch, 48 kHz, 448 kbps, VO [Доцент]
Language : Russian
Default : Yes
Forced : No
Audio #3
ID : 3
Format : AC-3
Format/Info : Audio Coding 3
Mode extension : CM (complete main)
Format settings, Endianness : Big
Codec ID : A_AC3
Duration : 3mn 10s
Bit rate mode : Constant
Bit rate : 448 Kbps
Channel(s) : 6 channels
Channel positions : Front: L C R, Side: L R, LFE
Sampling rate : 48.0 KHz
Bit depth : 16 bits
Compression mode : Lossy
Stream size : 10.2 MiB (3%)
Title : AC3, 6 ch, 48 kHz, 448 kbps, Original
Language : English
Default : No
Forced : No
Text #4
ID : 4
Format : UTF-8
Codec ID : S_TEXT/UTF8
Codec ID/Info : UTF-8 Plain Text
Title : SRT, Full
Language : English
Default : No
Forced : No
Text #5
ID : 5
Format : UTF-8
Codec ID : S_TEXT/UTF8
Codec ID/Info : UTF-8 Plain Text
Title : SRT, (SDH)
Language : English
Default : No
Forced : No
Text #6
ID : 6
Format : UTF-8
Codec ID : S_TEXT/UTF8
Codec ID/Info : UTF-8 Plain Text
Title : SRT, Full
Language : French
Default : No
Forced : No
Text #7
ID : 7
Format : UTF-8
Codec ID : S_TEXT/UTF8
Codec ID/Info : UTF-8 Plain Text
Title : SRT, Full
Language : Spanish
Default : No
Forced : No
Скриншоты



-- --Лоракс: Серенада / Dr. Seuss' The Lorax: Serenade-- Год выпуска: 2012
Страна: США
Жанр: мультфильм, фэнтези, семейный, короткометражка
Продолжительность: 00:03:19
Перевод: не требуется- Режиссер: Кайл Балда- Описание:
Мультфильм о том как два медвежонка, демонстрируя в соперничестве свои вокальные способности, пытаются покорить сердце красавицы...-
- рекомендуется присутствие родителей!- Качество: BDRemux 1080p
Формат: MKV
Видео: AVC, 14.7 Mbps, 1920x1080p, 23.976 fps
Аудио: AC3, 5.1, 448 kbps, 6 ch, 48.0 KHz - English
Субтитры: нет-
MediaInfo

General
Unique ID : 255197144148779640818000089090254155441 (0xBFFD2EA249D2D879B9F29775697BAEB1)
Format : Matroska
Format version : Version 2
File size : 367 MiB
Duration : 3mn 19s
Overall bit rate mode : Variable
Overall bit rate : 15.5 Mbps
Encoded date : UTC 2012-08-08 18:39:28
Writing application : mkvmerge v4.0.0 ('The Stars were mine') built on Jun 6 2010 16:18:42
Writing library : libebml v1.0.0 + libmatroska v1.0.0
Video #1
ID : 1
Format : AVC
Format/Info : Advanced Video Codec
Format profile : High@L4.1
Format settings, CABAC : Yes
Format settings, ReFrames : 4 frames
Codec ID : V_MPEG4/ISO/AVC
Duration : 3mn 19s
Bit rate mode : Variable
Bit rate : 14.7 Mbps
Maximum bit rate : 35.0 Mbps
Width : 1 920 pixels
Height : 1 080 pixels
Display aspect ratio : 16:9
Frame rate : 23.976 fps
Color space : YUV
Chroma subsampling : 4:2:0
Bit depth : 8 bits
Scan type : Progressive
Bits/(Pixel*Frame) : 0.296
Stream size : 349 MiB (95%)
Title : NTSC, 1920x1080 (16/9), BDRemux - tRuAVC & Мультфильмы [DFCbit]
Language : English
Default : Yes
Forced : No
Audio #2
ID : 2
Format : AC-3
Format/Info : Audio Coding 3
Mode extension : CM (complete main)
Format settings, Endianness : Big
Codec ID : A_AC3
Duration : 3mn 19s
Bit rate mode : Constant
Bit rate : 448 Kbps
Channel(s) : 6 channels
Channel positions : Front: L C R, Side: L R, LFE
Sampling rate : 48.0 KHz
Bit depth : 16 bits
Compression mode : Lossy
Stream size : 10.6 MiB (3%)
Title : AC3, 6 ch, 48 kHz, 448 kbps, Original
Language : English
Default : Yes
Forced : No
Скриншоты





Последний раз редактировалось: fadaf9 (2015-01-04 14:06), всего редактировалось 2 раз(а)
[Профиль] [ЛС]

xodim

Пол: Мужской

Стаж: 6 лет 5 месяцев

Сообщений: 239

Создавать темы 31-Июл-2012 11:38 (спустя 53 минуты)

[Цитировать]

SCREENs are perfect!!!
[Профиль] [ЛС]

sashalilya

Пол: Мужской

Стаж: 8 лет 11 месяцев

Сообщений: 24104

Откуда: Отсюда

Создавать темы 31-Июл-2012 11:51 (спустя 12 минут)

[Цитировать]

хотя,как мне кажется,она почти не отличается от Line)?
кажется,это на пищалках компа кажется,а ты на домашнем кинотеатре включи и поймешь разницу
[Профиль] [ЛС]

fadaf9 ®

Пол: Мужской

Стаж: 6 лет 9 месяцев

Сообщений: 2142

Откуда: Таджикистан

Создавать темы 31-Июл-2012 12:30 (спустя 38 минут)

[Цитировать]

sashalilya
Надо проверить,как лицензия будет))
[Профиль] [ЛС]

House M.D.

Пол: Мужской

Стаж: 6 лет 7 месяцев

Сообщений: 175

Создавать темы 31-Июл-2012 13:30 (спустя 1 час)

[Цитировать]

Чё еще за Line? Наверно глупый вопрос, но я реально не знаю. Кто нить может объяснить?
[Профиль] [ЛС]

sashalilya

Пол: Мужской

Стаж: 8 лет 11 месяцев

Сообщений: 24104

Откуда: Отсюда

Создавать темы 31-Июл-2012 13:53 (спустя 22 минуты)

[Цитировать]

House M.D.
это не лицензионный звук с блюрея,который появляется только после выхода официального диска- Line звук пишется в кинотеатре, но не на камеру,а подключившись к аппаратуре ,то есть все равно пиратским способом
[Профиль] [ЛС]

Сухроб.

Пол: Мужской

Стаж: 7 лет 6 месяцев

Сообщений: 13953

Создавать темы 31-Июл-2012 14:36 (спустя 43 минуты)

[Цитировать]

Перевод: Профессиональный (полное дублирование) [Line]
T временно (by Сухроб. in 2012-07-31 16:35) :)
[Профиль] [ЛС]

xek.

Пол: Мужской

Стаж: 6 лет 10 месяцев

Сообщений: 4279

Откуда: SATURN

Создавать темы 31-Июл-2012 20:36 (спустя 5 часов)

[Цитировать]

Оформа *THUMBS UP*
[Профиль] [ЛС]

fadaf9 ®

Пол: Мужской

Стаж: 6 лет 9 месяцев

Сообщений: 2142

Откуда: Таджикистан

Создавать темы 31-Июл-2012 20:44 (спустя 7 минут)

[Цитировать]

xek.
Спасибо! *DRINK*
[Профиль] [ЛС]

abdushka

Пол: Мужской

Стаж: 8 лет 10 месяцев

Сообщений: 1448

Откуда: Меньше знаешь - крепче спишь!

Создавать темы 12-Авг-2012 20:27 (спустя 11 дней)

[Цитировать]

House M.D.
это не лицензионный звук с блюрея,который появляется только после выхода официального диска- Line звук пишется в кинотеатре, но не на камеру,а подключившись к аппаратуре ,то есть все равно пиратским способом
Так называемый Чистый звук?
[Профиль] [ЛС]

sashalilya

Пол: Мужской

Стаж: 8 лет 11 месяцев

Сообщений: 24104

Откуда: Отсюда

Создавать темы 12-Авг-2012 20:29 (спустя 2 минуты)

[Цитировать]

abdushka
ага
[Профиль] [ЛС]

fadaf9 ®

Пол: Мужской

Стаж: 6 лет 9 месяцев

Сообщений: 2142

Откуда: Таджикистан

Создавать темы 14-Авг-2012 07:47 (спустя 1 день 11 часов)

[Цитировать]

Эх,походу удалят мою раздачу,лицензия вышла,а обновить только 18-го смогу((
[Профиль] [ЛС]

fadaf9 ®

Пол: Мужской

Стаж: 6 лет 9 месяцев

Сообщений: 2142

Откуда: Таджикистан

Создавать темы 20-Авг-2012 00:05 (спустя 5 дней)

[Цитировать]

Раздача обновлена: Line дорожка заменена на Лицензию и добавлены три короткометражки по мультфильму (поэтому, если несложно, раздачу можно перенести сюда)
[Профиль] [ЛС]

Сухроб.

Пол: Мужской

Стаж: 7 лет 6 месяцев

Сообщений: 13953

Создавать темы 20-Авг-2012 15:11 (спустя 15 часов)

[Цитировать]

fadaf9
нет, т.к в HD формате они.
[Профиль] [ЛС]

fadaf9 ®

Пол: Мужской

Стаж: 6 лет 9 месяцев

Сообщений: 2142

Откуда: Таджикистан

Создавать темы 20-Авг-2012 15:43 (спустя 31 минута)

[Цитировать]

Сухроб.
Ну раз так,то на нет и суда нет.
[Профиль] [ЛС]

fadaf9 ®

Пол: Мужской

Стаж: 6 лет 9 месяцев

Сообщений: 2142

Откуда: Таджикистан

Создавать темы 04-Янв-2015 16:04 (спустя 2 года 4 месяца)

[Цитировать]

T временно (by sashalilya in 2015-01-04 16:17)
Из-за короткометражек?
[Профиль] [ЛС]

Boss2330

Пол: Мужской

Стаж: 9 лет 2 месяца

Сообщений: 479

Создавать темы 05-Янв-2015 08:28 (спустя 16 часов)

[Цитировать]

Loraks.1972.BDRip 1080p.mkv
а это что,
[Профиль] [ЛС]

fadaf9 ®

Пол: Мужской

Стаж: 6 лет 9 месяцев

Сообщений: 2142

Откуда: Таджикистан

Создавать темы 05-Янв-2015 09:07 (спустя 38 минут)

[Цитировать]

Ой, забыл, что этот файл тоже в этой папке, позже дополню описание.
[Профиль] [ЛС]
Показать сообщения:    
Ответить на тему

Текущее время: 19-Ноя 11:36

Часовой пояс: UTC + 3



Вы не можете начинать темы
Вы не можете отвечать на сообщения
Вы не можете редактировать свои сообщения
Вы не можете удалять свои сообщения
Вы не можете голосовать в опросах
Вы не можете прикреплять файлы к сообщениям
Вы не можете скачивать файлы