Мифы Амазонки / Mythos Amazonas (Кристиан Баумейстер (Christian Baumeister)) [2010 г., документальный, BDRip]

Ответить на тему
 
Автор Сообщение

BlackDragon ®

Пол: Мужской

Стаж: 9 лет 9 месяцев

Сообщений: 348

Откуда: Dushanbe

Создавать темы 03-Окт-2011 13:01

[Цитировать]

Мифы Амазонки / Mythos Amazonas
Год выпуска: 2010
Страна: Германия
Жанр: документальный
Продолжительность: 00:44:25, 00:44:31, 00:44:28
Перевод: Профессиональный (одноголосый)
Режиссер: Кристиан Баумейстер (Christian Baumeister)
Описание: Трех-серийный документальный фильм переносит зрителя в крупнейший тропический лес на Земле. Места опасные для человека, населенные хищными животными и ядовитыми растениями. Амазонка окутывает зрителя миром самого большого разнообразия флоры и фауны. Страх и восхищения поразило дух человека сделавшего первый шаг в эту удивительную природу. Но красота таит в себе на мало опасностей: здесь множество ядовитых растений, змей, опасных и диких животных. Три года группа исследователей вместе с кинооператорами провела в самых глухих районах реки и её окрестностей, исследую самые неизведанные уголки этого удивительного "рая на земле".
Доп. информация:
Эпизод 1 : Зеленый ад или рай?
Эпизод 2 : Торжество жизни.
Эпизод 3 : Угроза жизни.
Качество: BDRip
Формат: MKV
Видео: 1280x720 at 23.976 fps, x264@L4.1, crf, ~5000-6000 kbps avg
Аудио: Russian: 48 kHz, DTS, 3/2 (L,C,R,l,r) + LFE ch, ~1536.00 kbps avg |Одноголосый закадровый, Ю.Сербин|
Скриншоты:

MediaInfo:

General
Format : Matroska
File size : 2.88 GiB
Duration : 44mn 25s
Overall bit rate : 9 271 Kbps
Movie name : Mythos Amazonas Ep01 (2010) - Release for HDCLUB
Encoded date : UTC 2011-09-19 10:22:01
Writing application : mkvmerge v3.4.0 ('Rapunzel') built on May 15 2010 09:38:20
Writing library : libebml v0.8.0 + libmatroska v0.9.0
Video #1
ID : 1
Format : AVC
Format/Info : Advanced Video Codec
Format profile : High@L4.1
Format settings, CABAC : Yes
Format settings, ReFrames : 8 frames
Muxing mode : Container profile=Unknown@4.1
Codec ID : V_MPEG4/ISO/AVC
Duration : 44mn 25s
Bit rate : 6 067 Kbps
Width : 1 280 pixels
Height : 720 pixels
Display aspect ratio : 16:9
Frame rate : 25.000 fps
Resolution : 8 bits
Colorimetry : 4:2:0
Scan type : Progressive
Bits/(Pixel*Frame) : 0.263
Stream size : 1.88 GiB (65%)
Title : Release for HDCLUB
Writing library : x264 core 116 r2074 2641b9e
Encoding settings : cabac=1 / ref=8 / deblock=1:-3:-3 / analyse=0x3:0x133 / me=umh / subme=10 / psy=1 / psy_rd=1.00:0.00 / mixed_ref=1 / me_range=32 / chroma_me=1 / trellis=2 / 8x8dct=1 / cqm=0 / deadzone=21,11 / fast_pskip=0 / chroma_qp_offset=-2 / threads=12 / sliced_threads=0 / nr=0 / decimate=1 / interlaced=0 / bluray_compat=0 / constrained_intra=0 / bframes=8 / b_pyramid=2 / b_adapt=2 / b_bias=0 / direct=3 / weightb=0 / open_gop=0 / weightp=2 / keyint=250 / keyint_min=25 / scenecut=40 / intra_refresh=0 / rc_lookahead=60 / rc=crf / mbtree=0 / crf=18.0 / qcomp=0.60 / qpmin=10 / qpmax=51 / qpstep=4 / vbv_maxrate=50000 / vbv_bufsize=50000 / crf_max=0.0 / nal_hrd=none / ip_ratio=1.40 / pb_ratio=1.30 / aq=1:0.80
Language : English
Audio #2
ID : 2
Format : DTS
Format/Info : Digital Theater Systems
Codec ID : A_DTS
Duration : 44mn 25s
Bit rate mode : Constant
Bit rate : 1 510 Kbps
Channel(s) : 6 channels
Channel positions : Front: L C R, Surround: L R, LFE
Sampling rate : 48.0 KHz
Resolution : 16 bits
Stream size : 480 MiB (16%)
Title : DTS 1536 kbps - Îäíîãîëîñûé çàêàäðîâûé, Þ.Ñåðáèí
Language : Russian
Audio #3
ID : 3
Format : DTS
Format/Info : Digital Theater Systems
Codec ID : A_DTS
Duration : 44mn 25s
Bit rate mode : Constant
Bit rate : 1 510 Kbps
Channel(s) : 6 channels
Channel positions : Front: L C R, Surround: L R, LFE
Sampling rate : 48.0 KHz
Resolution : 16 bits
Stream size : 480 MiB (16%)
Title : DTS 1536 kbps
Language : German


Последний раз редактировалось: BlackDragon (2011-10-03 13:50), всего редактировалось 3 раз(а)
[Профиль] [ЛС]

Zloy

Пол: Мужской

Стаж: 10 лет

Сообщений: 1089

Создавать темы 03-Окт-2011 13:15 (спустя 14 минут)

[Цитировать]

BlackDragon
скриншоты не соответствуют заявленным в описании
+ выложите Mediainfo
[Профиль] [ЛС]

BlackDragon ®

Пол: Мужской

Стаж: 9 лет 9 месяцев

Сообщений: 348

Откуда: Dushanbe

Создавать темы 03-Окт-2011 13:51 (спустя 36 минут)

[Цитировать]

Сделано!
[Профиль] [ЛС]

Zloy

Пол: Мужской

Стаж: 10 лет

Сообщений: 1089

Создавать темы 03-Окт-2011 13:52 (спустя 1 минута)

[Цитировать]

Спасибо.
проверено
[Профиль] [ЛС]

Создавать темы 09-Авг-2014 04:36 (спустя 2 года 10 месяцев)

Топик был перенесен из форума Документальные в форум Архив

Zibak
 
Показать сообщения:    
Ответить на тему

Текущее время: 13-Дек 17:38

Часовой пояс: UTC + 3



Вы не можете начинать темы
Вы не можете отвечать на сообщения
Вы не можете редактировать свои сообщения
Вы не можете удалять свои сообщения
Вы не можете голосовать в опросах
Вы не можете прикреплять файлы к сообщениям
Вы не можете скачивать файлы