Филми Тоҷикӣ: Фариштаи Бебол [2016] / Таджик Фильм: Ангел без крыльев [2016]

Ответить на тему
 
Автор Сообщение

banzay ®

Пол: Мужской

Стаж: 10 лет

Сообщений: 1488

Создавать темы 18-Авг-2018 05:55

[Цитировать]

--Филми Тоҷикӣ: Фариштаи Бебол [2016] / Таджик Фильм: Ангел без крыльев [2016]- Маълумот:-Номи асосӣ: Фариштаи Бебол
Сол: 2016
Мамлакат: Тоҷикистон
Муаллифи сенария ва Режиссер: Зафар Ширинов
Бастакор: Рустам Саидмуродов
Мусиқӣ Гуруҳи Минарет
Студия: QubodFilm production-Тасвири кӯтоҳ:
Ҳаёти як аскарбачае, ки дар натиҷаи фалокат маюб шуда, дар ҳаёти худ бо духтаре во мехӯрад. Духтар ҳам аз мушкилиҳои ҳаёти худ аз зиндагӣ дилмонда мебошад. Ва дар натиҷаи ҳаракат ба худкушӣ, бо аскарбача бо номи Салим рӯ ба рӯ мешавад. Аз ҳамон дақиқа, ҳаёти ин ду ҷавони ҷабрдида, оҳиста оҳиста иваз мешавад.-Ролҳои асосӣ: Ҷайхун Насимӣ, Севара Ҳусейнова, Анис Мирзошарипов, Асланшоҳ Раҳматуллоев, Салоҳиддин Шукуров, Ҳабиб Атоев, Баҳодур Хоҷамбердиев, Пардаали Хушмуродов.-Жанр: Драма
Давомнокӣ: 01:51:10
Сифат: HD Widescreen
Видео: XviD MPEG-4 Visual 1440x1080 / 16:9
Аудио: МР3, 2 ch, 128 Кбит/с 44.1 kHz
Забон: Тоҷикӣ--Скриншотҳо- --
MediaInfo
General
Complete name : E:\Torrent\ФАРИШТАИ БЕ БОЛ\Фильм-Фариштаи Бебол.avi
Format : AVI
Format/Info : Audio Video Interleave
Format profile : OpenDML
File size : 4.99 GiB
Duration : 1 h 51 min
Overall bit rate : 6 428 kb/s
Writing application : MEncoder SVN-r33883(20110719-gcc4.5.2)
Writing library : MPlayer
Video
ID : 0
Format : MPEG-4 Visual
Format profile : Advanced Simple@L5
Format settings, BVOP : 2
Format settings, QPel : No
Format settings, GMC : No warppoints
Format settings, Matrix : Default (H.263)
Codec ID : XVID
Codec ID/Hint : XviD
Duration : 1 h 51 min
Bit rate : 6 289 kb/s
Width : 1 440 pixels
Height : 1 080 pixels
Display aspect ratio : 16:9
Original display aspect rat : 4:3
Frame rate : 29.970 (30000/1001) FPS
Original frame rate : 29.970 (29970/1000) FPS
Color space : YUV
Chroma subsampling : 4:2:0
Bit depth : 8 bits
Scan type : Progressive
Compression mode : Lossy
Bits/(Pixel*Frame) : 0.135
Stream size : 4.88 GiB (98%)
Writing library : XviD 1.2.1 (UTC 2008-12-04)
Audio
ID : 1
Format : MPEG Audio
Format version : Version 1
Format profile : Layer 3
Mode : Joint stereo
Mode extension : MS Stereo
Codec ID : 55
Codec ID/Hint : MP3
Duration : 1 h 51 min
Bit rate mode : Constant
Bit rate : 128 kb/s
Channel(s) : 2 channels
Sampling rate : 44.1 kHz
Compression mode : Lossy
Delay relative to video : 33 ms
Stream size : 102 MiB (2%)
Alignment : Aligned on interleaves
Interleave, duration : 26 ms (0.78 video frame)
Interleave, preload duratio : 522 ms
Writing library : LAME3.98.4
---
[Профиль] [ЛС]
Показать сообщения:    
Ответить на тему

Текущее время: 17-Дек 23:37

Часовой пояс: UTC + 3



Вы не можете начинать темы
Вы не можете отвечать на сообщения
Вы не можете редактировать свои сообщения
Вы не можете удалять свои сообщения
Вы не можете голосовать в опросах
Вы не можете прикреплять файлы к сообщениям
Вы не можете скачивать файлы