Госпожа Дила / Dila Hanim / Сезон: 2 / Серии: 1-6 из 27 (36-41) из 62 (Онур Тан / Onur Tan) [2013, Турция, Мелодрама, теленовелла, TVRip] VO (turok1990)

Ответить на тему
 
Автор Сообщение

Root_tj ®

Пол: Мужской

Стаж: 4 года 6 месяцев

Сообщений: 6675

Откуда: Khujand

Создавать темы 08-Июн-2017 08:19

[Цитировать]

Госпожа Дила / Dila Hanim
Год выпуска: 2013
Страна: Турция
Производство: Gold Film
Жанр: Мелодрама, теленовелла
Продолжительность: 27 х ~ 01:31:00
Перевод: любительский одноголосый закадровый (turok1990)
Субтитры: отсутствуют
Режиссёр: Онур Тан / Onur Tan
В ролях: Эркан Петеккая, Хатидже Шендиль, Энгин Сенкан, Хюлья Дарджан, Неджип Мемили, Ахмет Дюшенкаллар, Октай Гюрсой
Описание: Рыза всегда хотел стать хозяином большого завода. Реализовывать свои планы он начал с поиска места для строительства объекта, таким образом, делая первый шаг на пути к осуществлению давнишней мечты. После того, как участок был найден, стало известно, что сын владельца земли, Азер, не хочет его продавать. Начались долгие и тяжёлые переговоры, во время которых у Рызы сдали нервы и он попытался застрелить Азера, но убил его брата Исхана, подставившегося под пулю. Вдова покойного, Дила, была потрясена случившимся и пообещала, что найдёт виновного и отомстит ему. Однако пути господни неисповедимы и судьба преподносит женщине ещё один «сюрприз». Спустя некоторое время Дила встречает Рызу, но она не подозревает, что это именно он является убийцей её мужа. Женщину охватывают пылкие чувства. Однако, как известно, всё тайное, рано или поздно, становится явным, и правда всплывает наружу. Как поступит главная героиня сериала? Достаточно ли сильны её чувства, чтобы простить обиду и начать новую жизнь? Любовь или месть?
Доп. информация: 2 сезон 36-62 серия в турецкой нумерации, 71-124 серия в казахской нумерации.
Сэмпл: http://multi-up.com/932388
Качество: TVRip
Формат: AVI
Видео кодек: XviD
Аудио кодек: MP3
Видео: ~1250 kbps, 720x576
Аудио: 44.100 kHz, ~192.00 kbps avg
MI
Полное имя : D:\Видео\Dila Hanim 2.Dla Hanim_turok1990.avi
Формат : AVI
Формат/Информация : Audio Video Interleave
Размер файла : 957 Мбайт
Продолжительность : 1 ч. 31 м.
Общий поток : 1457 Кбит/сек
Программа кодирования : Lavf53.18.0
Видео
Идентификатор : 0
Формат : xvid
Идентификатор кодека : xvid
Продолжительность : 1 ч. 31 м.
Битрейт : 1251 Кбит/сек
Ширина : 720 пикселей
Высота : 576 пикселей
Соотношение сторон : 5:4
Частота кадров : 29,970 кадров/сек
Стандарт вещания : PAL
Бит/(Пиксели*Кадры) : 0.101
Размер потока : 822 Мбайт (86%)
Аудио
Идентификатор : 1
Формат : MPEG Audio
Версия формата : Version 1
Профиль формата : Layer 3
Режим : Joint stereo
Расширение режима : MS Stereo
Идентификатор кодека : 55
Идентификатор кодека/Подсказка : MP3
Продолжительность : 1 ч. 31 м.
Вид битрейта : Постоянный
Битрейт : 192 Кбит/сек
Каналы : 2 канала
Частота : 44,1 КГц
Метод сжатия : С потерями
Размер потока : 126 Мбайт (13%)
Выравнивание : Соединение по промежуткам
Продолжительность промежутка : 26 мс. (0,78 видеокадр)
Общее
Полное имя : D:\Видео\Dila Hanim 2.Dla Hanim_turok1990.avi
Формат : AVI
Формат/Информация : Audio Video Interleave
Профиль формата : OpenDML
Размер файла : 1,16 Гбайт
Продолжительность : 1 ч. 44 м.
Общий поток : 1585 Кбит/сек
Программа кодирования : Lavf53.18.0
Видео
Идентификатор : 0
Формат : xvid
Идентификатор кодека : xvid
Продолжительность : 1 ч. 44 м.
Битрейт : 1376 Кбит/сек
Ширина : 720 пикселей
Высота : 576 пикселей
Соотношение сторон : 5:4
Частота кадров : 29,970 кадров/сек
Стандарт вещания : PAL
Бит/(Пиксели*Кадры) : 0.111
Размер потока : 1,01 Гбайт (87%)
Аудио
Идентификатор : 1
Формат : MPEG Audio
Версия формата : Version 1
Профиль формата : Layer 3
Режим : Joint stereo
Расширение режима : MS Stereo
Идентификатор кодека : 55
Идентификатор кодека/Подсказка : MP3
Продолжительность : 1 ч. 44 м.
Вид битрейта : Постоянный
Битрейт : 192 Кбит/сек
Каналы : 2 канала
Частота : 44,1 КГц
Метод сжатия : С потерями
Размер потока : 144 Мбайт (12%)
Выравнивание : Соединение по промежуткам
Продолжительность промежутка : 26 мс. (0,78 видеокадр)
Время предзагрузки промежутка : 52 мс.
Общее
Полное имя : D:\Видео\Dila Hanim 2.Dla Hanim_turok1990.avi
Формат : AVI
Формат/Информация : Audio Video Interleave
Профиль формата : OpenDML
Размер файла : 1,20 Гбайт
Продолжительность : 1 ч. 40 м.
Общий поток : 1708 Кбит/сек
Программа кодирования : Lavf53.18.0
Видео
Идентификатор : 0
Формат : xvid
Идентификатор кодека : xvid
Продолжительность : 1 ч. 40 м.
Битрейт : 1499 Кбит/сек
Ширина : 720 пикселей
Высота : 576 пикселей
Соотношение сторон : 5:4
Частота кадров : 29,970 кадров/сек
Стандарт вещания : PAL
Бит/(Пиксели*Кадры) : 0.121
Размер потока : 1,06 Гбайт (88%)
Аудио
Идентификатор : 1
Формат : MPEG Audio
Версия формата : Version 1
Профиль формата : Layer 3
Режим : Joint stereo
Расширение режима : MS Stereo
Идентификатор кодека : 55
Идентификатор кодека/Подсказка : MP3
Продолжительность : 1 ч. 40 м.
Вид битрейта : Постоянный
Битрейт : 192 Кбит/сек
Каналы : 2 канала
Частота : 44,1 КГц
Метод сжатия : С потерями
Размер потока : 139 Мбайт (11%)
Выравнивание : Соединение по промежуткам
Продолжительность промежутка : 26 мс. (0,78 видеокадр)
Время предзагрузки промежутка : 52 мс.
Библиотека кодирования : LAME3.99.5
Общее
Полное имя : D:\Видео\Dila Hanim 2.Dla Hanim_turok1990.avi
Формат : AVI
Формат/Информация : Audio Video Interleave
Профиль формата : OpenDML
Размер файла : 1,09 Гбайт
Продолжительность : 1 ч. 29 м.
Общий поток : 1754 Кбит/сек
Программа кодирования : Lavf53.18.0
Видео
Идентификатор : 0
Формат : xvid
Идентификатор кодека : xvid
Продолжительность : 1 ч. 29 м.
Битрейт : 1545 Кбит/сек
Ширина : 720 пикселей
Высота : 576 пикселей
Соотношение сторон : 5:4
Частота кадров : 29,970 кадров/сек
Стандарт вещания : PAL
Бит/(Пиксели*Кадры) : 0.124
Размер потока : 985 Мбайт (88%)
Аудио
Идентификатор : 1
Формат : MPEG Audio
Версия формата : Version 1
Профиль формата : Layer 3
Режим : Joint stereo
Расширение режима : MS Stereo
Идентификатор кодека : 55
Идентификатор кодека/Подсказка : MP3
Продолжительность : 1 ч. 29 м.
Вид битрейта : Постоянный
Битрейт : 192 Кбит/сек
Каналы : 2 канала
Частота : 44,1 КГц
Метод сжатия : С потерями
Размер потока : 122 Мбайт (11%)
Выравнивание : Соединение по промежуткам
Продолжительность промежутка : 26 мс. (0,78 видеокадр)
Время предзагрузки промежутка : 52 мс.
Библиотека кодирования : LAME3.99.5
Общее
Полное имя : D:\Видео\Dila Hanim 2.Dla Hanim_turok1990.avi
Формат : AVI
Формат/Информация : Audio Video Interleave
Размер файла : 997 Мбайт
Продолжительность : 1 ч. 39 м.
Общий поток : 1405 Кбит/сек
Программа кодирования : Lavf53.18.0
Видео
Идентификатор : 0
Формат : xvid
Идентификатор кодека : xvid
Продолжительность : 1 ч. 39 м.
Битрейт : 1200 Кбит/сек
Ширина : 720 пикселей
Высота : 576 пикселей
Соотношение сторон : 5:4
Частота кадров : 29,970 кадров/сек
Стандарт вещания : PAL
Бит/(Пиксели*Кадры) : 0.097
Размер потока : 852 Мбайт (85%)
Аудио
Идентификатор : 1
Формат : MPEG Audio
Версия формата : Version 1
Профиль формата : Layer 3
Режим : Joint stereo
Расширение режима : MS Stereo
Идентификатор кодека : 55
Идентификатор кодека/Подсказка : MP3
Продолжительность : 1 ч. 39 м.
Вид битрейта : Постоянный
Битрейт : 192 Кбит/сек
Каналы : 2 канала
Частота : 44,1 КГц
Метод сжатия : С потерями
Размер потока : 136 Мбайт (14%)
Выравнивание : Соединение по промежуткам
Продолжительность промежутка : 26 мс. (0,78 видеокадр)
Время предзагрузки промежутка : 52 мс.
Библиотека кодирования : LAME3.99.5
Общее
Полное имя : D:\Видео\Dila Hanim 2.Dla Hanim_turok1990.avi
Формат : AVI
Формат/Информация : Audio Video Interleave
Профиль формата : OpenDML
Размер файла : 1,10 Гбайт
Продолжительность : 1 ч. 51 м.
Общий поток : 1409 Кбит/сек
Программа кодирования : Lavf53.18.0
Видео
Идентификатор : 0
Формат : xvid
Идентификатор кодека : xvid
Продолжительность : 1 ч. 51 м.
Битрейт : 1200 Кбит/сек
Ширина : 720 пикселей
Высота : 576 пикселей
Соотношение сторон : 5:4
Частота кадров : 29,970 кадров/сек
Стандарт вещания : PAL
Бит/(Пиксели*Кадры) : 0.097
Размер потока : 956 Мбайт (85%)
Аудио
Идентификатор : 1
Формат : MPEG Audio
Версия формата : Version 1
Профиль формата : Layer 3
Режим : Joint stereo
Расширение режима : MS Stereo
Идентификатор кодека : 55
Идентификатор кодека/Подсказка : MP3
Продолжительность : 1 ч. 51 м.
Вид битрейта : Постоянный
Битрейт : 192 Кбит/сек
Каналы : 2 канала
Частота : 44,1 КГц
Метод сжатия : С потерями
Размер потока : 153 Мбайт (14%)
Выравнивание : Соединение по промежуткам
Продолжительность промежутка : 26 мс. (0,78 видеокадр)
Время предзагрузки промежутка : 52 мс.
Библиотека кодирования : LAME3.99.5
Общее
Полное имя : D:\Видео\Dila Hanim 2.Dla Hanim_turok1990.avi
Формат : AVI
Формат/Информация : Audio Video Interleave
Профиль формата : OpenDML
Размер файла : 1,03 Гбайт
Продолжительность : 1 ч. 43 м.
Общий поток : 1420 Кбит/сек
Программа кодирования : Lavf53.18.0
Видео
Идентификатор : 0
Формат : xvid
Идентификатор кодека : xvid
Продолжительность : 1 ч. 43 м.
Битрейт : 1210 Кбит/сек
Ширина : 720 пикселей
Высота : 544 пикселя
Соотношение сторон : 4:3
Частота кадров : 29,970 кадров/сек
Бит/(Пиксели*Кадры) : 0.103
Размер потока : 899 Мбайт (85%)
Аудио
Идентификатор : 1
Формат : MPEG Audio
Версия формата : Version 1
Профиль формата : Layer 3
Режим : Joint stereo
Расширение режима : MS Stereo
Идентификатор кодека : 55
Идентификатор кодека/Подсказка : MP3
Продолжительность : 1 ч. 43 м.
Вид битрейта : Постоянный
Битрейт : 192 Кбит/сек
Каналы : 2 канала
Частота : 44,1 КГц
Метод сжатия : С потерями
Размер потока : 143 Мбайт (14%)
Выравнивание : Соединение по промежуткам
Продолжительность промежутка : 26 мс. (0,78 видеокадр)
Общее
Полное имя : D:\Видео\Dila Hanim 2.Dla Hanim_turok1990.avi
Формат : AVI
Формат/Информация : Audio Video Interleave
Профиль формата : OpenDML
Размер файла : 1,19 Гбайт
Продолжительность : 1 ч. 56 м.
Общий поток : 1458 Кбит/сек
Программа кодирования : Lavf53.18.0
Видео
Идентификатор : 0
Формат : xvid
Идентификатор кодека : xvid
Продолжительность : 1 ч. 56 м.
Битрейт : 1250 Кбит/сек
Ширина : 720 пикселей
Высота : 544 пикселя
Соотношение сторон : 4:3
Частота кадров : 29,970 кадров/сек
Бит/(Пиксели*Кадры) : 0.106
Размер потока : 1,02 Гбайт (86%)
Аудио
Идентификатор : 1
Формат : MPEG Audio
Версия формата : Version 1
Профиль формата : Layer 3
Режим : Joint stereo
Расширение режима : MS Stereo
Идентификатор кодека : 55
Идентификатор кодека/Подсказка : MP3
Продолжительность : 1 ч. 56 м.
Вид битрейта : Постоянный
Битрейт : 192 Кбит/сек
Каналы : 2 канала
Частота : 44,1 КГц
Метод сжатия : С потерями
Размер потока : 160 Мбайт (13%)
Выравнивание : Соединение по промежуткам
Продолжительность промежутка : 26 мс. (0,78 видеокадр)
Время предзагрузки промежутка : 52 мс.
Общее
Полное имя : D:\Видео\Dila Hanim 2.Dla Hanim_turok1990.avi
Формат : AVI
Формат/Информация : Audio Video Interleave
Профиль формата : OpenDML
Размер файла : 1,17 Гбайт
Продолжительность : 1 ч. 50 м.
Общий поток : 1506 Кбит/сек
Программа кодирования : Lavf53.18.0
Видео
Идентификатор : 0
Формат : xvid
Идентификатор кодека : xvid
Продолжительность : 1 ч. 50 м.
Битрейт : 1297 Кбит/сек
Ширина : 720 пикселей
Высота : 544 пикселя
Соотношение сторон : 4:3
Частота кадров : 29,970 кадров/сек
Бит/(Пиксели*Кадры) : 0.111
Размер потока : 1,01 Гбайт (86%)
Аудио
Идентификатор : 1
Формат : MPEG Audio
Версия формата : Version 1
Профиль формата : Layer 3
Режим : Joint stereo
Расширение режима : MS Stereo
Идентификатор кодека : 55
Идентификатор кодека/Подсказка : MP3
Продолжительность : 1 ч. 50 м.
Вид битрейта : Постоянный
Битрейт : 192 Кбит/сек
Каналы : 2 канала
Частота : 44,1 КГц
Метод сжатия : С потерями
Размер потока : 152 Мбайт (13%)
Выравнивание : Соединение по промежуткам
Продолжительность промежутка : 26 мс. (0,78 видеокадр)
Время предзагрузки промежутка : 52 мс.
Библиотека кодирования : LAME3.99.5
Общее
Полное имя : D:\Видео\Dila Hanim 2.Dla Hanim_turok1990.avi
Формат : AVI
Формат/Информация : Audio Video Interleave
Профиль формата : OpenDML
Размер файла : 1,30 Гбайт
Продолжительность : 1 ч. 49 м.
Общий поток : 1705 Кбит/сек
Программа кодирования : Lavf53.18.0
Видео
Идентификатор : 0
Формат : xvid
Идентификатор кодека : xvid
Продолжительность : 1 ч. 49 м.
Битрейт : 1497 Кбит/сек
Ширина : 720 пикселей
Высота : 544 пикселя
Соотношение сторон : 4:3
Частота кадров : 29,970 кадров/сек
Бит/(Пиксели*Кадры) : 0.128
Размер потока : 1,14 Гбайт (88%)
Аудио
Идентификатор : 1
Формат : MPEG Audio
Версия формата : Version 1
Профиль формата : Layer 3
Режим : Joint stereo
Расширение режима : MS Stereo
Идентификатор кодека : 55
Идентификатор кодека/Подсказка : MP3
Продолжительность : 1 ч. 49 м.
Вид битрейта : Постоянный
Битрейт : 192 Кбит/сек
Каналы : 2 канала
Частота : 44,1 КГц
Метод сжатия : С потерями
Размер потока : 150 Мбайт (11%)
Выравнивание : Соединение по промежуткам
Продолжительность промежутка : 26 мс. (0,78 видеокадр)
Время предзагрузки промежутка : 52 мс.
Библиотека кодирования : LAME3.99.5
Общее
Полное имя : D:\Видео\Dila Hanim 2.Dla Hanim_turok1990.avi
Формат : AVI
Формат/Информация : Audio Video Interleave
Профиль формата : OpenDML
Размер файла : 1,03 Гбайт
Продолжительность : 1 ч. 41 м.
Общий поток : 1459 Кбит/сек
Программа кодирования : Lavf53.18.0
Видео
Идентификатор : 0
Формат : xvid
Идентификатор кодека : xvid
Продолжительность : 1 ч. 41 м.
Битрейт : 1249 Кбит/сек
Ширина : 720 пикселей
Высота : 544 пикселя
Соотношение сторон : 4:3
Частота кадров : 29,970 кадров/сек
Бит/(Пиксели*Кадры) : 0.106
Размер потока : 904 Мбайт (86%)
Аудио
Идентификатор : 1
Формат : MPEG Audio
Версия формата : Version 1
Профиль формата : Layer 3
Режим : Joint stereo
Расширение режима : MS Stereo
Идентификатор кодека : 55
Идентификатор кодека/Подсказка : MP3
Продолжительность : 1 ч. 41 м.
Вид битрейта : Постоянный
Битрейт : 192 Кбит/сек
Каналы : 2 канала
Частота : 44,1 КГц
Метод сжатия : С потерями
Размер потока : 139 Мбайт (13%)
Выравнивание : Соединение по промежуткам
Продолжительность промежутка : 26 мс. (0,78 видеокадр)
Время предзагрузки промежутка : 52 мс.
Библиотека кодирования : LAME3.99.5
Общее
Полное имя : D:\Видео\Dila Hanim 2.Dla Hanim_turok1990.avi
Формат : AVI
Формат/Информация : Audio Video Interleave
Профиль формата : OpenDML
Размер файла : 1,07 Гбайт
Продолжительность : 1 ч. 45 м.
Общий поток : 1460 Кбит/сек
Программа кодирования : Lavf53.18.0
Видео
Идентификатор : 0
Формат : xvid
Идентификатор кодека : xvid
Продолжительность : 1 ч. 45 м.
Битрейт : 1251 Кбит/сек
Ширина : 720 пикселей
Высота : 544 пикселя
Соотношение сторон : 4:3
Частота кадров : 29,970 кадров/сек
Бит/(Пиксели*Кадры) : 0.107
Размер потока : 941 Мбайт (86%)
Аудио
Идентификатор : 1
Формат : MPEG Audio
Версия формата : Version 1
Профиль формата : Layer 3
Режим : Joint stereo
Расширение режима : MS Stereo
Идентификатор кодека : 55
Идентификатор кодека/Подсказка : MP3
Продолжительность : 1 ч. 45 м.
Вид битрейта : Постоянный
Битрейт : 192 Кбит/сек
Каналы : 2 канала
Частота : 44,1 КГц
Метод сжатия : С потерями
Размер потока : 144 Мбайт (13%)
Выравнивание : Соединение по промежуткам
Продолжительность промежутка : 26 мс. (0,78 видеокадр)
Библиотека кодирования : LAME3.99.5
Общее
Полное имя : D:\Видео\Dila Hanim 2.Dla Hanim_turok1990.avi
Формат : AVI
Формат/Информация : Audio Video Interleave
Профиль формата : OpenDML
Размер файла : 1,25 Гбайт
Продолжительность : 1 ч. 59 м.
Общий поток : 1500 Кбит/сек
Программа кодирования : Lavf53.18.0
Видео
Идентификатор : 0
Формат : xvid
Идентификатор кодека : xvid
Продолжительность : 1 ч. 59 м.
Битрейт : 1292 Кбит/сек
Ширина : 720 пикселей
Высота : 544 пикселя
Соотношение сторон : 4:3
Частота кадров : 29,970 кадров/сек
Бит/(Пиксели*Кадры) : 0.110
Размер потока : 1,08 Гбайт (86%)
Аудио
Идентификатор : 1
Формат : MPEG Audio
Версия формата : Version 1
Профиль формата : Layer 3
Режим : Joint stereo
Расширение режима : MS Stereo
Идентификатор кодека : 55
Идентификатор кодека/Подсказка : MP3
Продолжительность : 1 ч. 59 м.
Вид битрейта : Постоянный
Битрейт : 192 Кбит/сек
Каналы : 2 канала
Частота : 44,1 КГц
Метод сжатия : С потерями
Размер потока : 164 Мбайт (13%)
Выравнивание : Соединение по промежуткам
Продолжительность промежутка : 26 мс. (0,78 видеокадр)
Общее
Полное имя : D:\Видео\Dila Hanim 2.Dla Hanim_turok1990.avi
Формат : AVI
Формат/Информация : Audio Video Interleave
Размер файла : 1,56 Гбайт
Продолжительность : 1 ч. 59 м.
Общий поток : 1879 Кбит/сек
Программа кодирования : Lavf53.18.0
Библиотека кодирования : VirtualDub build 35491/release
Видео
Идентификатор : 0
Формат : MPEG-4 Visual
Профиль формата : Advanced Simple@L5
Параметр BVOP формата : 2
Параметр QPel формата : Нет
Параметр GMC формата : Без точки перехода
Параметр матрицы формата : Default (H.263)
Режим смешивания : Сжатый битовый поток
Идентификатор кодека : XVID
Идентификатор кодека/Подсказка : XviD
Продолжительность : 1 ч. 59 м.
Битрейт : 1675 Кбит/сек
Ширина : 720 пикселей
Высота : 400 пикселей
Соотношение сторон : 16:9
Частота кадров : 29,970 кадров/сек
Цветовое пространство : YUV
Субдискретизация насыщенности : 4:2:0
Битовая глубина : 8 бит
Тип развёртки : Прогрессивная
Метод сжатия : С потерями
Бит/(Пиксели*Кадры) : 0.194
Размер потока : 1,39 Гбайт (89%)
Библиотека кодирования : XviD 73
Аудио
Идентификатор : 1
Формат : MPEG Audio
Версия формата : Version 1
Профиль формата : Layer 3
Режим : Joint stereo
Расширение режима : MS Stereo
Идентификатор кодека : 55
Идентификатор кодека/Подсказка : MP3
Продолжительность : 1 ч. 59 м.
Вид битрейта : Постоянный
Битрейт : 192 Кбит/сек
Каналы : 2 канала
Частота : 44,1 КГц
Метод сжатия : С потерями
Размер потока : 164 Мбайт (10%)
Выравнивание : Разделение по промежуткам
Продолжительность промежутка : 33 мс. (1,00 видеокадр)
Время предзагрузки промежутка : 500 мс.
Библиотека кодирования : LAME3.99.5
Скриншоты
[Профиль] [ЛС]

Root_tj ®

Пол: Мужской

Стаж: 4 года 6 месяцев

Сообщений: 6675

Откуда: Khujand

Создавать темы 08-Июн-2017 08:19 (спустя 58 секунд)

[Цитировать]

Готово!!!
[Профиль] [ЛС]

Root_tj ®

Пол: Мужской

Стаж: 4 года 6 месяцев

Сообщений: 6675

Откуда: Khujand

Создавать темы 09-Июн-2017 09:33 (спустя 1 день 1 час)

[Цитировать]

Добрый день, если случайно закачка не идет сделайте следующее, добавьте на свой торренте пиров, следующие адреса
добавить пиров и писать 10.154.180.228:11099
вот ссылка, по подробнее
скрытый текст
[Профиль] [ЛС]

Root_tj ®

Пол: Мужской

Стаж: 4 года 6 месяцев

Сообщений: 6675

Откуда: Khujand

Создавать темы 17-Июн-2017 19:20 (спустя 8 дней)

[Цитировать]

кто заказывал качали или как?
[Профиль] [ЛС]
Показать сообщения:    
Ответить на тему

Текущее время: 11-Дек 11:10

Часовой пояс: UTC + 3



Вы не можете начинать темы
Вы не можете отвечать на сообщения
Вы не можете редактировать свои сообщения
Вы не можете удалять свои сообщения
Вы не можете голосовать в опросах
Вы не можете прикреплять файлы к сообщениям
Вы не можете скачивать файлы