Хоббит: Битва пяти воинств / The Hobbit: The Battle of the Five Armies (Питер Джексон) [2014 г., Фэнтези, Приключения,​ BDRip 720p от Leonardo and Scarabey] iTunes

Ответить на тему
 
Автор Сообщение

DJ-ehson. ®

Пол: Мужской

Стаж: 5 лет 9 месяцев

Сообщений: 294

Откуда: Душанбе

Создавать темы 10-Мар-2015 17:21

[Цитировать]

- -Год выпуска: 2014
Страна: Новая Зеландия, США
Жанр: Фэнтези, Приключения
Продолжительность: 02:24:17
Перевод: Профессиональный (дублированный) Blu-ray CEE
Субтитры: Russian (Forced, iTunes), Russian (iTunes), Ukrainian (Forced, iTunes), English, English (SDH)-Режиссер: Питер Джексон-В ролях: Мартин Фриман, Иэн МакКеллен, Ричард Армитедж, Джеймс Несбитт, Кен Стотт, Грэм МакТавиш, Уильям Кирчер, Стивен Хантер, Дин О’Горман, Эйдан Тёрнер.-Описание: Когда отряд из тринадцати гномов нанимал хоббита Бильбо Бэгинса в качестве взломщика и четырнадцатого, «счастливого», участника похода к Одинокой горе, Бильбо полагал, что его приключения закончатся, когда он выполнит свою задачу — найдет сокровище, которое так необходимо предводителю гномов Торину. Путешествие в Эребор, захваченное драконом Смаугом королевство гномов, оказалось еще более опасным, чем предполагали гномы и даже Гэндальф — мудрый волшебник, протянувший Торину и его отряду руку помощи.
В погоню за гномами устремилась армия орков, ведомых пробудившимся в руинах древним злом, а эльфы и люди, с которыми Бильбо и его товарищам пришлось иметь дело во время путешествия и которые пострадали от последствий желания гномов вернуть свой дом, предъявили права на щедрое вознаграждение — часть сокровищ Одинокой горы. Скоро неподалеку от Одинокой горы встретятся пять армий, и лишь кровопролитная битва определит результаты смелого гномьего похода.-
Бюджет: $250 000 000
Сборы в США: $254 456 608
Сборы в мире: + $700 000 000 = $954 456 608
Сборы в России: $30 917 224
Премьера (мир): 1 декабря 2014
Премьера (РФ): 11 декабря 2014, «Каро-Премьер»3D
Релиз на DVD: 17 апреля 2015,«CP Дистрибуция», «Lizard Cinema Trade»,
Релиз на Blu-Ray: 17 апреля 2015,«CP Дистрибуция»,-Качество: BDRip 1080p
Формат: MKV
Источник: The.Hobbit.The.Battle.of.the.Five.Armies.2014.COMPLETE.BLURAY-LAZERS
Видео: 1920x800 at 23.976 fps, x264, crf, ~13774 kbps avg
Aудио#1: Russian: 48 kHz, AC3, 3/2 (L,C,R,l,r) + LFE ch, ~448.00 kbps avg |Дубляж, Blu-ray CEE|
Aудио#2: Ukrainian: 48 kHz, AC3, 3/2 (L,C,R,l,r) + LFE ch, ~448.00 kbps avg |Дубляж, Blu-ray CEE|
Aудио#3: English: 48 kHz, DTS, 3/2 (L,C,R,l,r) + LFE ch, ~1536.00 kbps avg-
MediaInfo:
General
Unique ID : 253041020146684604599193354146340265184 (0xBE5DED83601996889E9B7725C0F1DCE0)
Complete name : The.Hobbit.The.Battle.of.the .Five.Armies.2014.1080p.BluRay.Rus.Ukr.Eng.HDCLUB.mkv
Format : Matroska
Format version : Version 2
File size : 16.3 GiB
Duration : 2h 24mn
Overall bit rate : 16.2 Mbps
Movie name : The Hobbit: The Battle of the Five Armies (2014) - Release for HDCLUB
Encoded date : UTC 2015-03-21 09:42:10
Writing application : mkvmerge v3.4.0 ('Rapunzel') built on May 15 2010 09:38:20
Writing library : libebml v0.8.0 + libmatroska v0.9.0
Attachment : Yes / Yes
Video
ID : 1
Format : AVC
Format/Info : Advanced Video Codec
Format profile : High@L4.1
Format settings, CABAC : Yes
Format settings, ReFrames : 5 frames
Codec ID : V_MPEG4/ISO/AVC
Duration : 2h 24mn
Bit rate : 13.5 Mbps
Width : 1 920 pixels
Height : 800 pixels
Display aspect ratio : 2.40:1
Frame rate mode : Constant
Frame rate : 23.976 fps
Color space : YUV
Chroma subsampling : 4:2:0
Bit depth : 8 bits
Scan type : Progressive
Bits/(Pixel*Frame) : 0.365
Stream size : 13.6 GiB (83%)
Title : The Hobbit: The Battle of the Five Armies (2014) - Release for HDCLUB
Writing library : x264 core 144 r2525kMod 40bb568
Encoding settings : cabac=1 / ref=5 / deblock=1:-2:-2 / analyse=0x3:0x133 / me=umh / subme=11 / psy=1 / fade_compensate=0.00 / psy_rd=1.00:0.00 / mixed_ref=1 / me_range=32 / chroma_me=1 / trellis=2 / 8x8dct=1 / cqm=0 / deadzone=21,11 / fast_pskip=1 / chroma_qp_offset=-2 / threads=12 / lookahead_threads=2 / sliced_threads=0 / nr=0 / decimate=1 / interlaced=0 / bluray_compat=0 / constrained_intra=0 / fgo=0 / bframes=8 / b_pyramid=2 / b_adapt=2 / b_bias=0 / direct=1 / weightb=1 / open_gop=0 / weightp=2 / keyint=250 / keyint_min=23 / scenecut=40 / intra_refresh=0 / rc_lookahead=60 / rc=crf / mbtree=0 / crf=14.5000 / qcomp=0.70 / qpmin=0 / qpmax=69 / qpstep=4 / vbv_maxrate=62500 / vbv_bufsize=78125 / crf_max=0.0 / nal_hrd=none / filler=0 / ip_ratio=1.40 / pb_ratio=1.30 / aq=1:0.80
Language : English
Default : Yes
Forced : No
Color primaries : BT.709
Transfer characteristics : BT.709
Matrix coefficients : BT.709
Audio #1
ID : 2
Format : AC-3
Format/Info : Audio Coding 3
Mode extension : CM (complete main)
Format settings, Endianness : Big
Codec ID : A_AC3
Duration : 2h 24mn
Bit rate mode : Constant
Bit rate : 448 Kbps
Channel(s) : 6 channels
Channel positions : Front: L C R, Side: L R, LFE
Sampling rate : 48.0 KHz
Bit depth : 16 bits
Compression mode : Lossy
Stream size : 463 MiB (3%)
Title : AC3 5.1 @ 448 kbps - DUB, Blu-ray CEE
Language : Russian
Default : Yes
Forced : No
Audio #2
ID : 3
Format : AC-3
Format/Info : Audio Coding 3
Mode extension : CM (complete main)
Format settings, Endianness : Big
Codec ID : A_AC3
Duration : 2h 24mn
Bit rate mode : Constant
Bit rate : 448 Kbps
Channel(s) : 6 channels
Channel positions : Front: L C R, Side: L R, LFE
Sampling rate : 48.0 KHz
Bit depth : 16 bits
Compression mode : Lossy
Stream size : 463 MiB (3%)
Title : AC3 5.1 @ 448 kbps - DUB, Blu-ray CEE
Language : Ukrainian
Default : No
Forced : No
Audio #3
ID : 4
Format : DTS
Format/Info : Digital Theater Systems
Mode : 16
Format settings, Endianness : Big
Codec ID : A_DTS
Duration : 2h 24mn
Bit rate mode : Constant
Bit rate : 1 509 Kbps
Channel(s) : 6 channels
Channel positions : Front: L C R, Side: L R, LFE
Sampling rate : 48.0 KHz
Bit depth : 24 bits
Compression mode : Lossy
Delay relative to video : 11ms
Stream size : 1.52 GiB (9%)
Title : DTS 5.1 @ 1536 kbps
Language : English
Default : No
Forced : No
Text #1
ID : 5
Format : UTF-8
Codec ID : S_TEXT/UTF8
Codec ID/Info : UTF-8 Plain Text
Title : Forced
Language : Russian
Default : Yes
Forced : No
Text #2
ID : 6
Format : UTF-8
Codec ID : S_TEXT/UTF8
Codec ID/Info : UTF-8 Plain Text
Language : Russian
Default : No
Forced : No
Text #3
ID : 7
Format : UTF-8
Codec ID : S_TEXT/UTF8
Codec ID/Info : UTF-8 Plain Text
Title : Forced
Language : Ukrainian
Default : No
Forced : No
Text #4
ID : 8
Format : UTF-8
Codec ID : S_TEXT/UTF8
Codec ID/Info : UTF-8 Plain Text
Language : English
Default : No
Forced : No
Text #5
ID : 9
Format : UTF-8
Codec ID : S_TEXT/UTF8
Codec ID/Info : UTF-8 Plain Text
Title : SDH
Language : English
Default : No
Forced : No
Menu
00:00:00.000 : en:Fire and Water
00:05:12.395 : en:Bard the Dragon-Slayer
00:12:26.287 : en:Dungeons of the Dark Lord
00:12:58.527 : en:Shores of the Long Lake
00:18:36.657 : en:Not at Home
00:23:21.399 : en:"Others Will Now Look to the Mountain"
00:24:35.390 : en:Legions of the Defiler
00:25:43.625 : en:The Mark of Gundabad
00:27:12.255 : en:Attack on Dol Guldur
00:34:30.109 : en:The King's Jewel
00:38:27.722 : en:The Ruins of Dale
00:39:46.967 : en:Erebor Fortified
00:40:57.580 : en:The Elvenking's Aid
00:43:54.506 : en:The Gathering of the Clouds
00:49:06.026 : en:A Token of Friendship
00:52:36.319 : en:The Shadow of Gundabad
00:53:53.188 : en:"The Last Move in a Master Plan"
00:56:09.657 : en:Bolg of the North
00:58:04.731 : en:A Thief in the Night
01:01:57.964 : en:An Honest Burglar
01:07:13.696 : en:Dain Ironfoot
01:10:00.446 : en:The Clouds Burst
01:12:29.887 : en:The Battle at Dale
01:16:51.523 : en:The Darkest Hour
01:20:05.926 : en:Dragon Sickness
01:22:15.347 : en:The Return of Thorin Oakenshield
01:24:25.226 : en:Sons of Durin
01:26:35.899 : en:"To the King!"
01:29:18.895 : en:Thorin's Plan
01:31:17.388 : en:The Fifth Army
01:32:03.851 : en:Scouting Rayenhill
01:33:01.575 : en:Blood of The Eldar
01:35:58.169 : en:Courage and Cowardice
01:36:52.431 : en:The Fallen
01:40:16.385 : en:The Battle at Ravenhill
01:48:15.530 : en:To the Death
01:54:22.438 : en:Parting in Friendship
01:57:41.637 : en:The Sorrow of Elves
02:00:47.907 : en:The Return Journey
02:06:48.434 : en:The Last Stage
02:11:31.300 : en:Credits
Cкриншоты:



Не забудте сказать Cпасибо! ;)
[Профиль] [ЛС]

DJ-snake

Пол: Мужской

Стаж: 8 лет 3 месяца

Сообщений: 7880

Откуда: Душанбе

Создавать темы 23-Мар-2015 00:29 (спустя 12 дней)

[Цитировать]

Перевод: Профессиональный (дублированный) Blu-ray CEE
Качество: BDRip 1080p
Формат: MKV
Источник: The.Hobbit.The.Battle.of.the.Five.Armies.2014.COMPLETE.BLURAY-LAZERS
Видео: 1920x800 at 23.976 fps, x264, crf, ~13774 kbps avg
Aудио#1: Russian: 48 kHz, AC3, 3/2 (L,C,R,l,r) + LFE ch, ~448.00 kbps avg |Дубляж, Blu-ray CEE|
Aудио#2: Ukrainian: 48 kHz, AC3, 3/2 (L,C,R,l,r) + LFE ch, ~448.00 kbps avg |Дубляж, Blu-ray CEE|
Aудио#3: English: 48 kHz, DTS, 3/2 (L,C,R,l,r) + LFE ch, ~1536.00 kbps avg
?
[Профиль] [ЛС]
Показать сообщения:    
Ответить на тему

Текущее время: 19-Ноя 11:31

Часовой пояс: UTC + 3



Вы не можете начинать темы
Вы не можете отвечать на сообщения
Вы не можете редактировать свои сообщения
Вы не можете удалять свои сообщения
Вы не можете голосовать в опросах
Вы не можете прикреплять файлы к сообщениям
Вы не можете скачивать файлы