Легенды ночных стражей / Legend of the Guardians: The Owls of Ga'Hoole (Зак Снайдер) [2010, фэнтези, приключения, мультфильм, BDRip 1080p][Hand made 60 fps]

Ответить на тему
 
Автор Сообщение

fadaf9 ®

Пол: Мужской

Стаж: 6 лет 9 месяцев

Сообщений: 2142

Откуда: Таджикистан

Создавать темы 17-Апр-2014 13:27

[Цитировать]

--Легенды ночных стражей / Legend of the Guardians: The Owls of Ga'Hoole--«On his way to finding a legend...he will become one»-- Год выпуска: 2010
Страна: США, Австралия
Жанр: фэнтези, приключения, мультфильм
Продолжительность: 01:36:48
Перевод: Профессиональный (полное дублирование) [Лицензия]- Режиссер: Зак Снайдер
В ролях: Джим Стерджесс, Джоэл Эдгертон, Хьюго Уивинг, Эдриэнн ДеФариа, Ричард Роксбург, Дэвид Уэнэм, Хелен Миррен, Мириам Марголис, Сэм Нил, Джеффри Раш- Описание:
Миром, в котором уже не осталось людей, правят совы… добрые… злые… как и всегда! В волшебном лесу - королевстве сов Тито - на Великом Дереве Га`Хуул, где разумные совы живут в гармонии, наступают мрачные времена. Королевство подвергается страшной опасности со стороны соседних жестоких правителей, и эта опасность грозит уничтожить привычное мироздание...-
- рекомендуется присутствие родителей!- Качество: BDRip 1080p
Формат: MKV
Видео: AVC, 27,9 Mbps, 1920x816p, 59.940 fps
Аудио №1: AC3, 5.1, 640 kbps, 6 ch, 48.0 KHz - Russian (полное дублирование) [Лицензия]
Аудио №2: AC3, 5.1, 640 kbps, 6 ch, 48.0 KHz - Ukrainian (полное дублирование) [Лицензия]
Аудио №3: DTS, 5.1, 1509 kbps, 6 ch, 48.0 KHz - English
Субтитры: Russian(BD CEE), English-
Знаете ли вы,что...

Мультфильм создан по мотивам серии книг Кэтрин Ласки «Ночные стражи» (Guardians of Ga’Hoole, 2003-2008).
MediaInfo

General
Unique ID : 234243155606807585357443071501919016619 (0xB039973C6189470BAE4F6A179B0F56AB)
Format : Matroska
Format version : Version 4 / Version 2
File size : 20.4 GiB
Duration : 1h 36mn
Overall bit rate : 30.2 Mbps
Movie name : Legend of the Guardians: The Owls of Ga'Hoole (2010)
Encoded date : UTC 2014-04-17 08:02:20
Writing application : mkvmerge v6.8.0 ('Theme for Great Cities') 64bit built on Mar 2 2014 21:34:26
Writing library : libebml v1.3.0 + libmatroska v1.4.1
Video #1
ID : 1
Format : AVC
Format/Info : Advanced Video Codec
Format profile : High@L4.1
Format settings, CABAC : Yes
Format settings, ReFrames : 5 frames
Codec ID : V_MPEG4/ISO/AVC
Duration : 1h 36mn
Bit rate : 27.9 Mbps
Width : 1 920 pixels
Height : 816 pixels
Display aspect ratio : 2.35:1
Frame rate mode : Constant
Frame rate : 59.940 fps
Color space : YUV
Chroma subsampling : 4:2:0
Bit depth : 8 bits
Scan type : Progressive
Bits/(Pixel*Frame) : 0.297
Stream size : 18.1 GiB (89%)
Writing library : x264 core 130 r2273 b3065e6
Encoding settings : cabac=1 / ref=5 / deblock=1:-1:-1 / analyse=0x3:0 / me=umh / subme=9 / psy=1 / psy_rd=1.00:0.10 / mixed_ref=1 / me_range=24 / chroma_me=0 / trellis=1 / 8x8dct=1 / cqm=0 / deadzone=21,11 / fast_pskip=0 / chroma_qp_offset=-3 / threads=6 / lookahead_threads=1 / sliced_threads=0 / nr=0 / decimate=0 / interlaced=0 / bluray_compat=0 / constrained_intra=0 / bframes=5 / b_pyramid=2 / b_adapt=2 / b_bias=0 / direct=3 / weightb=1 / open_gop=0 / weightp=2 / keyint=250 / keyint_min=25 / scenecut=40 / intra_refresh=0 / rc=abr / mbtree=0 / bitrate=27857 / ratetol=1.0 / qcomp=0.60 / qpmin=0 / qpmax=69 / qpstep=4 / ip_ratio=1.40 / pb_ratio=1.30 / aq=1:0.90
Language : English
Default : Yes
Forced : No
Audio #2
ID : 2
Format : AC-3
Format/Info : Audio Coding 3
Mode extension : CM (complete main)
Format settings, Endianness : Big
Codec ID : A_AC3
Duration : 1h 36mn
Bit rate mode : Constant
Bit rate : 640 Kbps
Channel(s) : 6 channels
Channel positions : Front: L C R, Side: L R, LFE
Sampling rate : 48.0 KHz
Bit depth : 16 bits
Compression mode : Lossy
Stream size : 443 MiB (2%)
Title : AC3 5.1 @ 640 kbps [DUB]
Language : Russian
Default : Yes
Forced : No
Audio #3
ID : 3
Format : AC-3
Format/Info : Audio Coding 3
Mode extension : CM (complete main)
Format settings, Endianness : Big
Codec ID : A_AC3
Duration : 1h 36mn
Bit rate mode : Constant
Bit rate : 640 Kbps
Channel(s) : 6 channels
Channel positions : Front: L C R, Side: L R, LFE
Sampling rate : 48.0 KHz
Bit depth : 16 bits
Compression mode : Lossy
Stream size : 443 MiB (2%)
Title : AC3 5.1 @ 640 kbps [DUB]
Language : Ukrainian
Default : No
Forced : No
Audio #4
ID : 4
Format : DTS
Format/Info : Digital Theater Systems
Mode : 16
Format settings, Endianness : Big
Codec ID : A_DTS
Duration : 1h 36mn
Bit rate mode : Constant
Bit rate : 1 509 Kbps
Channel(s) : 6 channels
Channel positions : Front: L C R, Side: L R, LFE
Sampling rate : 48.0 KHz
Bit depth : 24 bits
Compression mode : Lossy
Stream size : 1.02 GiB (5%)
Title : DTS 5.1 @ 1510 kbps [Original]
Language : English
Default : No
Forced : No
Text #5
ID : 5
Format : UTF-8
Codec ID : S_TEXT/UTF8
Codec ID/Info : UTF-8 Plain Text
Title : Blu-ray CEE
Language : Russian
Default : Yes
Forced : No
Text #6
ID : 6
Format : UTF-8
Codec ID : S_TEXT/UTF8
Codec ID/Info : UTF-8 Plain Text
Language : English
Default : No
Forced : No
Скриншоты






[Профиль] [ЛС]

MVP

Пол: Мужской

Стаж: 7 лет 9 месяцев

Сообщений: 4378

Откуда: Земля

Создавать темы 26-Янв-2015 17:51 (спустя 9 месяцев 9 дней)

[Цитировать]

вернитесь на раздачу
[Профиль] [ЛС]

fadaf9 ®

Пол: Мужской

Стаж: 6 лет 9 месяцев

Сообщений: 2142

Откуда: Таджикистан

Создавать темы 26-Янв-2015 18:04 (спустя 13 минут)

[Цитировать]

MVP
Круглосуточно на раздаче (исключения - если нет света/инета)
[Профиль] [ЛС]

MVP

Пол: Мужской

Стаж: 7 лет 9 месяцев

Сообщений: 4378

Откуда: Земля

Создавать темы 26-Янв-2015 19:34 (спустя 1 час 30 минут)

[Цитировать]

не знаю, вчера скачал 60 проц сегодня целый день был торрент включен больше ничего не вытянул.


Последний раз редактировалось: MVP (2015-01-26 22:23), всего редактировалось 1 раз
[Профиль] [ЛС]

sashalilya

Пол: Мужской

Стаж: 8 лет 11 месяцев

Сообщений: 24115

Откуда: Отсюда

Создавать темы 26-Янв-2015 20:47 (спустя 1 час 13 минут)

[Цитировать]

MVP
сейчас полетаем *TRAINING* :)
[Профиль] [ЛС]

MVP

Пол: Мужской

Стаж: 7 лет 9 месяцев

Сообщений: 4378

Откуда: Земля

Создавать темы 26-Янв-2015 22:23 (спустя 1 час 35 минут)

[Цитировать]

MVP
сейчас полетаем *TRAINING* :)
оо спасибо. Другое дело.
[Профиль] [ЛС]
Показать сообщения:    
Ответить на тему

Текущее время: 22-Ноя 02:16

Часовой пояс: UTC + 3



Вы не можете начинать темы
Вы не можете отвечать на сообщения
Вы не можете редактировать свои сообщения
Вы не можете удалять свои сообщения
Вы не можете голосовать в опросах
Вы не можете прикреплять файлы к сообщениям
Вы не можете скачивать файлы