Планета сокровищ / Treasure Planet (Рон Клементс, Джон Маскер) [2002 г, мультфильм, фантастика, мелодрама, приключения, семейный, BDRip 1080p]

Ответить на тему
 
Автор Сообщение

fadaf9 ®

Пол: Мужской

Стаж: 6 лет 9 месяцев

Сообщений: 2142

Откуда: Таджикистан

Создавать темы 19-Янв-2015 19:48

[Цитировать]

--Планета сокровищ / Treasure Planet-- Год выпуска: 2002
Страна: США
Жанр: мультфильм, фантастика, мелодрама, приключения, семейный
Продолжительность: 01:37:28
Перевод: Профессиональный (полное дублирование) [-Лицензия-]- Режиссеры: Рон Клементс, Джон Маскер
В ролях: Роско Ли Браун, Кори Бертон, Дэйн А. Дэвис, Джозеф Гордон-Левитт, Тони Джей, Остин Мэйджерс, Патрик МакГуэн, Майкл МакШейн, Лори Меткаф, Брайан Мюррей- Описание:
16-летний Джим Хоукинс отправляется на поиски таинственной Планеты Сокровищ в компании настоящих космических пиратов. Под руководством корабельного кока, киборга Джона Сильвера, он становится умелым «космоплавателем» и не раз спасает космический галеон от самых серьезных опасностей: черных дыр, взрывов сверхновых и космических штормов.
Но главное испытание поджидает юного героя впереди — предательство близкого друга, который вместе с командой матросов пытается обманом захватить все сокровища и скрыться…
-
- рекомендуется присутствие родителей!- Качество: BDRip 1080p
Формат: MKV
Видео: AVC, 9000 kbps, 1920x1080p, 23.976 fps
Аудио №1: AC3, 5.1, 384 kbps, 6 ch, 48.0 KHz - Russian (полное дублирование) [-Дубляж-]
Аудио №2: DTS, 5.1, 1510 kbps, 6 ch, 48.0 KHz - Russian (многоголосый закадровый)
Аудио №3: DTS, 5.1, 1510 kbps, 6 ch, 48.0 KHz - Russian (одноголосый закадровый) [-Гаврилов-]
Аудио №4: AC3, 5.1, 448 kbps, 6 ch, 48.0 KHz - Russian (одноголосый закадровый) [-Чадов-]
Аудио №5: AC3, 2.0, 192 kbps, 6 ch, 48.0 KHz - Russian (одноголосый закадровый) [-Визгунов-]
Аудио №6: AC3, 5.1, 448 kbps, 6 ch, 48.0 KHz - Russian (двухголосый закадровый) [-Гланц и Казакова-]
Аудио №7: DTS, 5.1, 1510 kbps, 6 ch, 48.0 KHz - English
Аудио №8: AC3, 2.0, 192 kbps, 6 ch, 48.0 KHz - English [-Commentary-]
Субтитры: Russian [Full], English [Full, SDH, Commentary]-
MediaInfo

General
Unique ID : 192448996431616201839811512184380896838 (0x90C854188AEFBA1DA5BC8C649D48B646)
Format : Matroska
Format version : Version 4 / Version 2
File size : 10.1 GiB
Duration : 1h 35mn
Overall bit rate : 15.2 Mbps
Movie name :
Encoded date : UTC 2014-11-05 19:34:59
Writing application : mkvmerge v7.3.0 ('Nouages') 64bit built on Oct 22 2014 18:53:34
Writing library : libebml v1.3.0 + libmatroska v1.4.1
DURATION : 01:35:17.627000000
NUMBER_OF_FRAMES : 1990
NUMBER_OF_BYTES : 117108
_STATISTICS_WRITING_APP : mkvmerge v7.3.0 ('Nouages') 64bit built on Oct 22 2014 18:53:34
_STATISTICS_WRITING_DATE_UTC : 2014-11-05 19:34:59
_STATISTICS_TAGS : BPS DURATION NUMBER_OF_FRAMES NUMBER_OF_BYTES
Video
ID : 1
Format : AVC
Format/Info : Advanced Video Codec
Format profile : High@L4.1
Format settings, CABAC : Yes
Format settings, ReFrames : 4 frames
Codec ID : V_MPEG4/ISO/AVC
Duration : 1h 35mn
Nominal bit rate : 9 000 Kbps
Width : 1 816 pixels
Height : 1 080 pixels
Display aspect ratio : 1.681
Frame rate mode : Constant
Frame rate : 23.976 fps
Color space : YUV
Chroma subsampling : 4:2:0
Bit depth : 8 bits
Scan type : Progressive
Bits/(Pixel*Frame) : 0.191
Writing library : x264 core 125 r2200 999b753
Encoding settings : cabac=1 / ref=4 / deblock=1:-3:-3 / analyse=0x3:0x133 / me=tesa / subme=11 / psy=1 / psy_rd=0.60:0.00 / mixed_ref=1 / me_range=16 / chroma_me=1 / trellis=2 / 8x8dct=1 / cqm=0 / deadzone=21,11 / fast_pskip=0 / chroma_qp_offset=-2 / threads=12 / lookahead_threads=2 / sliced_threads=0 / nr=0 / decimate=0 / interlaced=0 / bluray_compat=0 / constrained_intra=0 / bframes=6 / b_pyramid=2 / b_adapt=2 / b_bias=0 / direct=3 / weightb=1 / open_gop=0 / weightp=2 / keyint=250 / keyint_min=23 / scenecut=40 / intra_refresh=0 / rc=2pass / mbtree=0 / bitrate=9000 / ratetol=1.0 / qcomp=0.55 / qpmin=0 / qpmax=69 / qpstep=4 / cplxblur=20.0 / qblur=0.5 / ip_ratio=1.40 / pb_ratio=1.30 / aq=1:1.00
Language : English
Default : No
Forced : No
DURATION : 01:35:23.802000000
NUMBER_OF_FRAMES : 137234
NUMBER_OF_BYTES : 6436558594
_STATISTICS_WRITING_APP : mkvmerge v7.3.0 ('Nouages') 64bit built on Oct 22 2014 18:53:34
_STATISTICS_WRITING_DATE_UTC : 2014-11-05 19:34:59
_STATISTICS_TAGS : BPS DURATION NUMBER_OF_FRAMES NUMBER_OF_BYTES
Audio #1
ID : 2
Format : AC-3
Format/Info : Audio Coding 3
Mode extension : CM (complete main)
Format settings, Endianness : Big
Codec ID : A_AC3
Duration : 1h 35mn
Bit rate mode : Constant
Bit rate : 384 Kbps
Channel(s) : 6 channels
Channel positions : Front: L C R, Side: L R, LFE
Sampling rate : 48.0 KHz
Bit depth : 16 bits
Compression mode : Lossy
Stream size : 262 MiB (3%)
Title : DUB
Language : Russian
Default : Yes
Forced : No
Audio #2
ID : 3
Format : DTS
Format/Info : Digital Theater Systems
Mode : 16
Format settings, Endianness : Big
Codec ID : A_DTS
Duration : 1h 35mn
Bit rate mode : Constant
Bit rate : 1 510 Kbps
Channel(s) : 6 channels
Channel positions : Front: L C R, Side: L R, LFE
Sampling rate : 48.0 KHz
Bit depth : 24 bits
Compression mode : Lossy
Stream size : 1.01 GiB (10%)
Title : MVO
Language : Russian
Default : No
Forced : No
Audio #3
ID : 4
Format : DTS
Format/Info : Digital Theater Systems
Mode : 16
Format settings, Endianness : Big
Codec ID : A_DTS
Duration : 1h 35mn
Bit rate mode : Constant
Bit rate : 1 510 Kbps
Channel(s) : 6 channels
Channel positions : Front: L C R, Side: L R, LFE
Sampling rate : 48.0 KHz
Bit depth : 24 bits
Compression mode : Lossy
Stream size : 1.01 GiB (10%)
Title : AVO [-Гаврилов-]
Language : Russian
Default : No
Forced : No
Audio #4
ID : 5
Format : AC-3
Format/Info : Audio Coding 3
Mode extension : CM (complete main)
Format settings, Endianness : Big
Codec ID : A_AC3
Duration : 1h 35mn
Bit rate mode : Constant
Bit rate : 448 Kbps
Channel(s) : 6 channels
Channel positions : Front: L C R, Side: L R, LFE
Sampling rate : 48.0 KHz
Bit depth : 16 bits
Compression mode : Lossy
Stream size : 306 MiB (3%)
Title : AVO [-Чадов-]
Language : Russian
Default : No
Forced : No
Audio #5
ID : 6
Format : AC-3
Format/Info : Audio Coding 3
Mode extension : CM (complete main)
Format settings, Endianness : Big
Codec ID : A_AC3
Duration : 1h 35mn
Bit rate mode : Constant
Bit rate : 192 Kbps
Channel(s) : 2 channels
Channel positions : Front: L R
Sampling rate : 48.0 KHz
Bit depth : 16 bits
Compression mode : Lossy
Stream size : 131 MiB (1%)
Title : AVO [-Визгунов-]
Language : Russian
Default : No
Forced : No
Audio #6
ID : 7
Format : AC-3
Format/Info : Audio Coding 3
Mode extension : CM (complete main)
Format settings, Endianness : Big
Codec ID : A_AC3
Duration : 1h 35mn
Bit rate mode : Constant
Bit rate : 448 Kbps
Channel(s) : 6 channels
Channel positions : Front: L C R, Side: L R, LFE
Sampling rate : 48.0 KHz
Bit depth : 16 bits
Compression mode : Lossy
Stream size : 306 MiB (3%)
Title : DVO [-Гланц и Казакова-]
Language : Russian
Default : No
Forced : No
Audio #7
ID : 8
Format : DTS
Format/Info : Digital Theater Systems
Codec ID : A_DTS
Duration : 1h 35mn
Channel(s) : 6 channels
Sampling rate : 48.0 KHz
Compression mode : Lossy
Title : Original
Language : English
Default : No
Forced : No
Audio #8
ID : 9
Format : AC-3
Format/Info : Audio Coding 3
Codec ID : A_AC3
Duration : 1h 35mn
Channel(s) : 2 channels
Sampling rate : 48.0 KHz
Compression mode : Lossy
Title : Commentary
Language : English
Default : No
Forced : No
Text #1
ID : 10
Format : UTF-8
Codec ID : S_TEXT/UTF8
Codec ID/Info : UTF-8 Plain Text
Title : Full
Language : Russian
Default : No
Forced : No
Text #2
ID : 11
Format : UTF-8
Codec ID : S_TEXT/UTF8
Codec ID/Info : UTF-8 Plain Text
Title : Full
Language : English
Default : No
Forced : No
Text #3
ID : 12
Format : UTF-8
Codec ID : S_TEXT/UTF8
Codec ID/Info : UTF-8 Plain Text
Title : SDH
Language : English
Default : No
Forced : No
Text #4
ID : 13
Format : UTF-8
Codec ID : S_TEXT/UTF8
Codec ID/Info : UTF-8 Plain Text
Title : Commentary
Language : English
Default : No
Forced : No

Menu
00:00:00.000 : en:Opening Credits/A Young Boy's Dream
00:04:51.166 : en:The Warning
00:12:09.103 : en:Jim's Quest
00:16:40.333 : en:The R.L.S. Legacy
00:20:34.150 : en:John Silver
00:25:03.669 : en:Setting Sail
00:30:41.923 : en:A Mutiny in the Making
00:33:05.942 : en:"I'm Still Here (Jim's Theme)"
00:36:43.535 : en:A Star Gone Supernova
00:42:21.914 : en:Getting In Too Deep
00:46:25.074 : en:Jim Hears the Truth
00:50:51.131 : en:Protecting the Map
00:55:04.468 : en:B.E.N.
00:59:54.341 : en:Bargaining for the Map
01:03:46.656 : en:Sneaking Back on Ship
01:08:19.429 : en:The Discovery
01:13:05.506 : en:The Treasure
01:19:24.218 : en:The Escape
01:23:57.407 : en:Silver and Jim Say Goodbye
01:27:20.110 : en:Going Home/End Credits
Скриншоты



[Профиль] [ЛС]
Показать сообщения:    
Ответить на тему

Текущее время: 19-Ноя 11:46

Часовой пояс: UTC + 3



Вы не можете начинать темы
Вы не можете отвечать на сообщения
Вы не можете редактировать свои сообщения
Вы не можете удалять свои сообщения
Вы не можете голосовать в опросах
Вы не можете прикреплять файлы к сообщениям
Вы не можете скачивать файлы