Принцесса и лягушка / The Princess and the Frog (Рон Клементс, Джон Маскер) [2009 г, фэнтези, мелодрама, мюзикл, семейный, мультфильм, BDRip 1080p]

Ответить на тему
 
Автор Сообщение

fadaf9 ®

Пол: Мужской

Стаж: 6 лет 9 месяцев

Сообщений: 2142

Откуда: Таджикистан

Создавать темы 19-Янв-2015 16:19

[Цитировать]

--Принцесса и лягушка / The Princess and the Frog -- Год выпуска: 2009
Страна: США
Жанр: фэнтези, мелодрама, мюзикл, семейный, мультфильм
Продолжительность: 01:37:28
Перевод: Профессиональный (полное дублирование) [-Лицензия-]- Режиссеры: Рон Клементс, Джон Маскер
В ролях: Аника Нони Роуз, Бруно Кампос, Кит Дэвид, Дженнифер Коуди, Джим Каммингс, Питер Бартлетт, Дженифер Льюис, Опра Уинфри, Терренс Ховард- Описание:
Все мы знаем, что бывает, когда принц целует заколдованную в лягушку принцессу. Но что случится, если переодетая в принцессу официантка поцелует лягушку-принца? Команда мультипликаторов под руководством Рона Клементса и Джона Маскера, создателей «Русалочки» и «Аладдина», а также обладатель премии «Оскар» композитор Рэнди Ньюман поведают самую прекрасную историю любви на свете… с участием лягушек, магии Вуду и поющего аллигатора.-
- нет возрастных ограничений- Качество: BDRip 1080p
Формат: MKV
Видео: AVC, 8000 kbps, 1920x1080p, 23.976 fps
Аудио №1: AC3, 5.1, 640 kbps, 6 ch, 48.0 KHz - Russian (полное дублирование) [-Лицензия-]
Аудио №2: DTS, 5.1, 1510 kbps, 6 ch, 48.0 KHz - Russian (многоголосый закадровый)
Аудио №3: DTS, 5.1, 1509 kbps, 6 ch, 48.0 KHz - English
Аудио №4: AC3, 2.0, 192 kbps, 6 ch, 48.0 KHz - English [-Commentary-]
Субтитры: Russian [Full BD CEE, Full, Songs, Commentary], English [BD CEE, SDH, Commentary]-
Знаете ли вы,что...

*Принцесса Тиана стала левшой по просьбе озвучивавшей ее Аники Нони Роуз.
*Аллигатор из «Принцессы и лягушки» ранее появлялся в одной из серий сериала «Чип и Дейл спешат на помощь» (1989-1992).
*Ближе к концу мультфильма на карнавале можно разглядеть движущуюся платформу с изображением морского царя Нептуна, отца принцессы Ариэль из мультфильма «Русалочка» (1989) (чьи создатели как раз и работали над «Принцессой и лягушкой»).
MediaInfo

General
Unique ID : 254946233335041907697385336210514707755 (0xBFCCDBC694F716C1B5A281370BF7052B)
Format : Matroska
Format version : Version 4 / Version 2
File size : 8.06 GiB
Duration : 1h 37mn
Overall bit rate : 11.8 Mbps
Encoded date : UTC 2015-01-19 13:03:25
Writing application : mkvmerge v7.4.0 ('Circles') 64bit built on Dec 12 2014 12:19:56
Writing library : libebml v1.3.0 + libmatroska v1.4.1
DURATION : 01:37:21.170000000
NUMBER_OF_FRAMES : 2188
NUMBER_OF_BYTES : 108524
_STATISTICS_WRITING_APP : mkvmerge v7.4.0 ('Circles') 64bit built on Dec 12 2014 12:19:56
_STATISTICS_WRITING_DATE_UTC : 2015-01-19 13:03:25
_STATISTICS_TAGS : BPS DURATION NUMBER_OF_FRAMES NUMBER_OF_BYTES
Video
ID : 1
Format : AVC
Format/Info : Advanced Video Codec
Format profile : High@L4.1
Format settings, CABAC : Yes
Format settings, ReFrames : 4 frames
Codec ID : V_MPEG4/ISO/AVC
Duration : 1h 37mn
Bit rate : 8 000 Kbps
Width : 1 920 pixels
Height : 1 080 pixels
Display aspect ratio : 16:9
Frame rate mode : Constant
Frame rate : 23.976 fps
Color space : YUV
Chroma subsampling : 4:2:0
Bit depth : 8 bits
Scan type : Progressive
Bits/(Pixel*Frame) : 0.161
Stream size : 5.28 GiB (66%)
Writing library : x264 core 114 r1913 5fd3dce
Encoding settings : cabac=1 / ref=4 / deblock=1:-1:-1 / analyse=0x3:0x133 / me=umh / subme=10 / psy=1 / psy_rd=0.80:0.15 / mixed_ref=1 / me_range=32 / chroma_me=1 / trellis=2 / 8x8dct=1 / cqm=0 / deadzone=21,11 / fast_pskip=0 / chroma_qp_offset=-3 / threads=6 / sliced_threads=0 / nr=0 / decimate=0 / interlaced=0 / constrained_intra=0 / bframes=6 / b_pyramid=2 / b_adapt=2 / b_bias=0 / direct=3 / weightb=1 / open_gop=0 / weightp=2 / keyint=250 / keyint_min=23 / scenecut=40 / intra_refresh=0 / rc_lookahead=60 / rc=2pass / mbtree=0 / bitrate=8000 / ratetol=1.0 / qcomp=0.60 / qpmin=0 / qpmax=69 / qpstep=4 / cplxblur=20.0 / qblur=0.5 / vbv_maxrate=50000 / vbv_bufsize=62500 / nal_hrd=none / ip_ratio=1.40 / pb_ratio=1.30 / aq=1:0.70
Language : English
Default : Yes
Forced : No
Color primaries : BT.709
Transfer characteristics : BT.709
Matrix coefficients : BT.709
DURATION : 01:37:27.592000000
NUMBER_OF_FRAMES : 140202
NUMBER_OF_BYTES : 5840610105
_STATISTICS_WRITING_APP : mkvmerge v7.4.0 ('Circles') 64bit built on Dec 12 2014 12:19:56
_STATISTICS_WRITING_DATE_UTC : 2015-01-19 13:03:25
_STATISTICS_TAGS : BPS DURATION NUMBER_OF_FRAMES NUMBER_OF_BYTES
Audio #1
ID : 2
Format : AC-3
Format/Info : Audio Coding 3
Mode extension : CM (complete main)
Format settings, Endianness : Big
Codec ID : A_AC3
Duration : 1h 37mn
Bit rate mode : Constant
Bit rate : 640 Kbps
Channel(s) : 6 channels
Channel positions : Front: L C R, Side: L R, LFE
Sampling rate : 48.0 KHz
Bit depth : 16 bits
Compression mode : Lossy
Stream size : 446 MiB (5%)
Title : DUB
Language : Russian
Default : Yes
Forced : No
Audio #2
ID : 3
Format : DTS
Format/Info : Digital Theater Systems
Mode : 16
Format settings, Endianness : Big
Codec ID : A_DTS
Duration : 1h 37mn
Bit rate mode : Constant
Bit rate : 1 510 Kbps
Channel(s) : 6 channels
Channel positions : Front: L C R, Side: L R, LFE
Sampling rate : 48.0 KHz
Bit depth : 24 bits
Compression mode : Lossy
Stream size : 1.03 GiB (13%)
Title : MVO
Language : Russian
Default : No
Forced : No
Audio #3
ID : 4
Format : DTS
Format/Info : Digital Theater Systems
Mode : 16
Format settings, Endianness : Big
Codec ID : A_DTS
Duration : 1h 37mn
Bit rate mode : Constant
Bit rate : 1 509 Kbps
Channel(s) : 6 channels
Channel positions : Front: L C R, Side: L R, LFE
Sampling rate : 48.0 KHz
Bit depth : 24 bits
Compression mode : Lossy
Stream size : 1.03 GiB (13%)
Title : Original
Language : English
Default : No
Forced : No
Audio #4
ID : 5
Format : AC-3
Format/Info : Audio Coding 3
Mode extension : CM (complete main)
Format settings, Endianness : Big
Codec ID : A_AC3
Duration : 1h 37mn
Bit rate mode : Constant
Bit rate : 192 Kbps
Channel(s) : 2 channels
Channel positions : Front: L R
Sampling rate : 48.0 KHz
Bit depth : 16 bits
Compression mode : Lossy
Stream size : 134 MiB (2%)
Title : Commentary
Language : English
Default : No
Forced : No
Text #1
ID : 6
Format : UTF-8
Codec ID : S_TEXT/UTF8
Codec ID/Info : UTF-8 Plain Text
Title : Full [-Blu-ray CEE-]
Language : Russian
Default : No
Forced : No
Text #2
ID : 7
Format : UTF-8
Codec ID : S_TEXT/UTF8
Codec ID/Info : UTF-8 Plain Text
Title : Full
Language : Russian
Default : No
Forced : No
Text #3
ID : 8
Format : UTF-8
Codec ID : S_TEXT/UTF8
Codec ID/Info : UTF-8 Plain Text
Title : Songs
Language : Russian
Default : No
Forced : No
Text #4
ID : 9
Format : UTF-8
Codec ID : S_TEXT/UTF8
Codec ID/Info : UTF-8 Plain Text
Title : Commentary
Language : Russian
Default : No
Forced : No
Text #5
ID : 10
Format : UTF-8
Codec ID : S_TEXT/UTF8
Codec ID/Info : UTF-8 Plain Text
Language : English
Default : No
Forced : No
Text #6
ID : 11
Format : UTF-8
Codec ID : S_TEXT/UTF8
Codec ID/Info : UTF-8 Plain Text
Title : SDH
Language : English
Default : No
Forced : No
Text #7
ID : 12
Format : UTF-8
Codec ID : S_TEXT/UTF8
Codec ID/Info : UTF-8 Plain Text
Title : Commentary
Language : English
Default : No
Forced : No

Menu
00:00:00.000 : en:"There's Magic in the Air Tonight"
00:03:57.779 : en:James' Dream
00:07:16.436 : en:"Down in New Orleans"
00:12:05.391 : en:"Almost There"
00:17:45.481 : en:Dr. Facilier's Voodoo Emporium/"Friends on the Other Side"
00:22:04.698 : en:The Masquerade Ball
00:26:47.189 : en:The Frog Prince
00:31:22.047 : en:Nightime in the Bayou
00:35:49.105 : en:Meet Louis/"When We're Human"
00:41:11.803 : en:Journey to Mama Odie's
00:44:30.584 : en:Ray Shows the Way/"Gonna Take You There"
00:50:37.868 : en:Frog Hunters
00:54:52.956 : en:Learning From Each Other/"Ma Belle Evangeline"
01:00:08.772 : en:"Dig a Little Deeper"
01:07:21.496 : en:A Froggy Proposal
01:13:34.535 : en:Mardi Gras Parade
01:21:50.697 : en:A Kiss From a Princess
01:24:23.767 : en:Farewell to a Friend
01:27:06.638 : en:A Bayou Wedding/"Down in New Orleans (Finale)"
01:30:28.423 : en:Closing Credits
Скриншоты



[Профиль] [ЛС]
Показать сообщения:    
Ответить на тему

Текущее время: 22-Ноя 02:23

Часовой пояс: UTC + 3



Вы не можете начинать темы
Вы не можете отвечать на сообщения
Вы не можете редактировать свои сообщения
Вы не можете удалять свои сообщения
Вы не можете голосовать в опросах
Вы не можете прикреплять файлы к сообщениям
Вы не можете скачивать файлы