Рапунцель: Запутанная история & Рапунцель: Счастлива навсегда / Tangled & Tangled Ever After (Натан Грено, Байрон Ховард) [2010, 2012 г, мультфильм, мюзикл, приключения, семейный, BDRip 1080p, BDRemux 1080p]

Ответить на тему
 
Автор Сообщение

fadaf9 ®

Пол: Мужской

Стаж: 6 лет 9 месяцев

Сообщений: 2142

Откуда: Таджикистан

Создавать темы 14-Янв-2015 12:57

[Цитировать]

--Рапунцель: Запутанная история / Tangled-- Год выпуска: 2010
Страна: США
Жанр: мультфильм, мюзикл, приключения, семейный
Продолжительность: 01:40:57
Перевод: Профессиональный (полное дублирование) [-Лицензия-]- Режиссеры: Натан Грено, Байрон Ховард
В ролях: Мэнди Мур, Закари Левай, Донна Мерфи, Рон Перлман, М. К. Гейни, Джеффри Тэмбор, Брэд Гэрред, Пол Ф. Томпкинс, Ричард Кил, Делани Роуз Стейн, Натан Грено, Байрон Ховард, Тим Мертенс, Майкл Белл- Описание:
Обаятельный разбойник Флинн путешествует по жизни с легкостью, лишь потому, что он красив, болтлив и удачлив. И, казалось, фортуна всегда на его стороне, пока однажды он не выбирает высокую башню в густой чаще леса в качестве «спокойного» убежища. Флинн оказывается связанным по рукам и ногам юной красавицей по имени Рапунцель. Если вы думаете, что самое интересное в ней - это 21 метр волшебных золотистых волос, то вы заблуждаетесь! Запертая в башне и отчаянно ищущая приключений, Рапунцель решает использовать Флинна в качестве билета в большой мир. Сначала комичное похищение, затем невинный шантаж - и вот наши герои на воле. Вместе с главными героями в авантюрное путешествие отправятся бравый конь-ищейка Максимус, ручной хамелеон и шайка сумасбродных разбойников...-
- рекомендуется присутствие родителей!- Качество: BDRip 1080p
Формат: MKV
Видео: AVC, 8995 Mbps, 1920x1080p, 23.976 fps
Аудио №1: AC3, 5.1, 640 kbps, 6 ch, 48.0 KHz - Russian (полное дублирование) [-Лицензия-]
Аудио №2: DTS, 5.1, 1509 kbps, 6 ch, 48.0 KHz - Russian (двухголосый закадровый) [-Кубик в Кубе-]
Аудио №3: DTS, 5.1, 1509 kbps, 6 ch, 48.0 KHz - Russian (одноголосый закадровый) [-Юрий Сербин-]
Аудио №4: DTS, 5.1, 1509 kbps, 6 ch, 48.0 KHz - Russian (одноголосый закадровый) [-Андрей Гаврилов (1-я версия)-]
Аудио №5: DTS, 5.1, 1509 kbps, 6 ch, 48.0 KHz - Russian (одноголосый закадровый) [-Андрей Гаврилов (2-я версия)-]
Аудио №6: DTS, 5.1, 1509 kbps, 6 ch, 48.0 KHz - English
Субтитры: Russian [Full], English [Full, SDH]-
Знаете ли вы,что...

*Мультфильм создан по мотивам сказки братьев Гримм «Рапунцель» (Rapunzel).
*Во время работы над фильмом десять женщин из творческой группы начали отращивать волосы. Позже все они подстриглись и сдали волосы в организацию, изготовляющую парики для людей, облысевших в результате болезней.
*«Рапунцель: Запутанная история» — это 50-й полнометражный анимационный фильм студии Walt Disney Pictures.
*Правильное ударение в имени «Рапунцель» ставится на второй слог: РапУнцель.
*Оба режиссёра – и Байрон Ховард, и Нэйтан Грено – мечтали стать аниматорами с тех пор, как посетили анимационную студию Disney в парке развлечений Disney World. Перед тем, как получить работу в студии, Ховард работал экскурсоводом и часами наблюдал с улицы через стекло за трудом аниматоров.
*Сегодня Байрон Ховард и Нэйтан Грено– восходящие звёзды анимации, яркие представители нового поколения режиссёров. Ховард – постановщик приключенческой анимационной комедии «Вольт», выпущенной студией Walt Disney Animation в 2008 году, собравшей в мировом прокате более 300 млн. долларов. «Вольт» был номинирован на два «Золотых Глобуса» (за лучший анимационный фильм и за лучшую песню) и на «Оскар» (за лучший анимационный фильм). Грено на студии уже 14 лет; он принимал участие в работе над картинами «Мулан», «Братец-медвежонок» и «В гости к Робинсонам». В анимационном фильме «Вольт» он был руководителем сценарной группы.
*Дочь старшего аниматора Глена Кини, художница Клэр Кини, продумала и нарисовала фрески на стенах башни Рапунцель. Разрабатывая персонажа Рапунцель, Глен наделил её некоторыми чертами своей дочери, в том числе упрямым нравом и склонностью расписывать стены.
*Длина золотистых волос Рапунцель — 70 футов (больше 21 метра), в них больше 100 000 отдельных локонов.
*Чтобы передать на экране движение волос, была разработана специальная программа Dynamic Wires. Раньше никому в анимации не доводилось рисовать такое количество волос, и ни одна главная героиня в истории кино не носила на голове такую роскошную причёску.
*Среднестатистическая длина волос на голове — 30 см. Если сложить эти волосы один к одному, то они растянутся на 26 миль (41,6 км). А если сложить один к одному все волосы с головы Рапунцель, они растянутся на 1820 миль (2912 км).
*Компьютерный инженер Келли Уорд (одна из трёх специалистов, работавших над созданием программы для симуляции движения волос Рапунцель и других персонажей фильма) защитила диссертацию по компьютерной анимации волос и плотно занималась этим вопросом в течение последних 10 лет. Она считается одним из главных экспертов в этой области.
*Захватывающая кульминационная сцена фильма разворачивается на фоне горизонта, заполненного горящими фонарями. В каждом фонаре горит отдельный нарисованный огонь, состоящий из 10 000 маленьких световых пучков. В одном кадре уместилось 46 000 фонарей, следовательно — 460 миллионов световых пучков!
*Образцом для водопада и бурного потока неподалёку от башни послужили реки и водопады в Йосемитском национальном парке в Калифорнии. Старший специалист по спецэффектам ездил туда на два дня и отснял больше 150 видеороликов натуры. На них и опирались в работе художники, выбирая лучшие места и ракурсы. Чтобы нарисовать водопад, требуется нарисовать больше 10 миллионов отдельных капелек.
*Густой туман, обволакивающий Рапунцель и Матушку Готель, отражает намерение Готель затуманить разум Рапунцель.
Больше 2000 гонок в игре «Mario Kart» было сыграно создателями фильма, чтобы не сойти с ума от напряжённой работы.
*В фильме «Рапунцель: Запутанная история» действуют пять главных героев, 21 разбойник и 38 горожан. Для кульминационной сцены с фонарями перед художниками спецэффектов была поставлена задача собрать на экране 3000 горожан. Это самая большая массовая сцена за всю историю компьютерной анимации Disney.
*Источником вдохновения для сцены, в которой речной поток прорывает деревянную дамбу, послужил аттракцион «Стремнина Гризли» (Grizzly River Run) в Калифорнийском парке развлечений Disneyland. В финальной сцене прорыва дамбы на экран выливается 23 миллиона виртуальных галлонов нарисованной воды.
MediaInfo

General
Unique ID : 227723915351392225971152898178988986321 (0xAB5207E012BA71A6B9500E7B605D4FD1)
Format : Matroska
Format version : Version 4 / Version 2
File size : 12.4 GiB
Duration : 1h 40mn
Overall bit rate : 17.5 Mbps
Encoded date : UTC 2014-10-29 12:55:15
Writing application : mkvmerge v7.3.0 ('Nouages') 64bit built on Oct 22 2014 18:53:34
Writing library : libebml v1.3.0 + libmatroska v1.4.1
DURATION : 01:40:01.246000000
NUMBER_OF_FRAMES : 1269
NUMBER_OF_BYTES : 39355
_STATISTICS_WRITING_APP : mkvmerge v7.3.0 ('Nouages') 64bit built on Oct 22 2014 18:53:34
_STATISTICS_WRITING_DATE_UTC : 2014-10-29 12:55:15
_STATISTICS_TAGS : BPS DURATION NUMBER_OF_FRAMES NUMBER_OF_BYTES
Video
ID : 1
Format : AVC
Format/Info : Advanced Video Codec
Format profile : High@L4.1
Format settings, CABAC : Yes
Format settings, ReFrames : 4 frames
Codec ID : V_MPEG4/ISO/AVC
Duration : 1h 40mn
Bit rate : 8 995 Kbps
Width : 1 920 pixels
Height : 1 080 pixels
Display aspect ratio : 16:9
Frame rate mode : Constant
Frame rate : 23.976 fps
Color space : YUV
Chroma subsampling : 4:2:0
Bit depth : 8 bits
Scan type : Progressive
Bits/(Pixel*Frame) : 0.181
Stream size : 6.34 GiB (51%)
Writing library : x264 core 142 r2389kMod 956c8d8
Encoding settings : cabac=1 / ref=4 / deblock=1:-2:-1 / analyse=0x3:0x133 / me=umh / subme=11 / psy=1 / fade_compensate=0.00 / psy_rd=0.63:0.00 / mixed_ref=1 / me_range=32 / chroma_me=1 / trellis=2 / 8x8dct=1 / cqm=0 / deadzone=21,11 / fast_pskip=0 / chroma_qp_offset=-2 / threads=12 / lookahead_threads=3 / sliced_threads=0 / nr=0 / decimate=1 / interlaced=0 / bluray_compat=0 / constrained_intra=0 / fgo=0 / bframes=12 / b_pyramid=2 / b_adapt=2 / b_bias=0 / direct=1 / weightb=1 / open_gop=0 / weightp=2 / keyint=250 / keyint_min=23 / scenecut=40 / intra_refresh=0 / rc_lookahead=70 / rc=crf / mbtree=0 / crf=17.6490 / qcomp=0.81 / qpmin=0 / qpmax=69 / qpstep=4 / vbv_maxrate=50000 / vbv_bufsize=62500 / crf_max=0.0 / nal_hrd=none / filler=0 / ip_ratio=1.40 / pb_ratio=1.30 / aq=3:0.90
Language : Russian
Default : Yes
Forced : No
Color primaries : BT.709
Transfer characteristics : BT.709
Matrix coefficients : BT.709
Audio #1
ID : 2
Format : AC-3
Format/Info : Audio Coding 3
Mode extension : CM (complete main)
Format settings, Endianness : Big
Codec ID : A_AC3
Duration : 1h 40mn
Bit rate mode : Constant
Bit rate : 640 Kbps
Channel(s) : 6 channels
Channel positions : Front: L C R, Side: L R, LFE
Sampling rate : 48.0 KHz
Bit depth : 16 bits
Compression mode : Lossy
Stream size : 462 MiB (4%)
Title : DUB [-BD CEE-]
Language : Russian
Default : Yes
Forced : No
Audio #2
ID : 3
Format : DTS
Format/Info : Digital Theater Systems
Mode : 16
Format settings, Endianness : Big
Codec ID : A_DTS
Duration : 1h 40mn
Bit rate mode : Constant
Bit rate : 1 509 Kbps
Channel(s) : 6 channels
Channel positions : Front: L C R, Side: L R, LFE
Sampling rate : 48.0 KHz
Bit depth : 24 bits
Compression mode : Lossy
Stream size : 1.06 GiB (9%)
Title : DVO [-Кубик в Кубе-]
Language : Russian
Default : No
Forced : No
Audio #3
ID : 4
Format : DTS
Format/Info : Digital Theater Systems
Mode : 16
Format settings, Endianness : Big
Codec ID : A_DTS
Duration : 1h 40mn
Bit rate mode : Constant
Bit rate : 1 509 Kbps
Channel(s) : 6 channels
Channel positions : Front: L C R, Side: L R, LFE
Sampling rate : 48.0 KHz
Bit depth : 24 bits
Compression mode : Lossy
Stream size : 1.06 GiB (9%)
Title : AVO [-Юрий Сербин-]
Language : Russian
Default : No
Forced : No
Audio #4
ID : 5
Format : DTS
Format/Info : Digital Theater Systems
Mode : 16
Format settings, Endianness : Big
Codec ID : A_DTS
Duration : 1h 40mn
Bit rate mode : Constant
Bit rate : 1 509 Kbps
Channel(s) : 6 channels
Channel positions : Front: L C R, Side: L R, LFE
Sampling rate : 48.0 KHz
Bit depth : 24 bits
Compression mode : Lossy
Stream size : 1.06 GiB (9%)
Title : АVO [-Андрей Гаврилов (1-я версия)-]
Language : Russian
Default : No
Forced : No
Audio #5
ID : 6
Format : DTS
Format/Info : Digital Theater Systems
Mode : 16
Format settings, Endianness : Big
Codec ID : A_DTS
Duration : 1h 40mn
Bit rate mode : Constant
Bit rate : 1 509 Kbps
Channel(s) : 6 channels
Channel positions : Front: L C R, Side: L R, LFE
Sampling rate : 48.0 KHz
Bit depth : 24 bits
Compression mode : Lossy
Stream size : 1.06 GiB (9%)
Title : АVO [-Андрей Гаврилов (2-я версия)-]
Language : Russian
Default : No
Forced : No
Audio #6
ID : 7
Format : DTS
Format/Info : Digital Theater Systems
Mode : 16
Format settings, Endianness : Big
Codec ID : A_DTS
Duration : 1h 40mn
Bit rate mode : Constant
Bit rate : 1 509 Kbps
Channel(s) : 6 channels
Channel positions : Front: L C R, Side: L R, LFE
Sampling rate : 48.0 KHz
Bit depth : 24 bits
Compression mode : Lossy
Stream size : 1.06 GiB (9%)
Title : Original
Language : English
Default : No
Forced : No
Text #1
ID : 8
Format : UTF-8
Codec ID : S_TEXT/UTF8
Codec ID/Info : UTF-8 Plain Text
Title : Full
Language : Russian
Default : No
Forced : No
Text #2
ID : 9
Format : UTF-8
Codec ID : S_TEXT/UTF8
Codec ID/Info : UTF-8 Plain Text
Title : Full
Language : English
Default : No
Forced : No
Text #3
ID : 10
Format : UTF-8
Codec ID : S_TEXT/UTF8
Codec ID/Info : UTF-8 Plain Text
Title : SDH
Language : English
Default : No
Forced : No
Menu
00:00:00.000 : en:The Lost Princess
00:08:21.084 : en:Mother Knows Best
00:15:43.401 : en:Meet Flynn Rider
00:24:41.355 : en:Making a Deal
00:34:42.288 : en:The Snuggly Duckling
00:42:31.007 : en:The Escape
00:50:26.065 : en:In the Woods
00:59:22.058 : en:The Best Day of Your Life
01:10:35.773 : en:Betrayed
01:19:23.550 : en:The Rescue
01:25:22.159 : en:A New Dream
01:31:21.017 : en:End Credits
Скриншоты



-- --Рапунцель: Счастлива навсегда / Tangled Ever After-- Год выпуска: 2012
Страна: США
Жанр: мультфильм, короткометражка, боевик, комедия, семейный
Продолжительность: 00:06:29
Перевод: Профессиональный (дублированный) [-Студия "Невафильм"-]- Режиссеры: Нэйтан Грено, Байрон Ховард
В ролях: Мэнди Мур, Закари Левай, Алан Дэйл, Пол Ф. Томпкинс, Кари Уолгрен, Марк Аллан Стюарт, Байрон Ховард, Нэйтан Грено, Софи И. Агирр, Роберт Бэгнелл- Описание:
В волшебном королевстве грандиозный праздник: Рапунцель идет под венец! Все затаив дыхание ждут торжественной минуты. Но свадебная церемония грозит обернуться катастрофой: конь Максимус и хамелеон Паскаль теряют подвенечные кольца. У них остается всего несколько минут, чтобы найти пропажу.-
- нет возрастных ограничений- Качество: BDRemux 1080p
Формат: MKV
Видео: AVC, 33,0 Mbps Max, 1920x1080p, 23.976 fps
Аудио №1: AC3, 5.1, 640 kbps, 6 ch, 48.0 KHz - Russian (Дубляж) [-Студия "Невафильм"-]
Аудио №2: DTS, 5.1, ? / 1509 kbps, 8 ch / 6 ch, 48.0 KHz - Russian (Многоголосый закадровый) [-SkyeFilmTV-]
Аудио №3: DTS, 5.1, ? / 1510 kbps, 8 ch / 6 ch, 48.0 KHz - English
Субтитры: Russian [Full, Forced], English-
MediaInfo

General
Unique ID : 194056663019127326067068226396616419184 (0x91FDF42DA7AE36E48C154AEDFC8C6770)
Format : Matroska
Format version : Version 4 / Version 2
File size : 1.84 GiB
Duration : 6mn 29s
Overall bit rate mode : Variable
Overall bit rate : 40.7 Mbps
Encoded date : UTC 2015-01-14 09:23:47
Writing application : mkvmerge v7.4.0 ('Circles') 64bit built on Dec 12 2014 12:19:56
Writing library : libebml v1.3.0 + libmatroska v1.4.1
DURATION : 00:05:46.719000000
NUMBER_OF_FRAMES : 25
NUMBER_OF_BYTES : 1038
_STATISTICS_WRITING_APP : mkvmerge v7.4.0 ('Circles') 64bit built on Dec 12 2014 12:19:56
_STATISTICS_WRITING_DATE_UTC : 2015-01-14 09:23:47
_STATISTICS_TAGS : BPS DURATION NUMBER_OF_FRAMES NUMBER_OF_BYTES
Video
ID : 1
Format : AVC
Format/Info : Advanced Video Codec
Format profile : High@L4.1
Format settings, CABAC : Yes
Format settings, ReFrames : 4 frames
Codec ID : V_MPEG4/ISO/AVC
Duration : 6mn 29s
Bit rate mode : Variable
Maximum bit rate : 33.0 Mbps
Width : 1 920 pixels
Height : 1 080 pixels
Display aspect ratio : 16:9
Frame rate mode : Constant
Frame rate : 23.976 fps
Color space : YUV
Chroma subsampling : 4:2:0
Bit depth : 8 bits
Scan type : Progressive
Language : English
Default : Yes
Forced : No
Audio #1
ID : 2
Format : AC-3
Format/Info : Audio Coding 3
Mode extension : CM (complete main)
Format settings, Endianness : Big
Codec ID : A_AC3
Duration : 6mn 29s
Bit rate mode : Constant
Bit rate : 640 Kbps
Channel(s) : 6 channels
Channel positions : Front: L C R, Side: L R, LFE
Sampling rate : 48.0 KHz
Bit depth : 16 bits
Compression mode : Lossy
Stream size : 29.7 MiB (2%)
Title : DUB
Language : Russian
Default : Yes
Forced : No
Audio #2
ID : 3
Format : DTS
Format/Info : Digital Theater Systems
Format profile : MA / Core
Mode : 16
Format settings, Endianness : Big
Codec ID : A_DTS
Duration : 6mn 29s
Bit rate mode : Variable
Bit rate : Unknown / 1 509 Kbps
Channel(s) : 8 channels / 6 channels
Channel positions : Front: L C R, Side: L R, Back: L R, LFE / Front: L C R, Side: L R, LFE
Sampling rate : 48.0 KHz
Bit depth : 24 bits
Compression mode : Lossless / Lossy
Title : MVO [-SkyeFilmTV-]
Language : Russian
Default : No
Forced : No
Audio #3
ID : 4
Format : DTS
Format/Info : Digital Theater Systems
Format profile : MA / Core
Mode : 16
Format settings, Endianness : Big
Codec ID : A_DTS
Duration : 6mn 29s
Bit rate mode : Variable
Bit rate : Unknown / 1 509 Kbps
Channel(s) : 8 channels / 6 channels
Channel positions : Front: L C R, Side: L R, Back: L R, LFE / Front: L C R, Side: L R, LFE
Sampling rate : 48.0 KHz
Bit depth : 24 bits
Compression mode : Lossless / Lossy
Title : Original
Language : English
Default : No
Forced : No
Text #1
ID : 5
Format : UTF-8
Codec ID : S_TEXT/UTF8
Codec ID/Info : UTF-8 Plain Text
Title : Forced
Language : Russian
Default : No
Forced : No
Text #2
ID : 6
Format : UTF-8
Codec ID : S_TEXT/UTF8
Codec ID/Info : UTF-8 Plain Text
Language : Russian
Default : No
Forced : No
Text #3
ID : 7
Format : UTF-8
Codec ID : S_TEXT/UTF8
Codec ID/Info : UTF-8 Plain Text
Language : English
Default : No
Forced : No
Скриншоты



[Профиль] [ЛС]
Показать сообщения:    
Ответить на тему

Текущее время: 18-Ноя 18:41

Часовой пояс: UTC + 3



Вы не можете начинать темы
Вы не можете отвечать на сообщения
Вы не можете редактировать свои сообщения
Вы не можете удалять свои сообщения
Вы не можете голосовать в опросах
Вы не можете прикреплять файлы к сообщениям
Вы не можете скачивать файлы