Мадагаскар - Трилогия / Madagascar - Trilogy (Эрик Дарнелл, Том МакГрат, Конрад Вернон) [2005, 2008, 2012, комедия, приключения, семейный, мультфильм, BDRip 1080p]

Ответить на тему
 
Автор Сообщение

fadaf9 ®

Пол: Мужской

Стаж: 6 лет 9 месяцев

Сообщений: 2142

Откуда: Таджикистан

Создавать темы 11-Авг-2014 12:00

[Цитировать]

--Мадагаскар / Madagascar--«Они не были рождены в дикой местности... Их перевезли туда...»-- Год выпуска: 2005
Страна: США
Жанр: Комедия, приключения, семейный, мультфильм
Продолжительность: 01:25:55
Перевод: Профессиональный (полное дублирование) [-Лицензия-]- Режиссер: Эрик Дарнелл, Том МакГрат
В ролях: Бен Стиллер, Крис Рок, Дэвид Швиммер, Джада Пинкетт Смит, Саша Барон Коэн, Седрик зе Энтертейнер, Энди Рихтер, Том МакГрат, Кристофер Найтс, Крис Миллер, Конрад Вернон, Эрик Дарнелл, Дэвид Кауджилл, Стефен Апостолина, Элиза Габриелли, Девика Парих, Дэвид П. Смит, Коуди Камерон, Боб Сагет- Описание:
Четверо изнеженных животных из Центрального зоопарка в Нью-Йорке — лев Алекс, зебра Марти, жираф Мелман и гиппопотамиха Глория — решаются на побег. Оказавшись после кораблекрушения на экзотическом острове Мадагаскар, населенном лемурами и поедающими их фоссами, путешественники с ужасом понимают, что с городскими привычками им придется распрощаться.
Здесь нет людей, любимых клеток, вкусной кормежки. Начинается шоу «Последний герой» только с животными — нашим друзьям нужно выжить в непривычной среде обитания, где на каждом шагу подстерегает опасность…
-

Рейтинг PG - рекомендуется присутствие родителей!- Качество: BDRip 1080p
Формат: MKV
Видео: AVC, 7279 Kbps, 1920x1080p, 23.976 fps
Аудио №1: DTS, 5.1, 755 kbps, 6 ch, 48.0 KHz - Russian (полное дублирование) [-Лицензия-]
Аудио №2: AC3, 5.1, 448 kbps, 6 ch, 48.0 KHz - Ukrainian (полное дублирование) [-Гаврилов-]
Аудио №3: DTS, 5.1, 1510 kbps, 6 ch, 48.0 KHz - English
Субтитры: Russian, English-
Знаете ли вы,что...

• На самом Мадагаскаре мультфильм был долгое время запрещен из-за сходства «самопровозглашенного короля Лемуров» Джулиана с целым рядом государственных деятелей, пришедших к власти на острове в результате переворотов.
• Одно из рабочих названий мультфильма — «Дикая жизнь».
• Пингвины, так сильно полюбившиеся многим зрителям, попали в проект совершенно случайно. Дело в том, что второй режиссер мультфильма Эрик Дарнелл придумал их гораздо раньше — при создании так и не вышедшего мультфильма «Rockumentary», повествующего о судьбе рок-коллектива, созданного из пингвинов. Включившись в работу над «Мадагаскаром», Эрик пропихнул свою идею в сюжетную линию мультфильма. Таким образом, пингвины переквалифицировались из рок-музыкантов в ретивых коммандос.
• На получение роли Глории претендовали Мадонна, Дженнифер Лопез и Гвен Стефани. В конечном итоге роль досталась Джаде Пинкетт Смит.
• В ходе выбора композитора проекта произошла рокировка: вместо Гарри Грегсона-Уильямса в проект пришел Ханс Циммер. Любопытно, что в ходе работы над фильмом «Царство небесное» (2005) произошла обратная замена: вместо Ханса композитором стал Гарри.
• Первоначальный вариант сценария описывал судьбу гуманистов, освобождающих животных из клеток.
• Режиссер Том МакГрат озвучил одного из пингвинов по кличке «Шкипер». При создании данного образа Том взял за основу голос его старого приятеля-композитора Шон Паттерсона.
• В ходе сцены, проходящей на территории Таймс-Сквер, в которой зебра Марти адресует свой вопрос полицейской лошади, на экране проскакивает логотип компании Hewlett-Packard. HP является официальным поставщиком компьютерной техники для анимационного подразделения студии DreamWorks.
• В эпизоде, где Алекс строит статую Свободы на Мадагаскаре, на ней находится волейбольный мяч Wilson, точно такой же, как в кинофильме «Изгой» (2000).
• Сцена, изображающая мечты Алекса о мясе, — это отсылка к фильму «Красота по-американски» (1999), в котором главному герою снятся парящие лепестки роз.
• Эпизод с разрушением Статуи Свободы на Мадагаскаре является отсылкой к фильму «Планета обезьян» (2001). Статуя также наполовину торчит над землей.
• Жилищем лемурам служит самолет Локхид Электра. Именно на самолете такой модели Амелия Эрхарт пыталась совершить кругосветный полет и пропала без вести в центральной части Тихого океана.
• В оригинальной версии, когда на Мадагаскаре Алекс и Марти бегут друг на друга для радостных объятий, но потом Алекс впадает в гнев, вспомнив, что они все попали на остров из-за Марти, Марти убегая говорит «Oh, Sugar Honey Ice Tea», казалось бы, ничего особенного, на самом деле, тут есть скрытое ругательство, если сложить первые буквы начиная со слова «Sugar», то получится слово «Shit». В русской же версии Марти здесь говорит «ЁКЛМН».
• Когда Алекс, Марти, Глория и Мелман сидят в ящиках, в которых их перевозят в их ящики попадает свет через верхние отверстия. Ошибка в том, что в ящик Глории свет также попадает через верхние отверстия, хотя это невозможно, т. к. над ней находятся ящики Алекса и Марти.
MediaInfo

General
Unique ID : 178873913498656230085460616747890651313 (0x8691DCD52AE7BEFD97B25FFA9B9230B1)
Complete name : H:\HD Мульты\Коллекции и сериалы\Мадагаскар - Трилогия\Madagascar.2005.BDRip 1080p.mkv
Format : Matroska
Format version : Version 4 / Version 2
File size : 6.12 GiB
Duration : 1h 25mn
Overall bit rate : 10.2 Mbps
Encoded date : UTC 2014-10-30 12:43:07
Writing application : mkvmerge v7.3.0 ('Nouages') 64bit built on Oct 22 2014 18:53:34
Writing library : libebml v1.3.0 + libmatroska v1.4.1
DURATION : 01:17:49.515000000
NUMBER_OF_FRAMES : 939
NUMBER_OF_BYTES : 40172
_STATISTICS_WRITING_APP : mkvmerge v7.3.0 ('Nouages') 64bit built on Oct 22 2014 18:53:34
_STATISTICS_WRITING_DATE_UTC : 2014-10-30 12:43:07
_STATISTICS_TAGS : BPS DURATION NUMBER_OF_FRAMES NUMBER_OF_BYTES
Video
ID : 1
Format : AVC
Format/Info : Advanced Video Codec
Format profile : High@L4.1
Format settings, CABAC : Yes
Format settings, ReFrames : 4 frames
Codec ID : V_MPEG4/ISO/AVC
Duration : 1h 25mn
Bit rate : 7 284 Kbps
Width : 1 920 pixels
Height : 1 080 pixels
Display aspect ratio : 16:9
Frame rate mode : Constant
Frame rate : 23.976 fps
Color space : YUV
Chroma subsampling : 4:2:0
Bit depth : 8 bits
Scan type : Progressive
Bits/(Pixel*Frame) : 0.147
Stream size : 4.37 GiB (71%)
Writing library : x264 core 65 r998M 6768543
Encoding settings : cabac=1 / ref=4 / deblock=1:2:1 / analyse=0x3:0x113 / me=umh / subme=7 / psy_rd=1.0:0.0 / mixed_ref=1 / me_range=16 / chroma_me=1 / trellis=2 / 8x8dct=1 / cqm=0 / deadzone=21,11 / chroma_qp_offset=-2 / threads=6 / nr=0 / decimate=1 / mbaff=0 / bframes=3 / b_pyramid=1 / b_adapt=1 / b_bias=0 / direct=3 / wpredb=1 / keyint=250 / keyint_min=25 / scenecut=40(pre) / rc=crf / crf=20.0 / qcomp=0.60 / qpmin=10 / qpmax=51 / qpstep=4 / vbv_maxrate=38000 / vbv_bufsize=30000 / ip_ratio=1.40 / pb_ratio=1.30 / aq=1:1.00
Language : English
Default : Yes
Forced : No
Audio #1
ID : 2
Format : DTS
Format/Info : Digital Theater Systems
Mode : 16
Format settings, Endianness : Big
Codec ID : A_DTS
Duration : 1h 25mn
Bit rate mode : Constant
Bit rate : 755 Kbps
Channel(s) : 6 channels
Channel positions : Front: L C R, Side: L R, LFE
Sampling rate : 48.0 KHz
Bit depth : 24 bits
Compression mode : Lossy
Stream size : 464 MiB (7%)
Title : DUB
Language : Russian
Default : Yes
Forced : No
Audio #2
ID : 3
Format : AC-3
Format/Info : Audio Coding 3
Mode extension : CM (complete main)
Format settings, Endianness : Big
Codec ID : A_AC3
Duration : 1h 25mn
Bit rate mode : Constant
Bit rate : 448 Kbps
Channel(s) : 6 channels
Channel positions : Front: L C R, Side: L R, LFE
Sampling rate : 48.0 KHz
Bit depth : 16 bits
Compression mode : Lossy
Stream size : 275 MiB (4%)
Title : AVO [-Гаврилов-]
Language : Russian
Default : No
Forced : No
Audio #3
ID : 4
Format : DTS
Format/Info : Digital Theater Systems
Mode : 16
Format settings, Endianness : Big
Codec ID : A_DTS
Duration : 1h 25mn
Bit rate mode : Constant
Bit rate : 1 510 Kbps
Channel(s) : 6 channels
Channel positions : Front: L C R, Side: L R, LFE
Sampling rate : 48.0 KHz
Bit depth : 24 bits
Compression mode : Lossy
Stream size : 928 MiB (15%)
Title : Original
Language : English
Default : No
Forced : No
Text #1
ID : 5
Format : UTF-8
Codec ID : S_TEXT/UTF8
Codec ID/Info : UTF-8 Plain Text
Language : Russian
Default : No
Forced : No
Text #2
ID : 6
Format : UTF-8
Codec ID : S_TEXT/UTF8
Codec ID/Info : UTF-8 Plain Text
Language : English
Default : No
Forced : No

Menu
00:00:00.000 : en:Opening Credits
00:05:33.124 : en:The Penguins
00:08:34.096 : en:Marty's Birthday
00:12:39.425 : en:The Talk of the Wild
00:17:55.532 : en:Marty in New York
00:22:31.516 : en:Grand Central Station
00:26:55.238 : en:The Boat to Kenya
00:30:57.313 : en:Madagascar
00:35:29.460 : en:Checking Into the Zoo
00:40:05.194 : en:The Locals
00:44:33.379 : en:Last Will
00:48:50.969 : en:The King
00:52:17.467 : en:Marty's Beach House
00:57:16.015 : en:Kidnapped
01:02:15.314 : en:Alec Begins to Lose It
01:06:55.136 : en:The Wild
01:12:35.726 : en:The Foosa
01:16:18.699 : en:A Snack for Alec
01:18:17.275 : en:The Boat Back
01:18:54.396 : en:End Credits
Скриншоты




-- --Мадагаскар 2 / Madagascar: Escape 2 Africa--«Осторожно, звери возвращаются!»-- Год выпуска: 2008
Страна: США
Жанр: комедия, приключения, семейный, мультфильм
Продолжительность: 01:29:24
Перевод: Профессиональный (полное дублирование) [-Лицензия-]- Режиссер: Эрик Дарнелл, Том МакГрат
В ролях: Бен Стиллер, Крис Рок, Дэвид Швиммер, Джада Пинкетт Смит, Саша Барон Коэн, Седрик «Развлекатель», Энди Рихтер, Берни Мак, Алек Болдуин, Шерри Шеперд- Описание:
В гостях хорошо, а дома лучше – так посчитали лев Алекс, зебра Марти, жираф Мелман и бегемотиха Глория и покинули чудесный остров Мадагаскар, куда их занесло в предыдущей части мультфильма. Они решили отправиться обратно в нью-йоркский зоопарк, но управляемая безумными пингвинами рухлядь под названием самолет не оправдала надежды пилотов и пассажиров на удачный перелет. Аварийную посадку пришлось совершить…в Африке. Друзья очутились в прямом смысле дома – в заповеднике, где живут им подобные особи и, в том числе, родители Алекса. Как пробудить в себе звериные инстинкты и сохранить при этом былые привычки? Задача не из легких…-

Рейтинг PG - рекомендуется присутствие родителей!- Качество: BDRip 1080p
Формат: MKV
Видео: AVC, 8894 kbps, 1920x1080p, 23.976 fps
Аудио №1: AC3, 5.1, 640 kbps, 6 ch, 48.0 KHz - Russian (полное дублирование) [-Лицензия-]
Аудио №2: DTS, 5.1, 1510 kbps, 6 ch, 48.0 KHz - English
Субтитры: Russian, English-
Знаете ли вы,что...

• В эпизоде, где пингвины чинят джипы, можно заметить вдалеке джип, очень напоминающий русский УАЗ-3159 «Барс» — длиннобазную версию «УАЗ-Хантер».
• Родимое пятно на лапе Алекса по форме напоминает африканский материк.
• Перед тем как начать работу над мультфильмом, команда аниматоров совершила поездку в Африку.
• Мультфильм посвящен памяти комика Берни Мака, который озвучил Зубу и не дожил до премьеры три месяца.
• В оригинале маму Алекса зовут Флори. В русском дубляже её называют просто Женщиной.
• В финском варианте мультфильма бегемота Мото-Мото озвучивает фронтмен группы HIM — Вилле Вало.
• Когда бабушка собрала всех туристов и развела костер, взяв факел в руки, она отбрасывала тень статуи Свободы.
• Грива Макунги похожа на причёску Суини Тодда.
• Сходство зебр — аллюзия на известную расистскую поговорку (Крис Рок, озвучивший Марти в оригинале — афроамериканец).
• Родимое пятно на лапе Алекса появляется только после приветствия Алексом животных Африки. До этого момента, а также в первом мультфильме, пятна на лапе не было.
MediaInfo

General
Unique ID : 215893978698204994205366823715295193568 (0xA26BAAF77B6B83F59C1945088DAFE9E0)
Format : Matroska
Format version : Version 4 / Version 2
File size : 6.90 GiB
Duration : 1h 29mn
Overall bit rate : 11.0 Mbps
Encoded date : UTC 2014-08-10 17:01:50
Writing application : mkvmerge v7.1.0 ('Good Love') 64bit built on Jul 27 2014 13:06:55
Writing library : libebml v1.3.0 + libmatroska v1.4.1
DURATION : 01:29:24.416000000
NUMBER_OF_FRAMES : 167638
NUMBER_OF_BYTES : 429153280
_STATISTICS_WRITING_APP : mkvmerge v7.1.0 ('Good Love') 64bit built on Jul 27 2014 13:06:55
_STATISTICS_WRITING_DATE_UTC : 2014-08-10 17:01:50
_STATISTICS_TAGS : BPS DURATION NUMBER_OF_FRAMES NUMBER_OF_BYTES
Video
ID : 1
Format : AVC
Format/Info : Advanced Video Codec
Format profile : High@L4.1
Format settings, CABAC : Yes
Format settings, ReFrames : 4 frames
Codec ID : V_MPEG4/ISO/AVC
Duration : 1h 29mn
Bit rate : 8 894 Kbps
Width : 1 920 pixels
Height : 1 080 pixels
Display aspect ratio : 16:9
Frame rate mode : Constant
Frame rate : 23.976 fps
Color space : YUV
Chroma subsampling : 4:2:0
Bit depth : 8 bits
Scan type : Progressive
Bits/(Pixel*Frame) : 0.179
Stream size : 5.42 GiB (79%)
Writing library : x264 core 66 r1093M 1df50b9
Encoding settings : cabac=1 / ref=4 / deblock=1:-2:-1 / analyse=0x3:0x113 / me=umh / subme=7 / psy_rd=1.0:0.0 / mixed_ref=1 / me_range=16 / chroma_me=1 / trellis=1 / 8x8dct=1 / cqm=0 / deadzone=21,11 / chroma_qp_offset=-2 / threads=6 / nr=0 / decimate=1 / mbaff=0 / bframes=16 / b_pyramid=1 / b_adapt=1 / b_bias=0 / direct=3 / wpredb=1 / keyint=250 / keyint_min=25 / scenecut=40(pre) / rc=2pass / bitrate=8894 / ratetol=1.0 / qcomp=0.60 / qpmin=10 / qpmax=51 / qpstep=4 / cplxblur=20.0 / qblur=0.5 / ip_ratio=1.40 / pb_ratio=1.30 / aq=1:1.00
Language : English
Default : Yes
Forced : No
DURATION : 01:29:24.368000000
NUMBER_OF_FRAMES : 128616
NUMBER_OF_BYTES : 5964472030
_STATISTICS_WRITING_APP : mkvmerge v7.1.0 ('Good Love') 64bit built on Jul 27 2014 13:06:55
_STATISTICS_WRITING_DATE_UTC : 2014-08-10 17:01:50
_STATISTICS_TAGS : BPS DURATION NUMBER_OF_FRAMES NUMBER_OF_BYTES
Audio #1
ID : 2
Format : AC-3
Format/Info : Audio Coding 3
Mode extension : CM (complete main)
Format settings, Endianness : Big
Codec ID : A_AC3
Duration : 1h 29mn
Bit rate mode : Constant
Bit rate : 640 Kbps
Channel(s) : 6 channels
Channel positions : Front: L C R, Side: L R, LFE
Sampling rate : 48.0 KHz
Bit depth : 16 bits
Compression mode : Lossy
Stream size : 409 MiB (6%)
Title : DUB
Language : Russian
Default : Yes
Forced : Yes
Audio #2
ID : 3
Format : DTS
Format/Info : Digital Theater Systems
Mode : 16
Format settings, Endianness : Big
Codec ID : A_DTS
Duration : 1h 29mn
Bit rate mode : Constant
Bit rate : 1 510 Kbps
Channel(s) : 6 channels
Channel positions : Front: L C R, Side: L R, LFE
Sampling rate : 48.0 KHz
Bit depth : 24 bits
Compression mode : Lossy
Stream size : 965 MiB (14%)
Title : Original
Language : English
Default : No
Forced : No
Text #1
ID : 4
Format : UTF-8
Codec ID : S_TEXT/UTF8
Codec ID/Info : UTF-8 Plain Text
Language : Russian
Default : No
Forced : No
Text #2
ID : 5
Format : UTF-8
Codec ID : S_TEXT/UTF8
Codec ID/Info : UTF-8 Plain Text
Language : English
Default : No
Forced : No

Menu
00:00:00.000 : en:Learn How to Fight
00:04:15.880 : en:Welcome to NY
00:06:46.614 : en:Bon Voyage
00:09:25.772 : en:Ready for Takeoff
00:15:51.951 : en:We're Here?
00:17:34.762 : en:Grit & Spit
00:20:26.934 : en:Me Alex
00:23:57.352 : en:Crack-a-lackin'
00:28:03.556 : en:This Is Where We Belong
00:30:58.898 : en:I Remember This
00:33:52.905 : en:We're Lost!
00:35:19.909 : en:Nice Fishy
00:38:15.418 : en:Choose Your Opponent
00:42:59.910 : en:Break A Leg
00:45:35.940 : en:Will It Fly?
00:49:22.918 : en:Two Days Left To Live
00:52:17.259 : en:Melman, Meet Moto-Moto
00:55:17.772 : en:Surprised To See Me?
00:57:59.809 : en:Hey! Barney!
01:03:28.638 : en:Our Son Has Come Back
01:06:33.948 : en:Melman's Not Dying
01:15:17.888 : en:Bad Kitty
01:19:48.073 : en:End Credits
Скриншоты




-- --Мадагаскар 3 / Madagascar 3: Europe's Most Wanted-- Год выпуска: 2012
Страна: США
Жанр: мультфильм, комедия, приключения, семейный
Продолжительность: 01:33:24
Перевод: Профессиональный (полное дублирование) [-Лицензия-]- Режиссер: Эрик Дарнелл, Том МакГрат, Конрад Вернон
В ролях: Бен Стиллер, Крис Рок, Дэвид Швиммер, Джада Пинкетт Смит, Саша Барон Коэн, Седрик «Развлекатель», Энди Рихтер, Фрэнсис МакДорманд, Брайан Крэнстон, Мартин Шорт- Описание:
Лев Алекс, зебра Марти, гиппопотамиха Глория и жираф Мелман, а также король Джулиан, Морис, Морт и Пингвины все еще пытаются вернуться в Нью-Йорк. На этот раз их путь пройдет через Европу, где они откроют свой цирк. -

Рейтинг PG - рекомендуется присутствие родителей!- Качество: BDRip 1080p
Формат: MKV
Видео: AVC, 14 Mbps, 1920x1080p, 23.976 fps
Аудио №1: AC3, 5.1, 640 kbps, 6 ch, 48.0 KHz - Профессиональный (полное дублирование) [-Лицензия-]
Аудио №2: AC3, 5.1, 640 kbps, 6 ch, 48.0 KHz - English
Субтитры: Russian, English-
Знаете ли вы,что...

• Название судна в последних кадрах фильма — «Mal De Mer», что в переводе с французского означает «Морская болезнь».
• Капитан Шантель Дюбуа поет для своих приспешников «Non, je ne regrette rien» в течение минуты. Это французская песня, получившая известность после того, как в 1960 году ее записала Эдит Пиаф. Пиаф посвятила запись этой песни французскому отряду иностранных волонтеров, которые до сих пор поют ее на парадах. В соответствии с реакцией мужчин на эту песню, предполагается, что все они служат или служили в этом отряде.
• Когда капитан Шантель Дюбуа распечатывает информацию из своего поиска, персонаж за кадром говорит, что слышит, как начал работать лазерный принтер. Показывают струйный принтер, а звук, использованный для него, взят от матричного принтера.
MediaInfo

General
Unique ID : 211920646416986530790895927700857459308 (0x9F6E6E8F7AFC82119201DD0151E2926C)
Format : Matroska
Format version : Version 4 / Version 2
File size : 9.97 GiB
Duration : 1h 33mn
Overall bit rate : 15.3 Mbps
Encoded date : UTC 2014-08-11 08:00:19
Writing application : mkvmerge v7.1.0 ('Good Love') 64bit built on Jul 27 2014 13:06:55
Writing library : libebml v1.3.0 + libmatroska v1.4.1
DURATION : 01:33:24.192000000
NUMBER_OF_FRAMES : 175131
NUMBER_OF_BYTES : 448335360
_STATISTICS_WRITING_APP : mkvmerge v7.1.0 ('Good Love') 64bit built on Jul 27 2014 13:06:55
_STATISTICS_WRITING_DATE_UTC : 2014-08-11 08:00:19
_STATISTICS_TAGS : BPS DURATION NUMBER_OF_FRAMES NUMBER_OF_BYTES
Video
ID : 1
Format : AVC
Format/Info : Advanced Video Codec
Format profile : High@L4.1
Format settings, CABAC : Yes
Format settings, ReFrames : 4 frames
Codec ID : V_MPEG4/ISO/AVC
Bit rate : 14.0 Mbps
Width : 1 920 pixels
Height : 1 080 pixels
Display aspect ratio : 16:9
Frame rate mode : Variable
Original frame rate : 23.976 fps
Color space : YUV
Chroma subsampling : 4:2:0
Bit depth : 8 bits
Scan type : Progressive
Bits/(Pixel*Frame) : 0.282
Writing library : x264 core 128 r2216+688+33 06dac27 tMod+MixAQ [8-bit@4:2:0 X86_64]
Encoding settings : cabac=1 / ref=4 / deblock=1:-1:-1 / analyse=0x3:0x113 / me=umh / subme=11 / psy=1 / fade_compensate=0.00 / psy_rd=0.75:0.00 / mixed_ref=1 / me_range=48 / chroma_me=1 / trellis=2 / 8x8dct=1 / cqm=0 / deadzone=21,11 / fast_pskip=0 / chroma_qp_offset=-2 / threads=18 / lookahead_threads=3 / sliced_threads=0 / nr=0 / decimate=0 / interlaced=0 / bluray_compat=0 / constrained_intra=0 / fgo=0 / bframes=8 / b_pyramid=2 / b_adapt=2 / b_bias=0 / direct=3 / weightb=1 / open_gop=0 / weightp=2 / keyint=240 / keyint_min=24 / scenecut=40 / intra_refresh=0 / rc_lookahead=240 / rc=2pass / mbtree=1 / bitrate=14000 / ratetol=1.0 / qcomp=0.70 / qpmin=0 / qpmax=69 / qpstep=4 / cplxblur=20.0 / qblur=0.5 / ip_ratio=1.10 / aq=4 / aq-strength=1.10 / aq-sensitivity=10.00 / aq-ifactor=1.00 / aq-pfactor=1.00 / aq-bfactor=1.00 / aq2=0
Language : English
Default : Yes
Forced : No
DURATION : 01:33:24.182000000
NUMBER_OF_FRAMES : 134366
NUMBER_OF_BYTES : 9806959291
_STATISTICS_WRITING_APP : mkvmerge v7.1.0 ('Good Love') 64bit built on Jul 27 2014 13:06:55
_STATISTICS_WRITING_DATE_UTC : 2014-08-11 08:00:19
_STATISTICS_TAGS : BPS DURATION NUMBER_OF_FRAMES NUMBER_OF_BYTES
Audio #1
ID : 2
Format : AC-3
Format/Info : Audio Coding 3
Mode extension : CM (complete main)
Format settings, Endianness : Big
Codec ID : A_AC3
Duration : 1h 33mn
Bit rate mode : Constant
Bit rate : 640 Kbps
Channel(s) : 6 channels
Channel positions : Front: L C R, Side: L R, LFE
Sampling rate : 48.0 KHz
Bit depth : 16 bits
Compression mode : Lossy
Stream size : 428 MiB (4%)
Title : DUB
Language : Russian
Default : Yes
Forced : No
Audio #2
ID : 3
Format : AC-3
Format/Info : Audio Coding 3
Mode extension : CM (complete main)
Format settings, Endianness : Big
Codec ID : A_AC3
Duration : 1h 33mn
Bit rate mode : Constant
Bit rate : 640 Kbps
Channel(s) : 6 channels
Channel positions : Front: L C R, Side: L R, LFE
Sampling rate : 48.0 KHz
Bit depth : 16 bits
Compression mode : Lossy
Stream size : 428 MiB (4%)
Title : Original
Language : English
Default : No
Forced : No
Text #1
ID : 4
Format : UTF-8
Codec ID : S_TEXT/UTF8
Codec ID/Info : UTF-8 Plain Text
Language : English
Default : No
Forced : No
Text #2
ID : 5
Format : UTF-8
Codec ID : S_TEXT/UTF8
Codec ID/Info : UTF-8 Plain Text
Language : English
Default : No
Forced : No

Menu
00:00:00.000 : en:Nightmare Again
00:05:16.316 : en:Penguins & King Of Versailles
00:10:51.985 : en:Hunt The King Of The Beasts
00:19:46.310 : en:Escape With The Circus Zaragoza
00:27:49.835 : en:Julian In Love
00:32:50.552 : en:"Stupido"
00:40:34.974 : en:"He Fly Too Close To The sun"
00:46:51.976 : en:Beginning Of A New Circus
00:52:00.534 : en:Start Repetition
00:58:55.157 : en:DuBous Close
01:00:23.411 : en:Vitaly Success
01:04:19.314 : en:Succesful Performance
01:10:59.672 : en:Return To The Zoo
01:15:30.317 : en:Operation "Afro Circus Rescue"
01:21:09.782 : en:ReUnion With The Circus
01:22:48.630 : en:End Credits
Скриншоты




[Профиль] [ЛС]

[VIP]ABDURAXA[VIP]

Пол: Мужской

Стаж: 4 года 2 месяца

Сообщений: 9107

Создавать темы 10-Ноя-2014 10:35 (спустя 2 месяца 29 дней)

[Цитировать]

Источник можно ? А то по качеству рипы очень слабые
[Профиль] [ЛС]

fadaf9 ®

Пол: Мужской

Стаж: 6 лет 9 месяцев

Сообщений: 2142

Откуда: Таджикистан

Создавать темы 10-Ноя-2014 13:17 (спустя 2 часа 42 минуты)

[Цитировать]

[VIP]ABDURAXA[VIP]
Честно, не помню уже, откуда они у меня.
добавлено спустя 1 час 45 минут:
Источник можно ? А то по качеству рипы очень слабые
А не, вспомнил, первые два с рутрекера, третий с nnm-club. Рипы лучшего качества нужно делать самостоятельно. Лучший рип первой части, что я нашел, у второй и третьей части рипов лучше, чем те, что у меня в наличии я не нашел, хотя, может они и есть.
[Профиль] [ЛС]
Показать сообщения:    
Ответить на тему

Текущее время: 19-Ноя 11:32

Часовой пояс: UTC + 3



Вы не можете начинать темы
Вы не можете отвечать на сообщения
Вы не можете редактировать свои сообщения
Вы не можете удалять свои сообщения
Вы не можете голосовать в опросах
Вы не можете прикреплять файлы к сообщениям
Вы не можете скачивать файлы