Виктор / Viktor (Филиппе Мартинес) [2014, боевик, триллер , TS]

Ответить на тему
 
Автор Сообщение

[VIP]ABDURAXA[VIP] ®

Пол: Мужской

Стаж: 4 года 10 месяцев

Сообщений: 9146

Создавать темы 11-Сен-2014 19:55

[Цитировать]

Год выпуска: 2014
Страны: Франция , Россия
Жанры: боевик, триллер
Продолжительность: 01:33:56
Перевод: Профессиональный (дублированный)- Режиссер: Филиппе Мартинес- В ролях: Жерар Депардье / Gerard Depardieu (Victor Lambert), Элизабет Херли / Elizabeth Hurley (Alexandra Ivanov), Евгения Ахременко (Plutova), Эли Данкер / Eli Danker (Souliman), Фредерик Дюкастель / Frédéric Ducastel (Bad guy, shooter), Жан Баптисте Фильон / Jean Baptiste Fillon (Jeremy), Денис Карасев , Полина Кузминская (Katerina)
- В центре сюжета история бывшего гангстера Виктора Ламбера, специализировавшегося на похищении произведений искусства. Когда-то он жил в России и с тех пор любит эту страну, а также свою бывшую сообщницу Александру Иванову. Проведя пятнадцать лет за решеткой во Франции, Виктор Ламбер возвращается в Москву, чтобы отомстить за смерть своего сына, убитого контрабандистами бриллиантов. Верная подруга Александра помогает ему в этом деле.- -Бюджет: $10 000 000
Сборы в России: $129 356
Зрители: Россия 18.4 тыс.
Премьера (РФ): 4 сентября 2014, «Парадиз»
Рейтинг MPAA: Лицам до 17 лет обязательно присутствие взрослого- Качество: TS
Формат: AVI
Видео кодек: XviD
Аудио кодек: AC3
Видео: 720x320 (2.25:1), 29.970 fps, XviD, 1 882 Kbps
Аудио: AC3, 192 Kbps, 48.0 KHz, 2 ch| -
МедиаИнфо
General
Complete name                    : viktor.2014.TS.tajfile.tj.avi
Format                           : AVI
Format/Info                      : Audio Video Interleave
File size                        : 1.37 GiB
Duration                         : 1h 33mn
Overall bit rate                 : 2 086 Kbps
Writing application              : VirtualDubMod 1.5.10.3 | www.virtualdub-fr.org || (build 2550/release)
Writing library                  : VirtualDubMod build 2550/release
Video
ID                               : 0
Format                           : MPEG-4 Visual
Format profile                   : Advanced Simple@L5
Format settings, BVOP            : Yes
Format settings, QPel            : No
Format settings, GMC             : No warppoints
Format settings, Matrix          : Default (H.263)
Codec ID                         : XVID
Codec ID/Hint                    : XviD
Duration                         : 1h 33mn
Bit rate                         : 1 882 Kbps
Width                            : 720 pixels
Height                           : 320 pixels
Display aspect ratio             : 2.25:1
Frame rate                       : 29.970 fps
Color space                      : YUV
Chroma subsampling               : 4:2:0
Bit depth                        : 8 bits
Scan type                        : Progressive
Bits/(Pixel*Frame)               : 0.273
Stream size                      : 1.24 GiB (90%)
Writing library                  : XviD 73
Audio
ID                               : 1
Format                           : AC-3
Format/Info                      : Audio Coding 3
Mode extension                   : CM (complete main)
Codec ID                         : 2000
Duration                         : 1h 33mn
Bit rate mode                    : Constant
Bit rate                         : 192 Kbps
Channel(s)                       : 2 channels
Channel positions                : Front: L R
Sampling rate                    : 48.0 KHz
Bit depth                        : 16 bits
Stream size                      : 129 MiB (9%)
Alignment                        : Split accross interleaves
Interleave, duration             : 33 ms (1.00 video frame)
Interleave, preload duration     : 500 ms
Скриншоты

[Профиль] [ЛС]

[VIP]ABDURAXA[VIP] ®

Пол: Мужской

Стаж: 4 года 10 месяцев

Сообщений: 9146

Создавать темы 11-Сен-2014 19:55 (спустя 25 секунд)

[Цитировать]

- - - -
[Профиль] [ЛС]

jigaritto

Пол: Мужской

Стаж: 3 года 10 месяцев

Сообщений: 141

Создавать темы 11-Сен-2014 21:18 (спустя 1 час 23 минуты)

[Цитировать]

bachaho saiti tajfile.tj droe hami kino hastai
[Профиль] [ЛС]

[VIP]ABDURAXA[VIP] ®

Пол: Мужской

Стаж: 4 года 10 месяцев

Сообщений: 9146

Создавать темы 11-Сен-2014 21:33 (спустя 14 минут)

[Цитировать]

bachaho saiti tajfile.tj droe hami kino hastai
Конечно хаста, ма хами кинора да tajfile партофтум *ROFL*
[Профиль] [ЛС]

jigaritto

Пол: Мужской

Стаж: 3 года 10 месяцев

Сообщений: 141

Создавать темы 12-Сен-2014 18:18 (спустя 20 часов)

[Цитировать]

hay digaroda razdacha kadan t hap k
[Профиль] [ЛС]

[VIP]ABDURAXA[VIP] ®

Пол: Мужской

Стаж: 4 года 10 месяцев

Сообщений: 9146

Создавать темы 12-Сен-2014 18:59 (спустя 40 минут)

[Цитировать]

hay digaroda razdacha kadan t hap k
Ай т бо прсм ? кокс те 8)
[Профиль] [ЛС]

Erajik

Пол: Мужской

Стаж: 8 лет 10 месяцев

Сообщений: 6663

Откуда: Italy

Создавать темы 14-Сен-2014 16:57 (спустя 1 день 21 час)

[Цитировать]

jigaritto Пиши кириллицей!
[Профиль] [ЛС]

Создавать темы 27-Июл-2015 14:54 (спустя 10 месяцев 12 дней)

Топик был перенесен из форума Боевики в форум Архив

Mithas204
 
Показать сообщения:    
Ответить на тему

Текущее время: 20-Июл 02:25

Часовой пояс: UTC + 3



Вы не можете начинать темы
Вы не можете отвечать на сообщения
Вы не можете редактировать свои сообщения
Вы не можете удалять свои сообщения
Вы не можете голосовать в опросах
Вы не можете прикреплять файлы к сообщениям
Вы не можете скачивать файлы