Лило и Стич - Коллекция / Lilo & Stitch - Collection (Дин ДеБлуа, Крис Сандерс, Майкл ЛаБаш, Энтони Леондис, Тони Крэйг, Роберт Ганнавей) [2002-2006, мультфильм, фантастика, комедия, приключения, BDRip 1080p, WEB-DL 1080p]

Ответить на тему
 
Автор Сообщение

fadaf9 ®

Пол: Мужской

Стаж: 6 лет 9 месяцев

Сообщений: 2142

Откуда: Таджикистан

Создавать темы 09-Сен-2014 18:47

[Цитировать]

--Лило и Стич / Lilo & Stitch--«He's coming to our galaxy»-- Год выпуска: 2002
Страна: США
Жанр: мультфильм, фантастика, комедия, приключения, семейный
Продолжительность: 01:25:15
Перевод: Профессиональный (полное дублирование) [-Лицензия-]- Режиссер: Дин ДеБлуа, Крис Сандерс
В ролях: Дэйви Чейз, Крис Сандерс, Тиа Каррере, Дэвид Огден Стайерз, Кевин МакДональд, Винг Реймз, Зои Колдуэлл, Джейсон Скотт Ли- Описание:
Лило — это маленькая девочка, живущая на Гавайах. Она сирота и живет вместе со своей старшей сестрой Нани. Лило любит всех животных, но больше всего она подружилась с собачкой по имени Стич, которая на самом деле совсем не собачка, а — замаскированный инопланетянин.Дело было так: некоего преступника по имени Стич переправляли в интергалактическую тюрьму, но ему удалось ускользнуть и приземлиться на Земле, где он и встретил Лило. И тут Стич прикинулся собакой, дабы скрыться от преследования интергалактической полиции. Теперь Стич учится тому, чему не был обучен — заботе о других…-

Рейтинг PG - рекомендуется присутствие родителей!- Качество: BDRip 1080p
Формат: MKV
Видео: AVC, 6320 Kbps, 1820x1080p, 23.976 fps
Аудио №1: AC3, 5.1, 448 kbps, 6 ch, 48.0 KHz - Russian (полное дублирование) [-Лицензия-]
Аудио №2: AC3, 2.0, 192 kbps, 2 ch, 48.0 KHz - Ukrainian (полное дублирование) [-Гаврилов-]
Аудио №3: AC3, 5.1, 384 kbps, 6 ch, 48.0 KHz - English
Субтитры: Russian, English-
Знаете ли вы,что...

★ Мультфильм имел продолжения, которые не имели успеха по сравнению с оригиналом.
★ Как рассказывал автор мультфильма Крис Сандерс, при его создании использовалось огромное количество акварельных набросков-фонов.
★ Мультфильм насыщен песнями Элвиса Пресли.
★ Среди удалённых сцен был эпизод, где Стич похищает самолёт «боинг» (вырезан после событий 11-го сентября) и где он невольно становится причиной гибели рыбки Лило.
★ Первоначально номер Стича планировался как 666.
★ В качестве рекламных роликов демонстрировались эпизоды из предыдущих фильмов Диснея ("Русалочка» (1989), «Красавица и чудовище» (1991), «Король Лев» (1994), «Аладдин» (1992)), в которых Стич вмешивался в ход событий фильма.
★ Нетрудно догадаться, что над мультфильмом работали создатели мультфильма «Мулан» (1998). В спальне Нанни висит постер этого мультфильма, на одном из ресторанов вывеска «Mulan Wok», в собачьем приюте — плакат с собакой, напоминающей Маленького Братца.
MediaInfo

General
Unique ID : 178631895370697963181416259414346817971 (0x8663406AEF824A30BEADC5D39521E1B3)
Format : Matroska
Format version : Version 4 / Version 2
File size : 4.38 GiB
Duration : 1h 25mn
Overall bit rate : 7 338 Kbps
Encoded date : UTC 2014-08-21 13:21:20
Writing application : mkvmerge v7.1.0 ('Good Love') 64bit built on Jul 27 2014 13:06:55
Writing library : libebml v1.3.0 + libmatroska v1.4.1
DURATION : 01:16:53.900000000
NUMBER_OF_FRAMES : 949
NUMBER_OF_BYTES : 28069
_STATISTICS_WRITING_APP : mkvmerge v7.1.0 ('Good Love') 64bit built on Jul 27 2014 13:06:55
_STATISTICS_WRITING_DATE_UTC : 2014-08-21 13:21:20
_STATISTICS_TAGS : BPS DURATION NUMBER_OF_FRAMES NUMBER_OF_BYTES
Video
ID : 1
Format : AVC
Format/Info : Advanced Video Codec
Format profile : High@L4.1
Format settings, CABAC : Yes
Format settings, ReFrames : 4 frames
Codec ID : V_MPEG4/ISO/AVC
Duration : 1h 25mn
Bit rate : 6 320 Kbps
Width : 1 820 pixels
Height : 1 080 pixels
Display aspect ratio : 1.685
Frame rate mode : Constant
Frame rate : 23.976 fps
Color space : YUV
Chroma subsampling : 4:2:0
Bit depth : 8 bits
Scan type : Progressive
Bits/(Pixel*Frame) : 0.134
Stream size : 3.68 GiB (84%)
Writing library : x264 core 133 r2334 a3ac64b
Encoding settings : cabac=1 / ref=4 / deblock=1:0:0 / analyse=0x3:0x133 / me=umh / subme=10 / psy=1 / psy_rd=1.00:0.00 / mixed_ref=1 / me_range=32 / chroma_me=1 / trellis=2 / 8x8dct=1 / cqm=0 / deadzone=21,11 / fast_pskip=0 / chroma_qp_offset=-2 / threads=6 / lookahead_threads=1 / sliced_threads=0 / nr=0 / decimate=1 / interlaced=0 / bluray_compat=0 / constrained_intra=0 / bframes=10 / b_pyramid=2 / b_adapt=2 / b_bias=0 / direct=3 / weightb=1 / open_gop=0 / weightp=2 / keyint=240 / keyint_min=24 / scenecut=40 / intra_refresh=0 / rc_lookahead=50 / rc=2pass / mbtree=0 / bitrate=6320 / ratetol=2.0 / qcomp=1.00 / qpmin=0 / qpmax=51 / qpstep=4 / cplxblur=20.0 / qblur=0.5 / vbv_maxrate=50000 / vbv_bufsize=62500 / nal_hrd=none / ip_ratio=1.40 / pb_ratio=1.30 / aq=1:1.00
Language : English
Default : Yes
Forced : No
Color primaries : BT.709
Transfer characteristics : BT.709
Matrix coefficients : BT.709
DURATION : 01:25:14.568000000
NUMBER_OF_FRAMES : 122627
NUMBER_OF_BYTES : 4042554990
_STATISTICS_WRITING_APP : mkvmerge v7.1.0 ('Good Love') 64bit built on Jul 27 2014 13:06:55
_STATISTICS_WRITING_DATE_UTC : 2014-08-21 13:21:20
_STATISTICS_TAGS : BPS DURATION NUMBER_OF_FRAMES NUMBER_OF_BYTES
Audio #1
ID : 2
Format : AC-3
Format/Info : Audio Coding 3
Mode extension : CM (complete main)
Format settings, Endianness : Big
Codec ID : A_AC3
Duration : 1h 25mn
Bit rate mode : Constant
Bit rate : 448 Kbps
Channel(s) : 6 channels
Channel positions : Front: L C R, Side: L R, LFE
Sampling rate : 48.0 KHz
Bit depth : 16 bits
Compression mode : Lossy
Stream size : 274 MiB (6%)
Title : DUB
Language : Russian
Default : Yes
Forced : No
Audio #2
ID : 3
Format : AC-3
Format/Info : Audio Coding 3
Mode extension : CM (complete main)
Format settings, Endianness : Big
Codec ID : A_AC3
Duration : 1h 25mn
Bit rate mode : Constant
Bit rate : 192 Kbps
Channel(s) : 2 channels
Channel positions : Front: L R
Sampling rate : 48.0 KHz
Bit depth : 16 bits
Compression mode : Lossy
Stream size : 117 MiB (3%)
Title : DUB
Language : Ukrainian
Default : No
Forced : No
Audio #3
ID : 4
Format : AC-3
Format/Info : Audio Coding 3
Mode extension : CM (complete main)
Format settings, Endianness : Big
Codec ID : A_AC3
Duration : 1h 25mn
Bit rate mode : Constant
Bit rate : 384 Kbps
Channel(s) : 6 channels
Channel positions : Front: L C R, Side: L R, LFE
Sampling rate : 48.0 KHz
Bit depth : 16 bits
Compression mode : Lossy
Stream size : 235 MiB (5%)
Title : Original
Language : English
Default : No
Forced : No
Text #1
ID : 5
Format : UTF-8
Codec ID : S_TEXT/UTF8
Codec ID/Info : UTF-8 Plain Text
Language : Russian
Default : No
Forced : No
Text #2
ID : 6
Format : UTF-8
Codec ID : S_TEXT/UTF8
Codec ID/Info : UTF-8 Plain Text
Language : English
Default : No
Forced : No

Menu
00:00:00.000 : en:Jumba's Trial
00:02:57.300 : en:Stitch Escapes
00:06:35.184 : en:"Where Is He?"
00:08:30.593 : en:Jumba's Deal
00:09:53.300 : en:Main Title ("He Mele No Lilo")
00:14:56.604 : en:Cobra's Visit
00:20:00.240 : en:Fight
00:21:33.458 : en:Bedtime Wish
00:23:55.724 : en:Stitch Meets Truck
00:24:55.451 : en:Lilo Adopts Stitch
00:28:42.636 : en:Island Escape
00:30:27.909 : en:Dysfunctional Angel
00:31:45.361 : en:Luau Dinner
00:35:01.474 : en:New Puppy Comes Home
00:36:39.070 : en:Bedtime
00:39:30.826 : en:Ugly Duckling
00:41:01.125 : en:Model Citizen
00:46:06.179 : en:Surfing ("Hawaiian Roller Coaster Ride")
00:49:35.514 : en:Stitch Drowns
00:50:27.023 : en:Aftermath on the Beach
00:52:08.958 : en:Aloha 'oe
00:55:12.891 : en:"I'm Lost"
00:55:50.347 : en:"We're Fired"
00:57:20.061 : en:Jumba Attacks
01:02:35.001 : en:Nani Loses Custody
01:03:42.568 : en:Ganta Captures Lilo
01:05:08.570 : en:'ohana Means Family
01:07:54.695 : en:Rescue
01:13:55.764 : en:"This Is My Family"
01:17:20.091 : en:Hawaii Forever/End Credits
Скриншоты









-- --Лило и Стич 2: Большая проблема Стича / Lilo & Stitch 2: Stitch Has a Glitch-- Год выпуска: 2005
Страна: США
Жанр: мультфильм, фантастика, драма, комедия, семейный
Продолжительность: 01:08:04
Перевод: Профессиональный (полное дублирование) [-Лицензия-]- Режиссер: Майкл ЛаБаш, Энтони Леондис
В ролях: Крис Сандерс, Дакота Фаннинг, Тиа Каррере, Дэвид Огден Стайерз, Кевин МакДональд, Кунева Моок, Джейсон Скотт Ли, Уильям Дж. Капарелла- Описание:
Стич помогает Лило пойти по стопам ее матери в подготовке к большому танцевальному конкурсу на острове. Жизнь кажется идеальной, пока Стич не попадает в затруднительное положение, и тогда все идет наперекосяк. И вот пришла пора Лило, Нани, Джамба и их всей большой семье последовать законам «Оханы» и прийти на помощь маленькому веселому другу.-

Рейтинг PG - рекомендуется присутствие родителей!- Качество: BDRip 1080p
Формат: MKV
Видео: AVC, 8300 kbps, 1920x1080p, 23.976 fps
Аудио №1: AC3, 5.1, 448 kbps, 6 ch, 48.0 KHz - Russian (полное дублирование) [-Лицензия-]
Аудио №2: AC3, 5.1, 448 kbps, 6 ch, 48.0 KHz - English
Субтитры: Russian, English-
MediaInfo

General
Unique ID : 195281709788146582912286110349731183003 (0x92E9E3A5B491ABB3876E03A2884A399B)
Format : Matroska
Format version : Version 4 / Version 2
File size : 4.38 GiB
Duration : 1h 8mn
Overall bit rate : 9 182 Kbps
Encoded date : UTC 2014-08-24 21:34:47
Writing application : mkvmerge v7.1.0 ('Good Love') 64bit built on Jul 27 2014 13:06:55
Writing library : libebml v1.3.0 + libmatroska v1.4.1
DURATION : 00:59:41.660000000
NUMBER_OF_FRAMES : 775
NUMBER_OF_BYTES : 26651
_STATISTICS_WRITING_APP : mkvmerge v7.1.0 ('Good Love') 64bit built on Jul 27 2014 13:06:55
_STATISTICS_WRITING_DATE_UTC : 2014-08-24 21:34:47
_STATISTICS_TAGS : BPS DURATION NUMBER_OF_FRAMES NUMBER_OF_BYTES
Video
ID : 1
Format : AVC
Format/Info : Advanced Video Codec
Format profile : High@L4.1
Format settings, CABAC : Yes
Format settings, ReFrames : 4 frames
Codec ID : V_MPEG4/ISO/AVC
Bit rate : 8 300 Kbps
Width : 1 920 pixels
Height : 1 080 pixels
Display aspect ratio : 16:9
Frame rate mode : Variable
Original frame rate : 23.976 fps
Color space : YUV
Chroma subsampling : 4:2:0
Bit depth : 8 bits
Scan type : Progressive
Bits/(Pixel*Frame) : 0.167
Writing library : x264 core 133 r2334 a3ac64b
Encoding settings : cabac=1 / ref=4 / deblock=1:0:0 / analyse=0x3:0x133 / me=umh / subme=10 / psy=1 / psy_rd=1.00:0.00 / mixed_ref=1 / me_range=32 / chroma_me=1 / trellis=2 / 8x8dct=1 / cqm=0 / deadzone=21,11 / fast_pskip=0 / chroma_qp_offset=-2 / threads=6 / lookahead_threads=1 / sliced_threads=0 / nr=0 / decimate=1 / interlaced=0 / bluray_compat=0 / constrained_intra=0 / bframes=10 / b_pyramid=2 / b_adapt=2 / b_bias=0 / direct=3 / weightb=1 / open_gop=0 / weightp=2 / keyint=240 / keyint_min=24 / scenecut=40 / intra_refresh=0 / rc_lookahead=50 / rc=2pass / mbtree=0 / bitrate=8300 / ratetol=2.0 / qcomp=1.00 / qpmin=0 / qpmax=51 / qpstep=4 / cplxblur=20.0 / qblur=0.5 / vbv_maxrate=50000 / vbv_bufsize=62500 / nal_hrd=none / ip_ratio=1.40 / pb_ratio=1.30 / aq=1:1.00
Language : English
Default : Yes
Forced : No
Color primaries : BT.709
Transfer characteristics : BT.709
Matrix coefficients : BT.709
DURATION : 01:08:03.872000000
NUMBER_OF_FRAMES : 97915
NUMBER_OF_BYTES : 4238491065
_STATISTICS_WRITING_APP : mkvmerge v7.1.0 ('Good Love') 64bit built on Jul 27 2014 13:06:55
_STATISTICS_WRITING_DATE_UTC : 2014-08-24 21:34:47
_STATISTICS_TAGS : BPS DURATION NUMBER_OF_FRAMES NUMBER_OF_BYTES
Audio #1
ID : 2
Format : AC-3
Format/Info : Audio Coding 3
Mode extension : CM (complete main)
Format settings, Endianness : Big
Codec ID : A_AC3
Duration : 1h 8mn
Bit rate mode : Constant
Bit rate : 448 Kbps
Channel(s) : 6 channels
Channel positions : Front: L C R, Side: L R, LFE
Sampling rate : 48.0 KHz
Bit depth : 16 bits
Compression mode : Lossy
Stream size : 219 MiB (5%)
Title : DUB
Language : Russian
Default : Yes
Forced : No
Audio #2
ID : 3
Format : AC-3
Format/Info : Audio Coding 3
Mode extension : CM (complete main)
Format settings, Endianness : Big
Codec ID : A_AC3
Duration : 1h 8mn
Bit rate mode : Constant
Bit rate : 448 Kbps
Channel(s) : 6 channels
Channel positions : Front: L C R, Side: L R, LFE
Sampling rate : 48.0 KHz
Bit depth : 16 bits
Compression mode : Lossy
Stream size : 219 MiB (5%)
Title : Original
Language : English
Default : No
Forced : No
Text #1
ID : 4
Format : UTF-8
Codec ID : S_TEXT/UTF8
Codec ID/Info : UTF-8 Plain Text
Language : Russian
Default : No
Forced : No
Text #2
ID : 5
Format : UTF-8
Codec ID : S_TEXT/UTF8
Codec ID/Info : UTF-8 Plain Text
Language : English
Default : No
Forced : No

Menu
00:00:00.000 : en:Analyzing Stitch
00:05:29.704 : en:A New Competition
00:12:34.879 : en:Family Fun Night
00:18:14.426 : en:A Problem With 626
00:21:57.149 : en:Inspiration From The King
00:27:41.618 : en:Some Assembly Required
00:37:19.570 : en:All Good Now?
00:41:01.500 : en:Another Work Of Genius
00:45:05.244 : en:A Little More Action
00:47:55.747 : en:May Day!
00:55:28.325 : en:Reunited
01:01:12.251 : en:End Credits
Скриншоты








-- --Новые приключения Стича / Stitch! The Movie-- Год выпуска: 2003
Страна: США
Жанр: мультфильм, комедия, приключения, семейный
Продолжительность: 01:00:24
Перевод: Профессиональный (полное дублирование) [-Лицензия-]- Режиссер: Тони Крэйг, Роберт Ганнавей
В ролях: Дэйви Чейз, Крис Сандерс, Тиа Каррере, Дэвид Огден Стайерз, Кевин МакДональд, Винг Реймз, Ди Брэдли Бейкер, Кевин Майкл Ричардсон, Джефф Беннетт, Кори Бертон- Описание:
Мы знаем, что Стич был «Экспериментальным Образцом 626-м» — но интересовала ли Вас когда-нибудь судьба первых 625? На этот раз речь пойдет о новых шутках и проказах веселого и непоседливого инопланетянина, который свалился на планету Земля и прямиком угодил в семью Лило. Теперь Стич, Пликли и Джамба — члены одной семьи.
Но Лило и Стич еще не знают, что Джамба тайно отправил на Землю всех 625 инопланетных предшественников… и злобный Капитан Ганту намеревается отправить их всех обратно. Все зависит от Лило и Стича, смогут ли они спасти свою инопланетную родню?
-

Рейтинг PG - рекомендуется присутствие родителей!- Качество: WEB-DL 1080p
Формат: MKV
Видео: AVC, 4776 kbps, 1920x1080p, 23.976 fps
Аудио №1: AC3, 5.1, 384 kbps, 6 ch, 48.0 KHz - Профессиональный (полное дублирование) [-Лицензия-]
Аудио №2: AC3, 5.1, 448 kbps, 6 ch, 48.0 KHz - Профессиональный (многоголосый закадровый) [-MVO-]
Аудио №3: AC3, 5.1, 384 kbps, 6 ch, 48.0 KHz - English
Субтитры: Russian, English-
MediaInfo

General
Unique ID : 170904260682406395068552855627448042986 (0x8092F69C9BDB3ED39ABD2C42F38DC5EA)
Format : Matroska
Format version : Version 4 / Version 2
File size : 2.58 GiB
Duration : 1h 0mn
Overall bit rate : 6 113 Kbps
Encoded date : UTC 2014-08-25 19:15:09
Writing application : mkvmerge v7.1.0 ('Good Love') 64bit built on Jul 27 2014 13:06:55
Writing library : libebml v1.3.0 + libmatroska v1.4.1
DURATION : 01:00:16.808000000
NUMBER_OF_FRAMES : 1126
NUMBER_OF_BYTES : 28720
_STATISTICS_WRITING_APP : mkvmerge v7.1.0 ('Good Love') 64bit built on Jul 27 2014 13:06:55
_STATISTICS_WRITING_DATE_UTC : 2014-08-25 19:15:09
_STATISTICS_TAGS : BPS DURATION NUMBER_OF_FRAMES NUMBER_OF_BYTES
Video
ID : 1
Format : AVC
Format/Info : Advanced Video Codec
Format profile : High@L4.0
Format settings, CABAC : Yes
Format settings, ReFrames : 4 frames
Codec ID : V_MPEG4/ISO/AVC
Duration : 1h 0mn
Bit rate : 4 776 Kbps
Width : 1 920 pixels
Height : 1 080 pixels
Display aspect ratio : 16:9
Frame rate mode : Constant
Frame rate : 23.976 fps
Color space : YUV
Chroma subsampling : 4:2:0
Bit depth : 8 bits
Scan type : Progressive
Bits/(Pixel*Frame) : 0.096
Stream size : 2.02 GiB (78%)
Language : English
Default : Yes
Forced : No
Color primaries : BT.709
Transfer characteristics : BT.709
Matrix coefficients : BT.709
Audio #1
ID : 2
Format : AC-3
Format/Info : Audio Coding 3
Mode extension : CM (complete main)
Format settings, Endianness : Big
Codec ID : A_AC3
Duration : 1h 0mn
Bit rate mode : Constant
Bit rate : 384 Kbps
Channel(s) : 6 channels
Channel positions : Front: L C R, Side: L R, LFE
Sampling rate : 48.0 KHz
Bit depth : 16 bits
Compression mode : Lossy
Delay relative to video : 65ms
Stream size : 166 MiB (6%)
Title : DUB
Language : Russian
Default : Yes
Forced : No
Audio #2
ID : 3
Format : AC-3
Format/Info : Audio Coding 3
Mode extension : CM (complete main)
Format settings, Endianness : Big
Codec ID : A_AC3
Duration : 1h 0mn
Bit rate mode : Constant
Bit rate : 448 Kbps
Channel(s) : 6 channels
Channel positions : Front: L C R, Side: L R, LFE
Sampling rate : 48.0 KHz
Bit depth : 16 bits
Compression mode : Lossy
Delay relative to video : 19ms
Stream size : 194 MiB (7%)
Title : MVO
Language : Russian
Default : No
Forced : No
Audio #3
ID : 4
Format : AC-3
Format/Info : Audio Coding 3
Mode extension : CM (complete main)
Format settings, Endianness : Big
Codec ID : A_AC3
Duration : 1h 0mn
Bit rate mode : Constant
Bit rate : 384 Kbps
Channel(s) : 6 channels
Channel positions : Front: L C R, Side: L R, LFE
Sampling rate : 48.0 KHz
Bit depth : 16 bits
Compression mode : Lossy
Stream size : 166 MiB (6%)
Title : Original
Language : English
Default : No
Forced : No
Text #1
ID : 5
Format : UTF-8
Codec ID : S_TEXT/UTF8
Codec ID/Info : UTF-8 Plain Text
Title : Rus
Language : Russian
Default : Yes
Forced : No
Text #2
ID : 6
Format : UTF-8
Codec ID : S_TEXT/UTF8
Codec ID/Info : UTF-8 Plain Text
Title : Eng
Language : English
Default : No
Forced : No

Menu
00:00:00.000 : en:Opening / Aloha, Cousin!
00:05:33.000 : en:One Of A Kind
00:11:27.000 : en:How Bad Can It Be?
00:17:06.000 : en:Experiment 221
00:21:33.000 : en:Dr. Jacques Von Hamsterviel
00:26:09.000 : en:Detention Cell Phone
00:30:15.000 : en:A Sleepy Cobra
00:37:07.000 : en:The Old Lighthouse
00:42:50.000 : en:Be Free, Cousins
00:47:24.000 : en:A Buncha Baloney
00:53:13.000 : en:Sparky's New Job / Closing
01:00:06.000 : en:I'll Get The Wig
Скриншоты








-- --Лерой и Стич / Leroy & Stitch-- Год выпуска: 2006
Страна: США
Жанр: мультфильм, фантастика, приключения, семейный
Продолжительность: 01:12:44
Перевод: Профессиональный (полное дублирование) [-Лицензия-]- Режиссер: Тони Крэйг, Роберт Ганнавей
В ролях: Дэйви Чейз, Крис Сандерс, Тиа Каррере, Дэвид Огден Стайерз, Кевин МакДональд, Винг Реймз, Ди Брэдли Бейкер, Кевин Майкл Ричардсон, Джефф Беннетт, Кори Бертон- Описание:
Джамба, Пликли и Стич начинают новую жизнь. Джамба улетает проводить исследования в своей Лаборатории Злого Гения, Пликли отправляется преподавать «Землеведение» в Общественном Колледже Галактического Альянса, а Стич готовится стать капитаном Большого Красного Крейсера БКК-9000.
Лило очень не хочет, чтобы друзья покидали Землю, но понимает, что отпуская их, она делится с ними силой Алоха, и обязательно получит ее назад. Но проходит не так много времени и друзья вновь собираются вместе, т. к. доктор Хомяксвиль сбежал из межгалактической тюрьмы, клонировал точную копию Cтича и назвал двойника Лерой. И таких злобных двойников скоро будет целая армия. С этой армией доктор собирается завоевать Вселенную…
-

Рейтинг PG - рекомендуется присутствие родителей!- Качество: WEB-DL 1080p
Формат: MKV
Видео: AVC, 4776 kbps, 1916x1076p, 23.976 fps
Аудио №1: AC3, 2.0, 256 kbps, 2 ch, 48.0 KHz - Профессиональный (полное дублирование) [-Лицензия-]
Аудио №2: AC3, 5.1, 448 kbps, 6 ch, 48.0 KHz - Профессиональный (многоголосый закадровый) [-MVO-]
Аудио №3: AC3, 2.0, 192 kbps, 2 ch, 48.0 KHz - Профессиональный (одноголосый закадровый) [-VO-]
Аудио №4: AC3, 5.1, 384 kbps, 6 ch, 48.0 KHz - English
Субтитры: Russian, English-
MediaInfo

General
Unique ID : 187828709517085066370324046950535191791 (0x8D4E7E5D0EEB1FC89879B059A1FADCEF)
Format : Matroska
Format version : Version 4 / Version 2
File size : 3.10 GiB
Duration : 1h 12mn
Overall bit rate : 6 107 Kbps
Encoded date : UTC 2014-08-21 14:34:07
Writing application : mkvmerge v7.1.0 ('Good Love') 64bit built on Jul 27 2014 13:06:55
Writing library : libebml v1.3.0 + libmatroska v1.4.1
DURATION : 01:12:09.056000000
NUMBER_OF_FRAMES : 1025
NUMBER_OF_BYTES : 33717
_STATISTICS_WRITING_APP : mkvmerge v7.1.0 ('Good Love') 64bit built on Jul 27 2014 13:06:55
_STATISTICS_WRITING_DATE_UTC : 2014-08-21 14:34:07
_STATISTICS_TAGS : BPS DURATION NUMBER_OF_FRAMES NUMBER_OF_BYTES
Video
ID : 1
Format : AVC
Format/Info : Advanced Video Codec
Format profile : High@L4.0
Format settings, CABAC : Yes
Format settings, ReFrames : 4 frames
Codec ID : V_MPEG4/ISO/AVC
Duration : 1h 12mn
Bit rate : 4 705 Kbps
Width : 1 916 pixels
Height : 1 076 pixels
Display aspect ratio : 16:9
Frame rate mode : Constant
Frame rate : 23.976 fps
Color space : YUV
Chroma subsampling : 4:2:0
Bit depth : 8 bits
Scan type : Progressive
Bits/(Pixel*Frame) : 0.095
Stream size : 2.39 GiB (77%)
Language : English
Default : Yes
Forced : No
Color primaries : BT.709
Transfer characteristics : BT.709
Matrix coefficients : BT.709
Audio #1
ID : 2
Format : AC-3
Format/Info : Audio Coding 3
Mode extension : CM (complete main)
Format settings, Endianness : Big
Codec ID : A_AC3
Duration : 1h 12mn
Bit rate mode : Constant
Bit rate : 256 Kbps
Channel(s) : 2 channels
Channel positions : Front: L R
Sampling rate : 48.0 KHz
Bit depth : 16 bits
Compression mode : Lossy
Stream size : 133 MiB (4%)
Title : DUB
Language : Russian
Default : Yes
Forced : No
Audio #2
ID : 3
Format : AC-3
Format/Info : Audio Coding 3
Mode extension : CM (complete main)
Format settings, Endianness : Big
Codec ID : A_AC3
Duration : 1h 12mn
Bit rate mode : Constant
Bit rate : 448 Kbps
Channel(s) : 6 channels
Channel positions : Front: L C R, Side: L R, LFE
Sampling rate : 48.0 KHz
Bit depth : 16 bits
Compression mode : Lossy
Stream size : 233 MiB (7%)
Title : MVO
Language : Russian
Default : No
Forced : No
Audio #3
ID : 4
Format : AC-3
Format/Info : Audio Coding 3
Mode extension : CM (complete main)
Format settings, Endianness : Big
Codec ID : A_AC3
Duration : 1h 12mn
Bit rate mode : Constant
Bit rate : 192 Kbps
Channel(s) : 2 channels
Channel positions : Front: L R
Sampling rate : 48.0 KHz
Bit depth : 16 bits
Compression mode : Lossy
Stream size : 99.9 MiB (3%)
Title : AVO
Language : Russian
Default : No
Forced : No
Audio #4
ID : 5
Format : AC-3
Format/Info : Audio Coding 3
Mode extension : CM (complete main)
Format settings, Endianness : Big
Codec ID : A_AC3
Duration : 1h 12mn
Bit rate mode : Constant
Bit rate : 384 Kbps
Channel(s) : 6 channels
Channel positions : Front: L C R, Side: L R, LFE
Sampling rate : 48.0 KHz
Bit depth : 16 bits
Compression mode : Lossy
Stream size : 200 MiB (6%)
Title : Original
Language : English
Default : No
Forced : No
Text #1
ID : 6
Format : UTF-8
Codec ID : S_TEXT/UTF8
Codec ID/Info : UTF-8 Plain Text
Title : Rus
Language : Russian
Default : Yes
Forced : No
Text #2
ID : 7
Format : UTF-8
Codec ID : S_TEXT/UTF8
Codec ID/Info : UTF-8 Plain Text
Title : Eng
Language : English
Default : No
Forced : No

Menu
00:00:00.000 : en:Main Title
00:05:14.000 : en:Hard To Say Goodbye
00:12:01.000 : en:Captain Stitch
00:18:40.000 : en:New Routines
00:23:35.000 : en:So Lonesome
00:26:01.000 : en:Does It Come In Red?
00:33:41.000 : en:Special Order
00:42:12.000 : en:Leroy Collects His Cousins
00:48:57.000 : en:Looking For Stitch
00:55:35.000 : en:50,000 Leroy Clones Can't Be Wrong
01:01:50.000 : en:Aloha From Hawaii
01:07:57.000 : en:End Credits
Скриншоты








[Профиль] [ЛС]
Показать сообщения:    
Ответить на тему

Текущее время: 19-Ноя 11:36

Часовой пояс: UTC + 3



Вы не можете начинать темы
Вы не можете отвечать на сообщения
Вы не можете редактировать свои сообщения
Вы не можете удалять свои сообщения
Вы не можете голосовать в опросах
Вы не можете прикреплять файлы к сообщениям
Вы не можете скачивать файлы